  0
SECTION
  2
HEADER
  9
$ACADVER
  1
AC1009
999
I-DEAS 11 NX Not Encoded
  9
$EXTMIN
 10
0.0
 20
0.0
  9
$EXTMAX
 10
2.1E+002
 20
2.97E+002
  9
$TEXTSIZE
 40
1.25E-001
  9
$LTSCALE
 40
1.0
  9
$CLAYER
  8
104
  9
$CECOLOR
 62
40
  9
$DIMASZ
 40
1.25E-001
  9
$DIMEXO
 40
6.25E-002
  9
$DIMDLI
 40
2.5E-001
  9
$DIMEXE
 40
1.25E-001
  9
$DIMTP
 40
5.0E-003
  9
$DIMTM
 40
-5.0E-003
  9
$DIMTXT
 40
3.0
  9
$DIMLIM
 70
0
  9
$DIMTIH
 70
1
  9
$DIMTOH
 70
1
  9
$DIMSE1
 70
0
  9
$DIMSE2
 70
0
  9
$DIMTAD
 70
0
  9
$DIMASO
 70
1
  9
$DIMALT
 70
0
  9
$DIMALTD
 70
0
  9
$DIMTOFL
 70
1
  9
$DIMTIX
 70
0
  9
$DIMSAH
 70
0
  9
$DIMTFAC
 40
1.0
  9
$DIMGAP
 40
6.25E-002
  9
$LUNITS
 70
2
  9
$LUPREC
 70
3
  9
$FILLETRAD
 40
2.0
  9
$AUNITS
 70
0
  9
$AUPREC
 70
1
  9
$CHAMFERA
 40
1.0E+001
  9
$CHAMFERB
 40
1.0E+001
  9
$ANGBASE
 50
0.0
  9
$ANGDIR
 70
0
  9
$PEXTMIN
 10
0.0
 20
0.0
 30
0.0
  9
$PEXTMAX
 10
2.1E+002
 20
2.97E+002
 30
0.0
  9
$PLIMMIN
 10
0.0
 20
0.0
  9
$PLIMMAX
 10
2.1E+002
 20
2.97E+002
  9
$PDMODE
 70
2
  9
$PDSIZE
 40
-1.0E-002
  9
$SPLINETYPE
 70
6
  9
$TILEMODE
 70
0
  0
ENDSEC
  0
SECTION
  2
TABLES
  0
TABLE
  2
VPORT
 70
2
  0
VPORT
  2
*Active
 70
0
 10
0.0
 20
0.0
 11
2.1E+002
 21
2.97E+002
 12
1.05E+002
 22
1.485E+002
 13
0.0
 23
0.0
 14
1.0
 24
1.0
 15
0.0
 25
0.0
 16
0.0
 26
0.0
 36
1.0
 17
0.0
 27
0.0
 37
0.0
 40
2.97E+002
 41
7.0707071E-001
 42
5.0E+001
 43
0.0
 44
0.0
 50
0.0
 51
0.0
 71
0
 72
1000
 73
1
 74
3
 75
0
 76
0
 77
0
 78
0
  0
ENDTAB
  0
TABLE
  2
LTYPE
 70
7
  0
LTYPE
  2
HIDDENNEW0
  3
_ 
 70
64
 72
65
 73
3
 40
4.5
 49
1.5
 49
-1.5
 49
1.5
  0
LTYPE
  2
HIDDENNEW1
  3
_ 
 70
64
 72
65
 73
3
 40
4.5
 49
1.5
 49
-1.5
 49
1.5
  0
LTYPE
  2
HIDDEN
  3
_ 
 70
64
 72
65
 73
3
 40
4.5
 49
1.5
 49
-1.5
 49
1.5
  0
LTYPE
  2
CENTERLINE
  3
_ 
 70
64
 72
65
 73
5
 40
3.0E+001
 49
1.2E+001
 49
-1.5
 49
3.0
 49
-1.5
 49
1.2E+001
  0
LTYPE
  2
PHANTOM
  3
_ 
 70
64
 72
65
 73
7
 40
2.95E+001
 49
9.5
 49
-1.5
 49
3.0
 49
-1.5
 49
3.0
 49
-1.5
 49
9.5
  0
LTYPE
  2
SHORT_DASH
  3
_ 
 70
64
 72
65
 73
3
 40
3.0
 49
7.5E-001
 49
-1.5
 49
7.5E-001
  0
LTYPE
  2
LONG_DASH
  3
_ 
 70
64
 72
65
 73
3
 40
9.0
 49
2.25
 49
-4.5
 49
2.25
  0
ENDTAB
  0
TABLE
  2
LAYER
 70
258
  0
LAYER
  2
0
 70
0
 62
7
  6
CONTINUOUS
  0
LAYER
  2
1
 70
0
 62
7
  6
CONTINUOUS
  0
LAYER
  2
Drafting_Hidden_Entities
 70
1
 62
7
  6
CONTINUOUS
  0
ENDTAB
  0
TABLE
  2
STYLE
 70
1
  0
STYLE
  2
STANDARD
 70
64
 40
0.0
 41
1.0
 50
0.0
 71
0
 42
1.0
  3
monotxt.shx
  4

  0
ENDTAB
  0
TABLE
  2
VIEW
 70
0
  0
ENDTAB
  0
TABLE
  2
DIMSTYLE
 70
13
  0
DIMSTYLE
  2
DSTYLE1
 70
0
  3

  4

  5

  6

  7

 40
1.0
 41
8.0
 42
0.0
 43
3.8E-001
 44
1.5
 45
1.0E-003
 46
0.0
 47
1.0E-001
 48
1.0E-001
 71
0
 72
0
 73
0
 74
0
 75
0
 76
0
 77
1
 78
11
140
6.4
141
9.0E-002
142
0.0
143
3.9370079E-002
144
1.0
145
0.0
146
1.0
147
1.5
170
0
171
2
172
0
173
0
174
0
175
0
176
0
177
0
178
0
  0
DIMSTYLE
  2
DSTYLE2
 70
0
  3

  4

  5

  6

  7

 40
1.0
 41
7.0
 42
1.0
 43
3.8E-001
 44
1.0
 45
0.0
 46
0.0
 47
1.0E-001
 48
1.0E-001
 71
0
 72
0
 73
0
 74
0
 75
0
 76
0
 77
1
 78
11
140
6.4
141
9.0E-002
142
0.0
143
1.0
144
1.0
145
0.0
146
1.0
147
1.0656
170
0
171
2
172
0
173
0
174
0
175
0
176
0
177
0
178
0
  0
DIMSTYLE
  2
DSTYLE3
 70
0
  3

  4

  5

  6

  7

 40
1.0
 41
7.0
 42
1.0
 43
3.8E-001
 44
1.0
 45
1.0E-001
 46
0.0
 47
1.0E-001
 48
1.0E-001
 71
0
 72
0
 73
0
 74
0
 75
0
 76
0
 77
1
 78
11
140
6.4
141
9.0E-002
142
0.0
143
1.0
144
1.0
145
0.0
146
1.0
147
1.0656
170
0
171
2
172
0
173
0
174
0
175
0
176
0
177
0
178
0
  0
DIMSTYLE
  2
DSTYLE4
 70
0
  3

  4

  5

  6

  7

 40
1.0
 41
7.0
 42
1.0
 43
3.8E-001
 44
1.0
 45
0.0
 46
0.0
 47
1.0E-001
 48
1.0E-001
 71
0
 72
0
 73
0
 74
0
 75
0
 76
0
 77
1
 78
11
140
7.0
141
9.0E-002
142
0.0
143
1.0
144
1.0
145
0.0
146
1.0
147
1.1655
170
0
171
2
172
0
173
0
174
0
175
0
176
0
177
0
178
0
  0
DIMSTYLE
  2
DSTYLE5
 70
0
  3

  4

  5

  6

  7

 40
1.0
 41
7.0
 42
1.0
 43
3.8E-001
 44
1.0
 45
0.0
 46
0.0
 47
1.0E-001
 48
1.0E-001
 71
0
 72
0
 73
0
 74
0
 75
0
 76
0
 77
1
 78
11
140
6.4
141
9.0E-002
142
0.0
143
1.0
144
1.0
145
0.0
146
1.0
147
1.1655
170
0
171
2
172
0
173
0
174
0
175
0
176
0
177
0
178
0
  0
DIMSTYLE
  2
DSTYLE6
 70
0
  3

  4

  5

  6

  7

 40
1.0
 41
8.0
 42
0.0
 43
3.8E-001
 44
1.5
 45
1.0E-003
 46
0.0
 47
1.0E-001
 48
1.0E-001
 71
0
 72
0
 73
0
 74
0
 75
0
 76
0
 77
1
 78
11
140
7.0
141
9.0E-002
142
0.0
143
3.9370079E-002
144
1.0
145
0.0
146
1.0
147
1.5
170
0
171
2
172
0
173
0
174
0
175
0
176
0
177
0
178
0
  0
DIMSTYLE
  2
DSTYLE7
 70
0
  3

  4

  5

  6

  7

 40
1.0
 41
8.0
 42
0.0
 43
3.8E-001
 44
1.5
 45
1.0E-003
 46
0.0
 47
1.0E-001
 48
1.0E-001
 71
0
 72
0
 73
0
 74
0
 75
0
 76
0
 77
1
 78
11
140
6.4
141
9.0E-002
142
0.0
143
1.0
144
1.0
145
0.0
146
1.0
147
1.5
170
0
171
2
172
0
173
0
174
0
175
0
176
0
177
0
178
0
  0
DIMSTYLE
  2
DSTYLE8
 70
0
  3

  4

  5

  6

  7

 40
1.0
 41
6.0
 42
0.0
 43
3.8E-001
 44
2.25
 45
1.0E-003
 46
0.0
 47
1.0E-001
 48
1.0E-001
 71
0
 72
0
 73
0
 74
0
 75
0
 76
0
 77
1
 78
11
140
4.8
141
9.0E-002
142
0.0
143
3.9370079E-002
144
1.0
145
0.0
146
1.0
147
2.25
170
0
171
2
172
0
173
0
174
0
175
0
176
0
177
0
178
0
  0
DIMSTYLE
  2
DSTYLE9
 70
0
  3

  4

  5

  6

  7

 40
1.0
 41
5.25
 42
1.5
 43
3.8E-001
 44
1.5
 45
1.0E-002
 46
0.0
 47
1.0E-001
 48
1.0E-001
 71
0
 72
0
 73
0
 74
0
 75
0
 76
0
 77
1
 78
11
140
4.8
141
9.0E-002
142
0.0
143
1.0
144
1.0
145
0.0
146
1.0
147
1.365782
170
0
171
2
172
0
173
0
174
0
175
0
176
0
177
0
178
0
  0
DIMSTYLE
  2
DSTYLE10
 70
0
  3

  4

  5

  6

  7

 40
1.0
 41
5.25
 42
1.5
 43
3.8E-001
 44
1.5
 45
0.0
 46
0.0
 47
1.0E-001
 48
1.0E-001
 71
0
 72
0
 73
0
 74
0
 75
0
 76
0
 77
1
 78
11
140
4.1014475
141
9.0E-002
142
0.0
143
1.0
144
1.0
145
0.0
146
1.0
147
1.365782
170
0
171
2
172
0
173
0
174
0
175
0
176
0
177
0
178
0
  0
DIMSTYLE
  2
DSTYLE11
 70
0
  3

  4

  5

  6

  7

 40
1.0
 41
6.0
 42
0.0
 43
3.8E-001
 44
1.125
 45
1.0E-003
 46
0.0
 47
1.0E-001
 48
1.0E-001
 71
0
 72
0
 73
0
 74
0
 75
0
 76
0
 77
1
 78
11
140
6.4
141
9.0E-002
142
0.0
143
3.9370079E-002
144
1.0
145
0.0
146
1.0
147
1.125
170
0
171
2
172
0
173
0
174
0
175
0
176
0
177
0
178
0
  0
DIMSTYLE
  2
DSTYLE12
 70
0
  3

  4

  5

  6

  7

 40
1.0
 41
5.25
 42
7.5E-001
 43
3.8E-001
 44
7.5E-001
 45
1.0E-002
 46
0.0
 47
1.0E-001
 48
1.0E-001
 71
0
 72
0
 73
0
 74
0
 75
0
 76
0
 77
1
 78
11
140
6.4
141
9.0E-002
142
0.0
143
1.0
144
1.0
145
0.0
146
1.0
147
6.8289101E-001
170
0
171
2
172
0
173
0
174
0
175
0
176
0
177
0
178
0
  0
DIMSTYLE
  2
DSTYLE13
 70
0
  3

  4

  5

  6

  7

 40
1.0
 41
5.25
 42
7.5E-001
 43
3.8E-001
 44
7.5E-001
 45
0.0
 46
0.0
 47
1.0E-001
 48
1.0E-001
 71
0
 72
0
 73
0
 74
0
 75
0
 76
0
 77
1
 78
11
140
6.4
141
9.0E-002
142
0.0
143
1.0
144
1.0
145
0.0
146
1.0
147
6.8289101E-001
170
0
171
2
172
0
173
0
174
0
175
0
176
0
177
0
178
0
  0
ENDTAB
  0
ENDSEC
  0
SECTION
  2
BLOCKS
  0
BLOCK
  2
_AH12
  3
_AH
 10
0.0
 20
0.0
 70
64
  0
LINE
  8
0
  6
CONTINUOUS
 62
0
 10
0.0
 20
0.0
 11
1.0
 21
0.0
  0
LINE
  8
0
  6
CONTINUOUS
 62
0
 10
0.0
 20
0.0
 11
-1.0
 21
0.0
  0
ENDBLK
  0
BLOCK
  2
_AH13
  3
_AH
 10
0.0
 20
0.0
 70
64
  0
SOLID
  8
0
  6
CONTINUOUS
 62
0
 10
0.0
 20
0.0
 11
1.0
 21
-1.66667E-001
 12
1.0
 22
1.66667E-001
 13
0.0
 23
0.0
  0
ENDBLK
  0
BLOCK
  2
_AH14
  3
_AH
 10
0.0
 20
0.0
 70
64
  0
ENDBLK
  0
BLOCK
  2
_AH15
  3
_AH
 10
0.0
 20
0.0
 70
64
  0
CIRCLE
  8
0
  6
CONTINUOUS
 62
0
 10
0.0
 20
0.0
 40
1.66667E-001
  0
LINE
  8
0
  6
CONTINUOUS
 62
0
 10
0.0
 20
0.0
 11
-1.0
 21
0.0
  0
ENDBLK
  0
BLOCK
  2
_AH16
  3
_AH
 10
0.0
 20
0.0
 70
64
  0
POLYLINE
  8
0
  6
CONTINUOUS
 62
0
 66
1
 40
1.66667E-001
 41
1.66667E-001
 70
0
  0
VERTEX
  8
0
 42
1.0
 10
8.3335E-002
 20
0.0
 70
0
  0
VERTEX
  8
0
 42
1.0
 10
-8.3335E-002
 20
0.0
 70
0
  0
VERTEX
  8
0
 42
0.0
 10
8.3335E-002
 20
0.0
 70
0
  0
SEQEND
  0
LINE
  8
0
  6
CONTINUOUS
 62
0
 10
0.0
 20
0.0
 11
-1.0
 21
0.0
  0
ENDBLK
  0
BLOCK
  2
_AH17
  3
_AH
 10
0.0
 20
0.0
 70
64
  0
LINE
  8
0
  6
CONTINUOUS
 62
0
 10
-1.66667E-001
 20
-1.66667E-001
 11
1.66667E-001
 21
-1.66667E-001
  0
LINE
  8
0
  6
CONTINUOUS
 62
0
 10
1.66667E-001
 20
-1.66667E-001
 11
1.66667E-001
 21
1.66667E-001
  0
LINE
  8
0
  6
CONTINUOUS
 62
0
 10
1.66667E-001
 20
1.66667E-001
 11
-1.66667E-001
 21
1.66667E-001
  0
LINE
  8
0
  6
CONTINUOUS
 62
0
 10
-1.66667E-001
 20
1.66667E-001
 11
-1.66667E-001
 21
-1.66667E-001
  0
LINE
  8
0
  6
CONTINUOUS
 62
0
 10
0.0
 20
0.0
 11
-1.0
 21
0.0
  0
ENDBLK
  0
BLOCK
  2
_AH18
  3
_AH
 10
0.0
 20
0.0
 70
64
  0
SOLID
  8
0
  6
CONTINUOUS
 62
0
 10
-1.66667E-001
 20
-1.66667E-001
 11
1.66667E-001
 21
-1.66667E-001
 12
-1.66667E-001
 22
1.66667E-001
 13
1.66667E-001
 23
1.66667E-001
  0
LINE
  8
0
  6
CONTINUOUS
 62
0
 10
0.0
 20
0.0
 11
-1.0
 21
0.0
  0
ENDBLK
  0
BLOCK
  2
_AH19
  3
_AH
 10
0.0
 20
0.0
 70
64
  0
LINE
  8
0
  6
CONTINUOUS
 62
0
 10
-5.0E-001
 20
-5.0E-001
 11
5.0E-001
 21
5.0E-001
  0
LINE
  8
0
  6
CONTINUOUS
 62
0
 10
0.0
 20
0.0
 11
-1.0
 21
0.0
  0
ENDBLK
  0
BLOCK
  2
_AH20
  3
_AH
 10
0.0
 20
0.0
 70
64
  0
POLYLINE
  8
0
  6
CONTINUOUS
 62
0
 66
1
 40
5.0E-001
 41
5.0E-001
 70
0
  0
VERTEX
  8
0
 42
4.1421356E-001
 10
-1.66667E-001
 20
-1.66667E-001
 70
0
  0
VERTEX
  8
0
 42
0.0
 10
0.0
 20
0.0
 70
0
  0
SEQEND
  0
POLYLINE
  8
0
  6
CONTINUOUS
 62
0
 66
1
 40
5.0E-001
 41
5.0E-001
 70
0
  0
VERTEX
  8
0
 42
4.1421356E-001
 10
1.66667E-001
 20
1.66667E-001
 70
0
  0
VERTEX
  8
0
 42
0.0
 10
0.0
 20
0.0
 70
0
  0
SEQEND
  0
LINE
  8
0
  6
CONTINUOUS
 62
0
 10
0.0
 20
0.0
 11
-1.0
 21
0.0
  0
ENDBLK
  0
BLOCK
  2
_AH21
  3
_AH
 10
0.0
 20
0.0
 70
64
  0
LINE
  8
0
  6
CONTINUOUS
 62
0
 10
0.0
 20
0.0
 11
-1.0
 21
-1.66667E-001
  0
LINE
  8
0
  6
CONTINUOUS
 62
0
 10
-1.0
 20
-1.66667E-001
 11
-1.0
 21
1.66667E-001
  0
LINE
  8
0
  6
CONTINUOUS
 62
0
 10
-1.0
 20
1.66667E-001
 11
0.0
 21
0.0
  0
ENDBLK
  0
BLOCK
  2
*XH25
  3
*XH
 10
0.0
 20
0.0
 70
65
  0
LINE
  8
1
  6
CONTINUOUS
 62
1
 10
-2.0202811E+001
 20
-3.5510921
 11
-1.5426978E+001
 21
-3.5510921
  0
LINE
  8
1
  6
CONTINUOUS
 62
1
 10
-1.0930308E+001
 20
-3.5510921
 11
-8.016095
 21
-3.5510921
  0
LINE
  8
1
  6
CONTINUOUS
 62
1
 10
-5.2260628
 20
-3.5510921
 11
-2.9906812
 21
-3.5510921
  0
LINE
  8
1
  6
CONTINUOUS
 62
1
 10
-1.0260592
 20
-3.5510921
 11
1.418396
 21
-3.5510921
  0
LINE
  8
1
  6
CONTINUOUS
 62
1
 10
2.37412
 20
-3.5510921
 11
4.6094526
 21
-3.5510921
  0
LINE
  8
1
  6
CONTINUOUS
 62
1
 10
6.0364902
 20
-3.5510921
 11
8.100171
 21
-3.5510921
  0
LINE
  8
1
  6
CONTINUOUS
 62
1
 10
9.5272084
 20
-3.5510921
 11
1.1762541E+001
 21
-3.5510921
  0
LINE
  8
1
  6
CONTINUOUS
 62
1
 10
1.2237336E+001
 20
-3.5510921
 11
1.4913234E+001
 21
-3.5510921
  0
LINE
  8
1
  6
CONTINUOUS
 62
1
 10
1.7329697E+001
 20
-3.5510921
 11
2.0005595E+001
 21
-3.5510921
  0
LINE
  8
1
  6
CONTINUOUS
 62
1
 10
1.9962625E+001
 20
-3.3686393
 11
1.7296826E+001
 21
-3.3686393
  0
LINE
  8
1
  6
CONTINUOUS
 62
1
 10
1.4946105E+001
 20
-3.3686393
 11
1.2280306E+001
 21
-3.3686393
  0
LINE
  8
1
  6
CONTINUOUS
 62
1
 10
1.1762541E+001
 20
-3.3686393
 11
9.5272084
 21
-3.3686393
  0
LINE
  8
1
  6
CONTINUOUS
 62
1
 10
8.140293
 20
-3.3686393
 11
5.9963228
 21
-3.3686393
  0
LINE
  8
1
  6
CONTINUOUS
 62
1
 10
4.6094526
 20
-3.3686393
 11
2.37412
 21
-3.3686393
  0
LINE
  8
1
  6
CONTINUOUS
 62
1
 10
1.3231136
 20
-3.3686393
 11
-1.0990524
 21
-3.3686393
  0
LINE
  8
1
  6
CONTINUOUS
 62
1
 10
-2.9906812
 20
-3.3686393
 11
-5.2260628
 21
-3.3686393
  0
LINE
  8
1
  6
CONTINUOUS
 62
1
 10
-7.5692386
 20
-3.3686393
 11
-1.1377164E+001
 21
-3.3686393
  0
LINE
  8
1
  6
CONTINUOUS
 62
1
 10
-1.5001539E+001
 20
-3.3686393
 11
-2.0202811E+001
 21
-3.3686393
  0
LINE
  8
1
  6
CONTINUOUS
 62
1
 10
-2.0202811E+001
 20
-3.1861565
 11
-1.471585E+001
 21
-3.1861565
  0
LINE
  8
1
  6
CONTINUOUS
 62
1
 10
-1.1679141E+001
 20
-3.1861565
 11
-7.2672618
 21
-3.1861565
  0
LINE
  8
1
  6
CONTINUOUS
 62
1
 10
-5.2260628
 20
-3.1861565
 11
-2.9906812
 21
-3.1861565
  0
LINE
  8
1
  6
CONTINUOUS
 62
1
 10
-1.1720456
 20
-3.1861565
 11
1.2278388
 21
-3.1861565
  0
LINE
  8
1
  6
CONTINUOUS
 62
1
 10
2.37412
 20
-3.1861565
 11
4.6094526
 21
-3.1861565
  0
LINE
  8
1
  6
CONTINUOUS
 62
1
 10
5.9562006
 20
-3.1861565
 11
8.1804604
 21
-3.1861565
  0
LINE
  8
1
  6
CONTINUOUS
 62
1
 10
9.5272084
 20
-3.1861565
 11
1.1762541E+001
 21
-3.1861565
  0
LINE
  8
1
  6
CONTINUOUS
 62
1
 10
1.2323238E+001
 20
-3.1861565
 11
1.4978931E+001
 21
-3.1861565
  0
LINE
  8
1
  6
CONTINUOUS
 62
1
 10
1.7264E+001
 20
-3.1861565
 11
1.9919693E+001
 21
-3.1861565
  0
LINE
  8
1
  6
CONTINUOUS
 62
1
 10
1.9876769E+001
 20
-3.0036735
 11
1.7231129E+001
 21
-3.0036735
  0
LINE
  8
1
  6
CONTINUOUS
 62
1
 10
1.5011802E+001
 20
-3.0036735
 11
1.2366162E+001
 21
-3.0036735
  0
LINE
  8
1
  6
CONTINUOUS
 62
1
 10
1.1762541E+001
 20
-3.0036735
 11
9.5272084
 21
-3.0036735
  0
LINE
  8
1
  6
CONTINUOUS
 62
1
 10
8.2206354
 20
-3.0036735
 11
5.9160332
 21
-3.0036735
  0
LINE
  8
1
  6
CONTINUOUS
 62
1
 10
4.6094526
 20
-3.0036735
 11
2.37412
 21
-3.0036735
  0
LINE
  8
1
  6
CONTINUOUS
 62
1
 10
1.1325112
 20
-3.0036735
 11
-1.2450388
 21
-3.0036735
  0
LINE
  8
1
  6
CONTINUOUS
 62
1
 10
-2.9906812
 20
-3.0036735
 11
-5.2260628
 21
-3.0036735
  0
LINE
  8
1
  6
CONTINUOUS
 62
1
 10
-7.0343582
 20
-3.0036735
 11
-1.1912045E+001
 21
-3.0036735
  0
LINE
  8
1
  6
CONTINUOUS
 62
1
 10
-1.4497161E+001
 20
-3.0036735
 11
-2.0202811E+001
 21
-3.0036735
  0
LINE
  8
1
  6
CONTINUOUS
 62
1
 10
-2.0202811E+001
 20
-2.8211907
 11
-1.4321639E+001
 21
-2.8211907
  0
LINE
  8
1
  6
CONTINUOUS
 62
1
 10
-1.2100714E+001
 20
-2.8211907
 11
-6.8456892
 21
-2.8211907
  0
LINE
  8
1
  6
CONTINUOUS
 62
1
 10
-5.2260628
 20
-2.8211907
 11
-2.9906812
 21
-2.8211907
  0
LINE
  8
1
  6
CONTINUOUS
 62
1
 10
-1.3180318
 20
-2.8211907
 11
1.0372364
 21
-2.8211907
  0
LINE
  8
1
  6
CONTINUOUS
 62
1
 10
2.37412
 20
-2.8211907
 11
4.6094526
 21
-2.8211907
  0
LINE
  8
1
  6
CONTINUOUS
 62
1
 10
5.8759112
 20
-2.8211907
 11
8.2607574
 21
-2.8211907
  0
LINE
  8
1
  6
CONTINUOUS
 62
1
 10
9.5272084
 20
-2.8211907
 11
1.1762541E+001
 21
-2.8211907
  0
LINE
  8
1
  6
CONTINUOUS
 62
1
 10
1.2409086E+001
 20
-2.8211907
 11
1.504462E+001
 21
-2.8211907
  0
LINE
  8
1
  6
CONTINUOUS
 62
1
 10
1.7198311E+001
 20
-2.8211907
 11
1.9833845E+001
 21
-2.8211907
  0
LINE
  8
1
  6
CONTINUOUS
 62
1
 10
1.9790868E+001
 20
-2.6387379
 11
1.716544E+001
 21
-2.6387379
  0
LINE
  8
1
  6
CONTINUOUS
 62
1
 10
1.5077491E+001
 20
-2.6387379
 11
1.2452064E+001
 21
-2.6387379
  0
LINE
  8
1
  6
CONTINUOUS
 62
1
 10
1.1762541E+001
 20
-2.6387379
 11
9.5272084
 21
-2.6387379
  0
LINE
  8
1
  6
CONTINUOUS
 62
1
 10
8.3008794
 20
-2.6387379
 11
5.8357892
 21
-2.6387379
  0
LINE
  8
1
  6
CONTINUOUS
 62
1
 10
4.6094526
 20
-2.6387379
 11
2.37412
 21
-2.6387379
  0
LINE
  8
1
  6
CONTINUOUS
 62
1
 10
9.4195404E-001
 20
-2.6387379
 11
-1.391025
 21
-2.6387379
  0
LINE
  8
1
  6
CONTINUOUS
 62
1
 10
-2.9906812
 20
-2.6387379
 11
-5.2260628
 21
-2.6387379
  0
LINE
  8
1
  6
CONTINUOUS
 62
1
 10
-6.689359
 20
-2.6387379
 11
-1.2257044E+001
 21
-2.6387379
  0
LINE
  8
1
  6
CONTINUOUS
 62
1
 10
-1.4177926E+001
 20
-2.6387379
 11
-2.0202811E+001
 21
-2.6387379
  0
LINE
  8
1
  6
CONTINUOUS
 62
1
 10
-2.0202811E+001
 20
-2.4562551
 11
-1.4059493E+001
 21
-2.4562551
  0
LINE
  8
1
  6
CONTINUOUS
 62
1
 10
-1.2387754E+001
 20
-2.4562551
 11
-6.5585996
 21
-2.4562551
  0
LINE
  8
1
  6
CONTINUOUS
 62
1
 10
-5.2260628
 20
-2.4562551
 11
-2.9906812
 21
-2.4562551
  0
LINE
  8
1
  6
CONTINUOUS
 62
1
 10
-1.4640182
 20
-2.4562551
 11
8.4663384E-001
 21
-2.4562551
  0
LINE
  8
1
  6
CONTINUOUS
 62
1
 10
2.37412
 20
-2.4562551
 11
4.6094526
 21
-2.4562551
  0
LINE
  8
1
  6
CONTINUOUS
 62
1
 10
5.7956142
 20
-2.4562551
 11
8.3410468
 21
-2.4562551
  0
LINE
  8
1
  6
CONTINUOUS
 62
1
 10
9.5272084
 20
-2.4562551
 11
1.1762541E+001
 21
-2.4562551
  0
LINE
  8
1
  6
CONTINUOUS
 62
1
 10
1.2494988E+001
 20
-2.4562551
 11
1.5110317E+001
 21
-2.4562551
  0
LINE
  8
1
  6
CONTINUOUS
 62
1
 10
1.7132614E+001
 20
-2.4562551
 11
1.9747943E+001
 21
-2.4562551
  0
LINE
  8
1
  6
CONTINUOUS
 62
1
 10
1.9705019E+001
 20
-2.2737721
 11
1.2537912E+001
 21
-2.2737721
  0
LINE
  8
1
  6
CONTINUOUS
 62
1
 10
1.1762541E+001
 20
-2.2737721
 11
9.5272084
 21
-2.2737721
  0
LINE
  8
1
  6
CONTINUOUS
 62
1
 10
8.381169
 20
-2.2737721
 11
5.7554922
 21
-2.2737721
  0
LINE
  8
1
  6
CONTINUOUS
 62
1
 10
4.6094526
 20
-2.2737721
 11
2.37412
 21
-2.2737721
  0
LINE
  8
1
  6
CONTINUOUS
 62
1
 10
7.5135164E-001
 20
-2.2737721
 11
-1.5370114
 21
-2.2737721
  0
LINE
  8
1
  6
CONTINUOUS
 62
1
 10
-2.9906812
 20
-2.2737721
 11
-5.2260628
 21
-2.2737721
  0
LINE
  8
1
  6
CONTINUOUS
 62
1
 10
-6.4492044
 20
-2.2737721
 11
-1.2497199E+001
 21
-2.2737721
  0
LINE
  8
1
  6
CONTINUOUS
 62
1
 10
-1.3962281E+001
 20
-2.2737721
 11
-2.0202811E+001
 21
-2.2737721
  0
LINE
  8
1
  6
CONTINUOUS
 62
1
 10
-2.0202811E+001
 20
-2.0912893
 11
-1.7743956E+001
 21
-2.0912893
  0
LINE
  8
1
  6
CONTINUOUS
 62
1
 10
-1.6519361E+001
 20
-2.0912893
 11
-1.3883631E+001
 21
-2.0912893
  0
LINE
  8
1
  6
CONTINUOUS
 62
1
 10
-1.2588172E+001
 20
-2.0912893
 11
-9.6912632
 21
-2.0912893
  0
LINE
  8
1
  6
CONTINUOUS
 62
1
 10
-9.2551396
 20
-2.0912893
 11
-6.358231
 21
-2.0912893
  0
LINE
  8
1
  6
CONTINUOUS
 62
1
 10
-5.2260628
 20
-2.0912893
 11
-2.9906812
 21
-2.0912893
  0
LINE
  8
1
  6
CONTINUOUS
 62
1
 10
-1.6100046
 20
-2.0912893
 11
6.5607664E-001
 21
-2.0912893
  0
LINE
  8
1
  6
CONTINUOUS
 62
1
 10
2.37412
 20
-2.0912893
 11
4.6094526
 21
-2.0912893
  0
LINE
  8
1
  6
CONTINUOUS
 62
1
 10
5.7153248
 20
-2.0912893
 11
8.4213364
 21
-2.0912893
  0
LINE
  8
1
  6
CONTINUOUS
 62
1
 10
9.5272084
 20
-2.0912893
 11
1.1762541E+001
 21
-2.0912893
  0
LINE
  8
1
  6
CONTINUOUS
 62
1
 10
1.2580836E+001
 20
-2.0912893
 11
1.9662095E+001
 21
-2.0912893
  0
LINE
  8
1
  6
CONTINUOUS
 62
1
 10
1.961917E+001
 20
-1.9088063
 11
1.2623761E+001
 21
-1.9088063
  0
LINE
  8
1
  6
CONTINUOUS
 62
1
 10
1.1762541E+001
 20
-1.9088063
 11
9.5272084
 21
-1.9088063
  0
LINE
  8
1
  6
CONTINUOUS
 62
1
 10
8.4614584
 20
-1.9088063
 11
5.6752026
 21
-1.9088063
  0
LINE
  8
1
  6
CONTINUOUS
 62
1
 10
4.6094526
 20
-1.9088063
 11
2.37412
 21
-1.9088063
  0
LINE
  8
1
  6
CONTINUOUS
 62
1
 10
5.6074904E-001
 20
-1.9088063
 11
-1.6829978
 21
-1.9088063
  0
LINE
  8
1
  6
CONTINUOUS
 62
1
 10
-2.9906812
 20
-1.9088063
 11
-5.2260628
 21
-1.9088063
  0
LINE
  8
1
  6
CONTINUOUS
 62
1
 10
-6.2836894
 20
-1.9088063
 11
-8.8861632
 21
-1.9088063
  0
LINE
  8
1
  6
CONTINUOUS
 62
1
 10
-1.006024E+001
 20
-1.9088063
 11
-1.2662713E+001
 21
-1.9088063
  0
LINE
  8
1
  6
CONTINUOUS
 62
1
 10
-1.382171E+001
 20
-1.9088063
 11
-1.6256732E+001
 21
-1.9088063
  0
LINE
  8
1
  6
CONTINUOUS
 62
1
 10
-1.7743956E+001
 20
-1.9088063
 11
-2.0202811E+001
 21
-1.9088063
  0
LINE
  8
1
  6
CONTINUOUS
 62
1
 10
-2.0202811E+001
 20
-1.7263233
 11
-1.7743956E+001
 21
-1.7263233
  0
LINE
  8
1
  6
CONTINUOUS
 62
1
 10
-1.6184607E+001
 20
-1.7263233
 11
-1.3775157E+001
 21
-1.7263233
  0
LINE
  8
1
  6
CONTINUOUS
 62
1
 10
-1.2722171E+001
 20
-1.7263233
 11
-1.0208401E+001
 21
-1.7263233
  0
LINE
  8
1
  6
CONTINUOUS
 62
1
 10
-8.7379524
 20
-1.7263233
 11
-6.2241824
 21
-1.7263233
  0
LINE
  8
1
  6
CONTINUOUS
 62
1
 10
-5.2260628
 20
-1.7263233
 11
-2.9906812
 21
-1.7263233
  0
LINE
  8
1
  6
CONTINUOUS
 62
1
 10
-1.7559908
 20
-1.7263233
 11
4.6547424E-001
 21
-1.7263233
  0
LINE
  8
1
  6
CONTINUOUS
 62
1
 10
2.37412
 20
-1.7263233
 11
4.6094526
 21
-1.7263233
  0
LINE
  8
1
  6
CONTINUOUS
 62
1
 10
5.6350278
 20
-1.7263233
 11
8.5016334
 21
-1.7263233
  0
LINE
  8
1
  6
CONTINUOUS
 62
1
 10
9.5272084
 20
-1.7263233
 11
1.1762541E+001
 21
-1.7263233
  0
LINE
  8
1
  6
CONTINUOUS
 62
1
 10
1.2666692E+001
 20
-1.7263233
 11
1.9576193E+001
 21
-1.7263233
  0
LINE
  8
1
  6
CONTINUOUS
 62
1
 10
1.9533269E+001
 20
-1.5438405
 11
1.2709662E+001
 21
-1.5438405
  0
LINE
  8
1
  6
CONTINUOUS
 62
1
 10
1.1762541E+001
 20
-1.5438405
 11
9.5272084
 21
-1.5438405
  0
LINE
  8
1
  6
CONTINUOUS
 62
1
 10
8.5417554
 20
-1.5438405
 11
5.5949056
 21
-1.5438405
  0
LINE
  8
1
  6
CONTINUOUS
 62
1
 10
4.6094526
 20
-1.5438405
 11
2.37412
 21
-1.5438405
  0
LINE
  8
1
  6
CONTINUOUS
 62
1
 10
3.7019184E-001
 20
-1.5438405
 11
-1.8289312
 21
-1.5438405
  0
LINE
  8
1
  6
CONTINUOUS
 62
1
 10
-2.9906812
 20
-1.5438405
 11
-5.2260628
 21
-1.5438405
  0
LINE
  8
1
  6
CONTINUOUS
 62
1
 10
-6.1786976
 20
-1.5438405
 11
-8.6616246
 21
-1.5438405
  0
LINE
  8
1
  6
CONTINUOUS
 62
1
 10
-1.0284778E+001
 20
-1.5438405
 11
-1.276766E+001
 21
-1.5438405
  0
LINE
  8
1
  6
CONTINUOUS
 62
1
 10
-1.3743109E+001
 20
-1.5438405
 11
-1.6179195E+001
 21
-1.5438405
  0
LINE
  8
1
  6
CONTINUOUS
 62
1
 10
-1.7743956E+001
 20
-1.5438405
 11
-2.0202811E+001
 21
-1.5438405
  0
LINE
  8
1
  6
CONTINUOUS
 62
1
 10
-2.0202811E+001
 20
-1.3613575
 11
-1.7743956E+001
 21
-1.3613575
  0
LINE
  8
1
  6
CONTINUOUS
 62
1
 10
-1.6179195E+001
 20
-1.3613575
 11
-1.3724982E+001
 21
-1.3613575
  0
LINE
  8
1
  6
CONTINUOUS
 62
1
 10
-1.27999E+001
 20
-1.3613575
 11
-1.0311271E+001
 21
-1.3613575
  0
LINE
  8
1
  6
CONTINUOUS
 62
1
 10
-8.635132
 20
-1.3613575
 11
-6.1465024
 21
-1.3613575
  0
LINE
  8
1
  6
CONTINUOUS
 62
1
 10
-5.2260628
 20
-1.3613575
 11
-2.9906812
 21
-1.3613575
  0
LINE
  8
1
  6
CONTINUOUS
 62
1
 10
-1.9019244
 20
-1.3613575
 11
2.7487184E-001
 21
-1.3613575
  0
LINE
  8
1
  6
CONTINUOUS
 62
1
 10
2.37412
 20
-1.3613575
 11
4.6094526
 21
-1.3613575
  0
LINE
  8
1
  6
CONTINUOUS
 62
1
 10
5.5547382
 20
-1.3613575
 11
8.5819228
 21
-1.3613575
  0
LINE
  8
1
  6
CONTINUOUS
 62
1
 10
9.5272084
 20
-1.3613575
 11
1.1762541E+001
 21
-1.3613575
  0
LINE
  8
1
  6
CONTINUOUS
 62
1
 10
1.2752586E+001
 20
-1.3613575
 11
1.9490345E+001
 21
-1.3613575
  0
LINE
  8
1
  6
CONTINUOUS
 62
1
 10
1.9447413E+001
 20
-1.1789049
 11
1.2795518E+001
 21
-1.1789049
  0
LINE
  8
1
  6
CONTINUOUS
 62
1
 10
1.1762541E+001
 20
-1.1789049
 11
9.5272084
 21
-1.1789049
  0
LINE
  8
1
  6
CONTINUOUS
 62
1
 10
8.6220448
 20
-1.1789049
 11
5.5146162
 21
-1.1789049
  0
LINE
  8
1
  6
CONTINUOUS
 62
1
 10
4.6094526
 20
-1.1789049
 11
2.37412
 21
-1.1789049
  0
LINE
  8
1
  6
CONTINUOUS
 62
1
 10
1.7958944E-001
 20
-1.1789049
 11
-1.9749174
 21
-1.1789049
  0
LINE
  8
1
  6
CONTINUOUS
 62
1
 10
-2.9906812
 20
-1.1789049
 11
-5.2260628
 21
-1.1789049
  0
LINE
  8
1
  6
CONTINUOUS
 62
1
 10
-6.1270684
 20
-1.1789049
 11
-8.6349394
 21
-1.1789049
  0
LINE
  8
1
  6
CONTINUOUS
 62
1
 10
-1.0311463E+001
 20
-1.1789049
 11
-1.2819285E+001
 21
-1.1789049
  0
LINE
  8
1
  6
CONTINUOUS
 62
1
 10
-1.372034E+001
 20
-1.1789049
 11
-1.6179195E+001
 21
-1.1789049
  0
LINE
  8
1
  6
CONTINUOUS
 62
1
 10
-1.7743956E+001
 20
-1.1789049
 11
-2.0202811E+001
 21
-1.1789049
  0
LINE
  8
1
  6
CONTINUOUS
 62
1
 10
-2.0202811E+001
 20
-9.9642188E-001
 11
-1.7743956E+001
 21
-9.9642188E-001
  0
LINE
  8
1
  6
CONTINUOUS
 62
1
 10
-1.6179195E+001
 20
-9.9642188E-001
 11
-1.372034E+001
 21
-9.9642188E-001
  0
LINE
  8
1
  6
CONTINUOUS
 62
1
 10
-1.2826197E+001
 20
-9.9642188E-001
 11
-1.0311463E+001
 21
-9.9642188E-001
  0
LINE
  8
1
  6
CONTINUOUS
 62
1
 10
-8.6349394
 20
-9.9642188E-001
 11
-6.1202064
 21
-9.9642188E-001
  0
LINE
  8
1
  6
CONTINUOUS
 62
1
 10
-5.2260628
 20
-9.9642188E-001
 11
-2.9906812
 21
-9.9642188E-001
  0
LINE
  8
1
  6
CONTINUOUS
 62
1
 10
-2.0479106
 20
-9.9642188E-001
 11
8.4307038E-002
 21
-9.9642188E-001
  0
LINE
  8
1
  6
CONTINUOUS
 62
1
 10
2.37412
 20
-9.9642188E-001
 11
4.6094526
 21
-9.9642188E-001
  0
LINE
  8
1
  6
CONTINUOUS
 62
1
 10
5.4744488
 20
-9.9642188E-001
 11
8.6622198
 21
-9.9642188E-001
  0
LINE
  8
1
  6
CONTINUOUS
 62
1
 10
9.5272084
 20
-9.9642188E-001
 11
1.1762541E+001
 21
-9.9642188E-001
  0
LINE
  8
1
  6
CONTINUOUS
 62
1
 10
1.2838442E+001
 20
-9.9642188E-001
 11
1.9404489E+001
 21
-9.9642188E-001
  0
LINE
  8
1
  6
CONTINUOUS
 62
1
 10
1.9361519E+001
 20
-8.1393908E-001
 11
1.6836971E+001
 21
-8.1393908E-001
  0
LINE
  8
1
  6
CONTINUOUS
 62
1
 10
1.5405915E+001
 20
-8.1393908E-001
 11
1.2881412E+001
 21
-8.1393908E-001
  0
LINE
  8
1
  6
CONTINUOUS
 62
1
 10
1.1762541E+001
 20
-8.1393908E-001
 11
9.5272084
 21
-8.1393908E-001
  0
LINE
  8
1
  6
CONTINUOUS
 62
1
 10
8.7023418
 20
-8.1393908E-001
 11
5.4343268
 21
-8.1393908E-001
  0
LINE
  8
1
  6
CONTINUOUS
 62
1
 10
4.6094526
 20
-8.1393908E-001
 11
2.37412
 21
-8.1393908E-001
  0
LINE
  8
1
  6
CONTINUOUS
 62
1
 10
-1.1013162E-002
 20
-8.1393908E-001
 11
-2.1209038
 21
-8.1393908E-001
  0
LINE
  8
1
  6
CONTINUOUS
 62
1
 10
-2.9906812
 20
-8.1393908E-001
 11
-5.2260628
 21
-8.1393908E-001
  0
LINE
  8
1
  6
CONTINUOUS
 62
1
 10
-6.1202064
 20
-8.1393908E-001
 11
-8.6349394
 21
-8.1393908E-001
  0
LINE
  8
1
  6
CONTINUOUS
 62
1
 10
-1.0311463E+001
 20
-8.1393908E-001
 11
-1.2826197E+001
 21
-8.1393908E-001
  0
LINE
  8
1
  6
CONTINUOUS
 62
1
 10
-1.372034E+001
 20
-8.1393908E-001
 11
-1.6179195E+001
 21
-8.1393908E-001
  0
LINE
  8
1
  6
CONTINUOUS
 62
1
 10
-1.7743956E+001
 20
-8.1393908E-001
 11
-2.0202811E+001
 21
-8.1393908E-001
  0
LINE
  8
1
  6
CONTINUOUS
 62
1
 10
-2.0202811E+001
 20
-6.3145608E-001
 11
-1.7743956E+001
 21
-6.3145608E-001
  0
LINE
  8
1
  6
CONTINUOUS
 62
1
 10
-1.6179195E+001
 20
-6.3145608E-001
 11
-1.372034E+001
 21
-6.3145608E-001
  0
LINE
  8
1
  6
CONTINUOUS
 62
1
 10
-1.2826197E+001
 20
-6.3145608E-001
 11
-1.0311463E+001
 21
-6.3145608E-001
  0
LINE
  8
1
  6
CONTINUOUS
 62
1
 10
-8.6349394
 20
-6.3145608E-001
 11
-6.1202064
 21
-6.3145608E-001
  0
LINE
  8
1
  6
CONTINUOUS
 62
1
 10
-5.2260628
 20
-6.3145608E-001
 11
-2.9906812
 21
-6.3145608E-001
  0
LINE
  8
1
  6
CONTINUOUS
 62
1
 10
-2.193897
 20
-6.3145608E-001
 11
-1.0628796E-001
 21
-6.3145608E-001
  0
LINE
  8
1
  6
CONTINUOUS
 62
1
 10
2.37412
 20
-6.3145608E-001
 11
4.6094526
 21
-6.3145608E-001
  0
LINE
  8
1
  6
CONTINUOUS
 62
1
 10
5.3941518
 20
-6.3145608E-001
 11
8.7425092
 21
-6.3145608E-001
  0
LINE
  8
1
  6
CONTINUOUS
 62
1
 10
9.5272084
 20
-6.3145608E-001
 11
1.1762541E+001
 21
-6.3145608E-001
  0
LINE
  8
1
  6
CONTINUOUS
 62
1
 10
1.2924344E+001
 20
-6.3145608E-001
 11
1.5438786E+001
 21
-6.3145608E-001
  0
LINE
  8
1
  6
CONTINUOUS
 62
1
 10
1.6804145E+001
 20
-6.3145608E-001
 11
1.9318587E+001
 21
-6.3145608E-001
  0
LINE
  8
1
  6
CONTINUOUS
 62
1
 10
1.9275663E+001
 20
-4.4900348E-001
 11
1.6771319E+001
 21
-4.4900348E-001
  0
LINE
  8
1
  6
CONTINUOUS
 62
1
 10
1.5471612E+001
 20
-4.4900348E-001
 11
1.2967268E+001
 21
-4.4900348E-001
  0
LINE
  8
1
  6
CONTINUOUS
 62
1
 10
1.1762541E+001
 20
-4.4900348E-001
 11
9.5272084
 21
-4.4900348E-001
  0
LINE
  8
1
  6
CONTINUOUS
 62
1
 10
8.7826314
 20
-4.4900348E-001
 11
7.2223646
 21
-4.4900348E-001
  0
LINE
  8
1
  6
CONTINUOUS
 62
1
 10
6.9142964
 20
-4.4900348E-001
 11
5.3540298
 21
-4.4900348E-001
  0
LINE
  8
1
  6
CONTINUOUS
 62
1
 10
4.6094526
 20
-4.4900348E-001
 11
2.37412
 21
-4.4900348E-001
  0
LINE
  8
1
  6
CONTINUOUS
 62
1
 10
1.1027464E-001
 20
-4.4900348E-001
 11
-5.2260628
 21
-4.4900348E-001
  0
LINE
  8
1
  6
CONTINUOUS
 62
1
 10
-6.1202064
 20
-4.4900348E-001
 11
-8.6349394
 21
-4.4900348E-001
  0
LINE
  8
1
  6
CONTINUOUS
 62
1
 10
-1.0311463E+001
 20
-4.4900348E-001
 11
-1.2826197E+001
 21
-4.4900348E-001
  0
LINE
  8
1
  6
CONTINUOUS
 62
1
 10
-1.372034E+001
 20
-4.4900348E-001
 11
-1.6179195E+001
 21
-4.4900348E-001
  0
LINE
  8
1
  6
CONTINUOUS
 62
1
 10
-1.7743956E+001
 20
-4.4900348E-001
 11
-2.0202811E+001
 21
-4.4900348E-001
  0
LINE
  8
1
  6
CONTINUOUS
 62
1
 10
-2.0202811E+001
 20
-2.6652048E-001
 11
-1.7743956E+001
 21
-2.6652048E-001
  0
LINE
  8
1
  6
CONTINUOUS
 62
1
 10
-1.6179195E+001
 20
-2.6652048E-001
 11
-1.372034E+001
 21
-2.6652048E-001
  0
LINE
  8
1
  6
CONTINUOUS
 62
1
 10
-1.2826197E+001
 20
-2.6652048E-001
 11
-1.0311463E+001
 21
-2.6652048E-001
  0
LINE
  8
1
  6
CONTINUOUS
 62
1
 10
-8.6349394
 20
-2.6652048E-001
 11
-6.1202064
 21
-2.6652048E-001
  0
LINE
  8
1
  6
CONTINUOUS
 62
1
 10
-5.2260628
 20
-2.6652048E-001
 11
4.5353284E-001
 21
-2.6652048E-001
  0
LINE
  8
1
  6
CONTINUOUS
 62
1
 10
2.37412
 20
-2.6652048E-001
 11
4.6094526
 21
-2.6652048E-001
  0
LINE
  8
1
  6
CONTINUOUS
 62
1
 10
5.3138624
 20
-2.6652048E-001
 11
6.874129
 21
-2.6652048E-001
  0
LINE
  8
1
  6
CONTINUOUS
 62
1
 10
7.2624868
 20
-2.6652048E-001
 11
8.8227988
 21
-2.6652048E-001
  0
LINE
  8
1
  6
CONTINUOUS
 62
1
 10
9.5272084
 20
-2.6652048E-001
 11
1.1762541E+001
 21
-2.6652048E-001
  0
LINE
  8
1
  6
CONTINUOUS
 62
1
 10
1.3010192E+001
 20
-2.6652048E-001
 11
1.5504483E+001
 21
-2.6652048E-001
  0
LINE
  8
1
  6
CONTINUOUS
 62
1
 10
1.6738448E+001
 20
-2.6652048E-001
 11
1.9232739E+001
 21
-2.6652048E-001
  0
LINE
  8
1
  6
CONTINUOUS
 62
1
 10
1.9189814E+001
 20
-8.4037682E-002
 11
1.6705577E+001
 21
-8.4037682E-002
  0
LINE
  8
1
  6
CONTINUOUS
 62
1
 10
1.5537301E+001
 20
-8.4037682E-002
 11
1.3053117E+001
 21
-8.4037682E-002
  0
LINE
  8
1
  6
CONTINUOUS
 62
1
 10
1.1762541E+001
 20
-8.4037682E-002
 11
9.5272084
 21
-8.4037682E-002
  0
LINE
  8
1
  6
CONTINUOUS
 62
1
 10
8.8629208
 20
-8.4037682E-002
 11
7.3026618
 21
-8.4037682E-002
  0
LINE
  8
1
  6
CONTINUOUS
 62
1
 10
6.834007
 20
-8.4037682E-002
 11
5.2737402
 21
-8.4037682E-002
  0
LINE
  8
1
  6
CONTINUOUS
 62
1
 10
4.6094526
 20
-8.4037682E-002
 11
2.37412
 21
-8.4037682E-002
  0
LINE
  8
1
  6
CONTINUOUS
 62
1
 10
6.9358544E-001
 20
-8.4037682E-002
 11
-5.2260628
 21
-8.4037682E-002
  0
LINE
  8
1
  6
CONTINUOUS
 62
1
 10
-6.1202064
 20
-8.4037682E-002
 11
-8.6349394
 21
-8.4037682E-002
  0
LINE
  8
1
  6
CONTINUOUS
 62
1
 10
-1.0311463E+001
 20
-8.4037682E-002
 11
-1.2826197E+001
 21
-8.4037682E-002
  0
LINE
  8
1
  6
CONTINUOUS
 62
1
 10
-1.372034E+001
 20
-8.4037682E-002
 11
-1.6179195E+001
 21
-8.4037682E-002
  0
LINE
  8
1
  6
CONTINUOUS
 62
1
 10
-1.7743956E+001
 20
-8.4037682E-002
 11
-2.0202811E+001
 21
-8.4037682E-002
  0
LINE
  8
1
  6
CONTINUOUS
 62
1
 10
-2.0202811E+001
 20
9.8445318E-002
 11
-1.7743956E+001
 21
9.8445318E-002
  0
LINE
  8
1
  6
CONTINUOUS
 62
1
 10
-1.6179195E+001
 20
9.8445318E-002
 11
-1.372034E+001
 21
9.8445318E-002
  0
LINE
  8
1
  6
CONTINUOUS
 62
1
 10
-1.2826197E+001
 20
9.8445318E-002
 11
-1.0311463E+001
 21
9.8445318E-002
  0
LINE
  8
1
  6
CONTINUOUS
 62
1
 10
-8.6349394
 20
9.8445318E-002
 11
-6.1202064
 21
9.8445318E-002
  0
LINE
  8
1
  6
CONTINUOUS
 62
1
 10
-5.2260628
 20
9.8445318E-002
 11
8.7868164E-001
 21
9.8445318E-002
  0
LINE
  8
1
  6
CONTINUOUS
 62
1
 10
2.37412
 20
9.8445318E-002
 11
4.6094526
 21
9.8445318E-002
  0
LINE
  8
1
  6
CONTINUOUS
 62
1
 10
5.2336182
 20
9.8445318E-002
 11
6.793832
 21
9.8445318E-002
  0
LINE
  8
1
  6
CONTINUOUS
 62
1
 10
7.342829
 20
9.8445318E-002
 11
8.9030428
 21
9.8445318E-002
  0
LINE
  8
1
  6
CONTINUOUS
 62
1
 10
9.5272084
 20
9.8445318E-002
 11
1.1762541E+001
 21
9.8445318E-002
  0
LINE
  8
1
  6
CONTINUOUS
 62
1
 10
1.3096094E+001
 20
9.8445318E-002
 11
1.5570172E+001
 21
9.8445318E-002
  0
LINE
  8
1
  6
CONTINUOUS
 62
1
 10
1.6672759E+001
 20
9.8445318E-002
 11
1.9146837E+001
 21
9.8445318E-002
  0
LINE
  8
1
  6
CONTINUOUS
 62
1
 10
1.9103913E+001
 20
2.8089792E-001
 11
1.6639933E+001
 21
2.8089792E-001
  0
LINE
  8
1
  6
CONTINUOUS
 62
1
 10
1.5602998E+001
 20
2.8089792E-001
 11
1.3139018E+001
 21
2.8089792E-001
  0
LINE
  8
1
  6
CONTINUOUS
 62
1
 10
1.1762541E+001
 20
2.8089792E-001
 11
9.5272084
 21
2.8089792E-001
  0
LINE
  8
1
  6
CONTINUOUS
 62
1
 10
8.9432178
 20
2.8089792E-001
 11
7.3829512
 21
2.8089792E-001
  0
LINE
  8
1
  6
CONTINUOUS
 62
1
 10
6.75371
 20
2.8089792E-001
 11
5.1934432
 21
2.8089792E-001
  0
LINE
  8
1
  6
CONTINUOUS
 62
1
 10
4.6094526
 20
2.8089792E-001
 11
2.37412
 21
2.8089792E-001
  0
LINE
  8
1
  6
CONTINUOUS
 62
1
 10
1.0266998
 20
2.8089792E-001
 11
-5.2260628
 21
2.8089792E-001
  0
LINE
  8
1
  6
CONTINUOUS
 62
1
 10
-6.1202064
 20
2.8089792E-001
 11
-8.6349394
 21
2.8089792E-001
  0
LINE
  8
1
  6
CONTINUOUS
 62
1
 10
-1.0311463E+001
 20
2.8089792E-001
 11
-1.2826197E+001
 21
2.8089792E-001
  0
LINE
  8
1
  6
CONTINUOUS
 62
1
 10
-1.372034E+001
 20
2.8089792E-001
 11
-1.6179195E+001
 21
2.8089792E-001
  0
LINE
  8
1
  6
CONTINUOUS
 62
1
 10
-1.7743956E+001
 20
2.8089792E-001
 11
-2.0202811E+001
 21
2.8089792E-001
  0
LINE
  8
1
  6
CONTINUOUS
 62
1
 10
-2.0202811E+001
 20
4.6338092E-001
 11
-1.7743956E+001
 21
4.6338092E-001
  0
LINE
  8
1
  6
CONTINUOUS
 62
1
 10
-1.6179195E+001
 20
4.6338092E-001
 11
-1.372034E+001
 21
4.6338092E-001
  0
LINE
  8
1
  6
CONTINUOUS
 62
1
 10
-1.2826197E+001
 20
4.6338092E-001
 11
-1.0311463E+001
 21
4.6338092E-001
  0
LINE
  8
1
  6
CONTINUOUS
 62
1
 10
-8.6349394
 20
4.6338092E-001
 11
-6.1202064
 21
4.6338092E-001
  0
LINE
  8
1
  6
CONTINUOUS
 62
1
 10
-5.2260628
 20
4.6338092E-001
 11
1.1467714
 21
4.6338092E-001
  0
LINE
  8
1
  6
CONTINUOUS
 62
1
 10
2.37412
 20
4.6338092E-001
 11
4.6094526
 21
4.6338092E-001
  0
LINE
  8
1
  6
CONTINUOUS
 62
1
 10
5.1533212
 20
4.6338092E-001
 11
6.7135878
 21
4.6338092E-001
  0
LINE
  8
1
  6
CONTINUOUS
 62
1
 10
7.4230732
 20
4.6338092E-001
 11
8.9833398
 21
4.6338092E-001
  0
LINE
  8
1
  6
CONTINUOUS
 62
1
 10
9.5272084
 20
4.6338092E-001
 11
1.1762541E+001
 21
4.6338092E-001
  0
LINE
  8
1
  6
CONTINUOUS
 62
1
 10
1.3181942E+001
 20
4.6338092E-001
 11
1.5635869E+001
 21
4.6338092E-001
  0
LINE
  8
1
  6
CONTINUOUS
 62
1
 10
1.6607062E+001
 20
4.6338092E-001
 11
1.9060989E+001
 21
4.6338092E-001
  0
LINE
  8
1
  6
CONTINUOUS
 62
1
 10
1.9018065E+001
 20
6.4586392E-001
 11
1.6574244E+001
 21
6.4586392E-001
  0
LINE
  8
1
  6
CONTINUOUS
 62
1
 10
1.5668687E+001
 20
6.4586392E-001
 11
1.3224867E+001
 21
6.4586392E-001
  0
LINE
  8
1
  6
CONTINUOUS
 62
1
 10
1.1762541E+001
 20
6.4586392E-001
 11
9.5272084
 21
6.4586392E-001
  0
LINE
  8
1
  6
CONTINUOUS
 62
1
 10
9.0235072
 20
6.4586392E-001
 11
7.4632406
 21
6.4586392E-001
  0
LINE
  8
1
  6
CONTINUOUS
 62
1
 10
6.6734204
 20
6.4586392E-001
 11
5.1131538
 21
6.4586392E-001
  0
LINE
  8
1
  6
CONTINUOUS
 62
1
 10
4.6094526
 20
6.4586392E-001
 11
2.37412
 21
6.4586392E-001
  0
LINE
  8
1
  6
CONTINUOUS
 62
1
 10
1.2441762
 20
6.4586392E-001
 11
-5.2260628
 21
6.4586392E-001
  0
LINE
  8
1
  6
CONTINUOUS
 62
1
 10
-6.1202064
 20
6.4586392E-001
 11
-8.6349394
 21
6.4586392E-001
  0
LINE
  8
1
  6
CONTINUOUS
 62
1
 10
-1.0311463E+001
 20
6.4586392E-001
 11
-1.2826197E+001
 21
6.4586392E-001
  0
LINE
  8
1
  6
CONTINUOUS
 62
1
 10
-1.372034E+001
 20
6.4586392E-001
 11
-1.6179195E+001
 21
6.4586392E-001
  0
LINE
  8
1
  6
CONTINUOUS
 62
1
 10
-1.7743956E+001
 20
6.4586392E-001
 11
-2.0202811E+001
 21
6.4586392E-001
  0
LINE
  8
1
  6
CONTINUOUS
 62
1
 10
-2.0202811E+001
 20
8.2834672E-001
 11
-1.7743956E+001
 21
8.2834672E-001
  0
LINE
  8
1
  6
CONTINUOUS
 62
1
 10
-1.6179195E+001
 20
8.2834672E-001
 11
-1.372034E+001
 21
8.2834672E-001
  0
LINE
  8
1
  6
CONTINUOUS
 62
1
 10
-1.2826197E+001
 20
8.2834672E-001
 11
-1.0311463E+001
 21
8.2834672E-001
  0
LINE
  8
1
  6
CONTINUOUS
 62
1
 10
-8.6349394
 20
8.2834672E-001
 11
-6.1202064
 21
8.2834672E-001
  0
LINE
  8
1
  6
CONTINUOUS
 62
1
 10
-5.2260628
 20
8.2834672E-001
 11
1.3221998
 21
8.2834672E-001
  0
LINE
  8
1
  6
CONTINUOUS
 62
1
 10
2.37412
 20
8.2834672E-001
 11
4.6094526
 21
8.2834672E-001
  0
LINE
  8
1
  6
CONTINUOUS
 62
1
 10
5.0730318
 20
8.2834672E-001
 11
6.6332984
 21
8.2834672E-001
  0
LINE
  8
1
  6
CONTINUOUS
 62
1
 10
7.5033626
 20
8.2834672E-001
 11
9.0636294
 21
8.2834672E-001
  0
LINE
  8
1
  6
CONTINUOUS
 62
1
 10
9.5272084
 20
8.2834672E-001
 11
1.1762541E+001
 21
8.2834672E-001
  0
LINE
  8
1
  6
CONTINUOUS
 62
1
 10
1.3267798E+001
 20
8.2834672E-001
 11
1.5701558E+001
 21
8.2834672E-001
  0
LINE
  8
1
  6
CONTINUOUS
 62
1
 10
1.6541373E+001
 20
8.2834672E-001
 11
1.8975087E+001
 21
8.2834672E-001
  0
LINE
  8
1
  6
CONTINUOUS
 62
1
 10
1.8932163E+001
 20
1.0107995
 11
1.6508547E+001
 21
1.0107995
  0
LINE
  8
1
  6
CONTINUOUS
 62
1
 10
1.5734384E+001
 20
1.0107995
 11
1.3310723E+001
 21
1.0107995
  0
LINE
  8
1
  6
CONTINUOUS
 62
1
 10
1.1762541E+001
 20
1.0107995
 11
9.5272084
 21
1.0107995
  0
LINE
  8
1
  6
CONTINUOUS
 62
1
 10
9.1038042
 20
1.0107995
 11
7.5435376
 21
1.0107995
  0
LINE
  8
1
  6
CONTINUOUS
 62
1
 10
6.5931234
 20
1.0107995
 11
5.0328644
 21
1.0107995
  0
LINE
  8
1
  6
CONTINUOUS
 62
1
 10
4.6094526
 20
1.0107995
 11
2.37412
 21
1.0107995
  0
LINE
  8
1
  6
CONTINUOUS
 62
1
 10
1.383108
 20
1.0107995
 11
-1.5047596
 21
1.0107995
  0
LINE
  8
1
  6
CONTINUOUS
 62
1
 10
-2.9906812
 20
1.0107995
 11
-5.2260628
 21
1.0107995
  0
LINE
  8
1
  6
CONTINUOUS
 62
1
 10
-6.1202064
 20
1.0107995
 11
-8.6349394
 21
1.0107995
  0
LINE
  8
1
  6
CONTINUOUS
 62
1
 10
-1.0311463E+001
 20
1.0107995
 11
-1.2826197E+001
 21
1.0107995
  0
LINE
  8
1
  6
CONTINUOUS
 62
1
 10
-1.372034E+001
 20
1.0107995
 11
-1.6179195E+001
 21
1.0107995
  0
LINE
  8
1
  6
CONTINUOUS
 62
1
 10
-1.7743956E+001
 20
1.0107995
 11
-2.0202811E+001
 21
1.0107995
  0
LINE
  8
1
  6
CONTINUOUS
 62
1
 10
-2.0202811E+001
 20
1.1932823
 11
-1.7743956E+001
 21
1.1932823
  0
LINE
  8
1
  6
CONTINUOUS
 62
1
 10
-1.6179195E+001
 20
1.1932823
 11
-1.372034E+001
 21
1.1932823
  0
LINE
  8
1
  6
CONTINUOUS
 62
1
 10
-1.2826197E+001
 20
1.1932823
 11
-1.0311463E+001
 21
1.1932823
  0
LINE
  8
1
  6
CONTINUOUS
 62
1
 10
-8.6349394
 20
1.1932823
 11
-6.1202064
 21
1.1932823
  0
LINE
  8
1
  6
CONTINUOUS
 62
1
 10
-5.2260628
 20
1.1932823
 11
-2.9906812
 21
1.1932823
  0
LINE
  8
1
  6
CONTINUOUS
 62
1
 10
-1.3318994
 20
1.1932823
 11
1.4284492
 21
1.1932823
  0
LINE
  8
1
  6
CONTINUOUS
 62
1
 10
2.37412
 20
1.1932823
 11
4.6094526
 21
1.1932823
  0
LINE
  8
1
  6
CONTINUOUS
 62
1
 10
4.9927422
 20
1.1932823
 11
6.5530014
 21
1.1932823
  0
LINE
  8
1
  6
CONTINUOUS
 62
1
 10
7.5836598
 20
1.1932823
 11
9.1439264
 21
1.1932823
  0
LINE
  8
1
  6
CONTINUOUS
 62
1
 10
9.5272084
 20
1.1932823
 11
1.1762541E+001
 21
1.1932823
  0
LINE
  8
1
  6
CONTINUOUS
 62
1
 10
1.3353692E+001
 20
1.1932823
 11
1.5767255E+001
 21
1.1932823
  0
LINE
  8
1
  6
CONTINUOUS
 62
1
 10
1.6475676E+001
 20
1.1932823
 11
1.8889239E+001
 21
1.1932823
  0
LINE
  8
1
  6
CONTINUOUS
 62
1
 10
1.8846307E+001
 20
1.3757653
 11
1.644285E+001
 21
1.3757653
  0
LINE
  8
1
  6
CONTINUOUS
 62
1
 10
1.5800081E+001
 20
1.3757653
 11
1.3396624E+001
 21
1.3757653
  0
LINE
  8
1
  6
CONTINUOUS
 62
1
 10
1.1762541E+001
 20
1.3757653
 11
9.5272084
 21
1.3757653
  0
LINE
  8
1
  6
CONTINUOUS
 62
1
 10
9.1840938
 20
1.3757653
 11
7.623827
 21
1.3757653
  0
LINE
  8
1
  6
CONTINUOUS
 62
1
 10
6.512834
 20
1.3757653
 11
4.9525674
 21
1.3757653
  0
LINE
  8
1
  6
CONTINUOUS
 62
1
 10
4.6094526
 20
1.3757653
 11
2.37412
 21
1.3757653
  0
LINE
  8
1
  6
CONTINUOUS
 62
1
 10
1.4592432
 20
1.3757653
 11
-1.241942
 21
1.3757653
  0
LINE
  8
1
  6
CONTINUOUS
 62
1
 10
-2.9906812
 20
1.3757653
 11
-5.2260628
 21
1.3757653
  0
LINE
  8
1
  6
CONTINUOUS
 62
1
 10
-6.1232012
 20
1.3757653
 11
-8.6349394
 21
1.3757653
  0
LINE
  8
1
  6
CONTINUOUS
 62
1
 10
-1.0311463E+001
 20
1.3757653
 11
-1.2823202E+001
 21
1.3757653
  0
LINE
  8
1
  6
CONTINUOUS
 62
1
 10
-1.372034E+001
 20
1.3757653
 11
-1.6179195E+001
 21
1.3757653
  0
LINE
  8
1
  6
CONTINUOUS
 62
1
 10
-1.7743956E+001
 20
1.3757653
 11
-2.0202811E+001
 21
1.3757653
  0
LINE
  8
1
  6
CONTINUOUS
 62
1
 10
-2.0202811E+001
 20
1.5582481
 11
-1.7743956E+001
 21
1.5582481
  0
LINE
  8
1
  6
CONTINUOUS
 62
1
 10
-1.6179195E+001
 20
1.5582481
 11
-1.3721839E+001
 21
1.5582481
  0
LINE
  8
1
  6
CONTINUOUS
 62
1
 10
-1.2808311E+001
 20
1.5582481
 11
-1.0311463E+001
 21
1.5582481
  0
LINE
  8
1
  6
CONTINUOUS
 62
1
 10
-8.6349394
 20
1.5582481
 11
-6.1380922
 21
1.5582481
  0
LINE
  8
1
  6
CONTINUOUS
 62
1
 10
-5.2260628
 20
1.5582481
 11
-2.9906812
 21
1.5582481
  0
LINE
  8
1
  6
CONTINUOUS
 62
1
 10
-1.2047656
 20
1.5582481
 11
1.4761622
 21
1.5582481
  0
LINE
  8
1
  6
CONTINUOUS
 62
1
 10
2.37412
 20
1.5582481
 11
4.6094526
 21
1.5582481
  0
LINE
  8
1
  6
CONTINUOUS
 62
1
 10
4.9124452
 20
1.5582481
 11
6.472712
 21
1.5582481
  0
LINE
  8
1
  6
CONTINUOUS
 62
1
 10
7.6639492
 20
1.5582481
 11
9.2242158
 21
1.5582481
  0
LINE
  8
1
  6
CONTINUOUS
 62
1
 10
9.5272084
 20
1.5582481
 11
1.1762541E+001
 21
1.5582481
  0
LINE
  8
1
  6
CONTINUOUS
 62
1
 10
1.3439548E+001
 20
1.5582481
 11
1.5832899E+001
 21
1.5582481
  0
LINE
  8
1
  6
CONTINUOUS
 62
1
 10
1.6409979E+001
 20
1.5582481
 11
1.8803383E+001
 21
1.5582481
  0
LINE
  8
1
  6
CONTINUOUS
 62
1
 10
1.8760413E+001
 20
1.7407311
 11
1.6377161E+001
 21
1.7407311
  0
LINE
  8
1
  6
CONTINUOUS
 62
1
 10
1.586577E+001
 20
1.7407311
 11
1.3482473E+001
 21
1.7407311
  0
LINE
  8
1
  6
CONTINUOUS
 62
1
 10
1.1762541E+001
 20
1.7407311
 11
9.5272084
 21
1.7407311
  0
LINE
  8
1
  6
CONTINUOUS
 62
1
 10
9.2643832
 20
1.7407311
 11
7.7041242
 21
1.7407311
  0
LINE
  8
1
  6
CONTINUOUS
 62
1
 10
6.4325446
 20
1.7407311
 11
4.8722778
 21
1.7407311
  0
LINE
  8
1
  6
CONTINUOUS
 62
1
 10
4.6094526
 20
1.7407311
 11
2.37412
 21
1.7407311
  0
LINE
  8
1
  6
CONTINUOUS
 62
1
 10
1.479546
 20
1.7407311
 11
-1.2024468
 21
1.7407311
  0
LINE
  8
1
  6
CONTINUOUS
 62
1
 10
-2.9906812
 20
1.7407311
 11
-5.2260628
 21
1.7407311
  0
LINE
  8
1
  6
CONTINUOUS
 62
1
 10
-6.1656912
 20
1.7407311
 11
-8.64693
 21
1.7407311
  0
LINE
  8
1
  6
CONTINUOUS
 62
1
 10
-1.0299473E+001
 20
1.7407311
 11
-1.2780712E+001
 21
1.7407311
  0
LINE
  8
1
  6
CONTINUOUS
 62
1
 10
-1.3735035E+001
 20
1.7407311
 11
-1.6179195E+001
 21
1.7407311
  0
LINE
  8
1
  6
CONTINUOUS
 62
1
 10
-1.7743956E+001
 20
1.7407311
 11
-2.0202811E+001
 21
1.7407311
  0
LINE
  8
1
  6
CONTINUOUS
 62
1
 10
-2.0202811E+001
 20
1.9232139
 11
-1.7743956E+001
 21
1.9232139
  0
LINE
  8
1
  6
CONTINUOUS
 62
1
 10
-1.6179244E+001
 20
1.9232139
 11
-1.3762056E+001
 21
1.9232139
  0
LINE
  8
1
  6
CONTINUOUS
 62
1
 10
-1.2740008E+001
 20
1.9232139
 11
-1.0242288E+001
 21
1.9232139
  0
LINE
  8
1
  6
CONTINUOUS
 62
1
 10
-8.7041146
 20
1.9232139
 11
-6.2063458
 21
1.9232139
  0
LINE
  8
1
  6
CONTINUOUS
 62
1
 10
-5.2260628
 20
1.9232139
 11
-2.9906812
 21
1.9232139
  0
LINE
  8
1
  6
CONTINUOUS
 62
1
 10
-1.2171904
 20
1.9232139
 11
1.4683748
 21
1.9232139
  0
LINE
  8
1
  6
CONTINUOUS
 62
1
 10
2.37412
 20
1.9232139
 11
6.3924224
 21
1.9232139
  0
LINE
  8
1
  6
CONTINUOUS
 62
1
 10
7.7442462
 20
1.9232139
 11
1.1762541E+001
 21
1.9232139
  0
LINE
  8
1
  6
CONTINUOUS
 62
1
 10
1.352545E+001
 20
1.9232139
 11
1.8717481E+001
 21
1.9232139
  0
LINE
  8
1
  6
CONTINUOUS
 62
1
 10
1.8674557E+001
 20
2.1056969
 11
1.3568374E+001
 21
2.1056969
  0
LINE
  8
1
  6
CONTINUOUS
 62
1
 10
1.1762541E+001
 20
2.1056969
 11
7.7844136
 21
2.1056969
  0
LINE
  8
1
  6
CONTINUOUS
 62
1
 10
6.3522476
 20
2.1056969
 11
2.37412
 21
2.1056969
  0
LINE
  8
1
  6
CONTINUOUS
 62
1
 10
1.4420826
 20
2.1056969
 11
-1.278582
 21
2.1056969
  0
LINE
  8
1
  6
CONTINUOUS
 62
1
 10
-2.9906812
 20
2.1056969
 11
-5.2260628
 21
2.1056969
  0
LINE
  8
1
  6
CONTINUOUS
 62
1
 10
-6.260728
 20
2.1056969
 11
-8.8219202
 21
2.1056969
  0
LINE
  8
1
  6
CONTINUOUS
 62
1
 10
-1.0124437E+001
 20
2.1056969
 11
-1.2685626E+001
 21
2.1056969
  0
LINE
  8
1
  6
CONTINUOUS
 62
1
 10
-1.3803341E+001
 20
2.1056969
 11
-1.6219895E+001
 21
2.1056969
  0
LINE
  8
1
  6
CONTINUOUS
 62
1
 10
-1.7743956E+001
 20
2.1056969
 11
-2.0202811E+001
 21
2.1056969
  0
LINE
  8
1
  6
CONTINUOUS
 62
1
 10
-2.0202811E+001
 20
2.2881797
 11
-1.7743956E+001
 21
2.2881797
  0
LINE
  8
1
  6
CONTINUOUS
 62
1
 10
-1.6373571E+001
 20
2.2881797
 11
-1.3859657E+001
 21
2.2881797
  0
LINE
  8
1
  6
CONTINUOUS
 62
1
 10
-1.2616643E+001
 20
2.2881797
 11
-9.8873304
 21
2.2881797
  0
LINE
  8
1
  6
CONTINUOUS
 62
1
 10
-9.0590272
 20
2.2881797
 11
-6.3297596
 21
2.2881797
  0
LINE
  8
1
  6
CONTINUOUS
 62
1
 10
-5.2260628
 20
2.2881797
 11
-2.9906812
 21
2.2881797
  0
LINE
  8
1
  6
CONTINUOUS
 62
1
 10
-1.402672
 20
2.2881797
 11
1.4000722
 21
2.2881797
  0
LINE
  8
1
  6
CONTINUOUS
 62
1
 10
2.37412
 20
2.2881797
 11
6.3121254
 21
2.2881797
  0
LINE
  8
1
  6
CONTINUOUS
 62
1
 10
7.8245356
 20
2.2881797
 11
1.1762541E+001
 21
2.2881797
  0
LINE
  8
1
  6
CONTINUOUS
 62
1
 10
1.3611298E+001
 20
2.2881797
 11
1.8631633E+001
 21
2.2881797
  0
LINE
  8
1
  6
CONTINUOUS
 62
1
 10
1.8588709E+001
 20
2.4706325
 11
1.3654223E+001
 21
2.4706325
  0
LINE
  8
1
  6
CONTINUOUS
 62
1
 10
1.1762541E+001
 20
2.4706325
 11
7.8646578
 21
2.4706325
  0
LINE
  8
1
  6
CONTINUOUS
 62
1
 10
6.271958
 20
2.4706325
 11
2.37412
 21
2.4706325
  0
LINE
  8
1
  6
CONTINUOUS
 62
1
 10
1.3413922
 20
2.4706325
 11
-1.6584804
 21
2.4706325
  0
LINE
  8
1
  6
CONTINUOUS
 62
1
 10
-2.9906812
 20
2.4706325
 11
-5.2260628
 21
2.4706325
  0
LINE
  8
1
  6
CONTINUOUS
 62
1
 10
-6.4146414
 20
2.4706325
 11
-1.2531762E+001
 21
2.4706325
  0
LINE
  8
1
  6
CONTINUOUS
 62
1
 10
-1.3932118E+001
 20
2.4706325
 11
-2.0202811E+001
 21
2.4706325
  0
LINE
  8
1
  6
CONTINUOUS
 62
1
 10
-2.0202811E+001
 20
2.6531153
 11
-1.4022415E+001
 21
2.6531153
  0
LINE
  8
1
  6
CONTINUOUS
 62
1
 10
-1.2429183E+001
 20
2.6531153
 11
-6.517171
 21
2.6531153
  0
LINE
  8
1
  6
CONTINUOUS
 62
1
 10
-5.2260628
 20
2.6531153
 11
1.2646224
 21
2.6531153
  0
LINE
  8
1
  6
CONTINUOUS
 62
1
 10
2.37412
 20
2.6531153
 11
6.231836
 21
2.6531153
  0
LINE
  8
1
  6
CONTINUOUS
 62
1
 10
7.904825
 20
2.6531153
 11
1.1762541E+001
 21
2.6531153
  0
LINE
  8
1
  6
CONTINUOUS
 62
1
 10
1.3697147E+001
 20
2.6531153
 11
1.8545731E+001
 21
2.6531153
  0
LINE
  8
1
  6
CONTINUOUS
 62
1
 10
1.8502807E+001
 20
2.8355983
 11
1.3740124E+001
 21
2.8355983
  0
LINE
  8
1
  6
CONTINUOUS
 62
1
 10
1.1762541E+001
 20
2.8355983
 11
7.945
 21
2.8355983
  0
LINE
  8
1
  6
CONTINUOUS
 62
1
 10
6.191661
 20
2.8355983
 11
2.37412
 21
2.8355983
  0
LINE
  8
1
  6
CONTINUOUS
 62
1
 10
1.1675576
 20
2.8355983
 11
-5.2260628
 21
2.8355983
  0
LINE
  8
1
  6
CONTINUOUS
 62
1
 10
-6.639905
 20
2.8355983
 11
-1.2306498E+001
 21
2.8355983
  0
LINE
  8
1
  6
CONTINUOUS
 62
1
 10
-1.4132872E+001
 20
2.8355983
 11
-2.0202811E+001
 21
2.8355983
  0
LINE
  8
1
  6
CONTINUOUS
 62
1
 10
-2.0202811E+001
 20
3.0180813
 11
-1.4266966E+001
 21
3.0180813
  0
LINE
  8
1
  6
CONTINUOUS
 62
1
 10
-1.215993E+001
 20
3.0180813
 11
-6.7864238
 21
3.0180813
  0
LINE
  8
1
  6
CONTINUOUS
 62
1
 10
-5.2260628
 20
3.0180813
 11
1.0469496
 21
3.0180813
  0
LINE
  8
1
  6
CONTINUOUS
 62
1
 10
2.37412
 20
3.0180813
 11
6.151539
 21
3.0180813
  0
LINE
  8
1
  6
CONTINUOUS
 62
1
 10
7.9851222
 20
3.0180813
 11
1.1762541E+001
 21
3.0180813
  0
LINE
  8
1
  6
CONTINUOUS
 62
1
 10
1.3783048E+001
 20
3.0180813
 11
1.8459883E+001
 21
3.0180813
  0
LINE
  8
1
  6
CONTINUOUS
 62
1
 10
1.8416959E+001
 20
3.2005339
 11
1.3825973E+001
 21
3.2005339
  0
LINE
  8
1
  6
CONTINUOUS
 62
1
 10
1.1762541E+001
 20
3.2005339
 11
8.0252442
 21
3.2005339
  0
LINE
  8
1
  6
CONTINUOUS
 62
1
 10
6.1113716
 20
3.2005339
 11
2.37412
 21
3.2005339
  0
LINE
  8
1
  6
CONTINUOUS
 62
1
 10
8.9767784E-001
 20
3.2005339
 11
-5.2260628
 21
3.2005339
  0
LINE
  8
1
  6
CONTINUOUS
 62
1
 10
-6.9625282
 20
3.2005339
 11
-1.1983875E+001
 21
3.2005339
  0
LINE
  8
1
  6
CONTINUOUS
 62
1
 10
-1.4430162E+001
 20
3.2005339
 11
-2.0202811E+001
 21
3.2005339
  0
LINE
  8
1
  6
CONTINUOUS
 62
1
 10
-2.0202811E+001
 20
3.3830169
 11
-1.4631595E+001
 21
3.3830169
  0
LINE
  8
1
  6
CONTINUOUS
 62
1
 10
-1.1768668E+001
 20
3.3830169
 11
-7.1777348
 21
3.3830169
  0
LINE
  8
1
  6
CONTINUOUS
 62
1
 10
-5.2260628
 20
3.3830169
 11
7.1098784E-001
 21
3.3830169
  0
LINE
  8
1
  6
CONTINUOUS
 62
1
 10
2.37412
 20
3.3830169
 11
6.0712496
 21
3.3830169
  0
LINE
  8
1
  6
CONTINUOUS
 62
1
 10
8.0654116
 20
3.3830169
 11
1.1762541E+001
 21
3.3830169
  0
LINE
  8
1
  6
CONTINUOUS
 62
1
 10
1.3868904E+001
 20
3.3830169
 11
1.8374027E+001
 21
3.3830169
  0
LINE
  8
1
  6
CONTINUOUS
 62
1
 10
1.8331057E+001
 20
3.5654997
 11
1.3911829E+001
 21
3.5654997
  0
LINE
  8
1
  6
CONTINUOUS
 62
1
 10
1.1762541E+001
 20
3.5654997
 11
8.1055336
 21
3.5654997
  0
LINE
  8
1
  6
CONTINUOUS
 62
1
 10
6.0311274
 20
3.5654997
 11
2.37412
 21
3.5654997
  0
LINE
  8
1
  6
CONTINUOUS
 62
1
 10
4.6982484E-001
 20
3.5654997
 11
-5.2260628
 21
3.5654997
  0
LINE
  8
1
  6
CONTINUOUS
 62
1
 10
-7.4505642
 20
3.5654997
 11
-1.1495839E+001
 21
3.5654997
  0
LINE
  8
1
  6
CONTINUOUS
 62
1
 10
-1.4889054E+001
 20
3.5654997
 11
-2.0202811E+001
 21
3.5654997
  0
LINE
  8
1
  6
CONTINUOUS
 62
1
 10
-2.0202811E+001
 20
3.7479525
 11
-1.5247928E+001
 21
3.7479525
  0
LINE
  8
1
  6
CONTINUOUS
 62
1
 10
-1.1118063E+001
 20
3.7479525
 11
-7.82834
 21
3.7479525
  0
LINE
  8
1
  6
CONTINUOUS
 62
1
 10
-5.2260628
 20
3.7479525
 11
1.3086424E-001
 21
3.7479525
  0
LINE
  8
1
  6
CONTINUOUS
 62
1
 10
2.37412
 20
3.7479525
 11
5.99096
 21
3.7479525
  0
LINE
  8
1
  6
CONTINUOUS
 62
1
 10
8.1457086
 20
3.7479525
 11
1.1762541E+001
 21
3.7479525
  0
LINE
  8
1
  6
CONTINUOUS
 62
1
 10
1.3954798E+001
 20
3.7479525
 11
1.8288133E+001
 21
3.7479525
  0
LINE
  8
1
  6
CONTINUOUS
 62
1
 10
1.8245201E+001
 20
3.9304353
 11
1.399773E+001
 21
3.9304353
  0
LINE
  8
1
  6
CONTINUOUS
 62
1
 10
1.1762541E+001
 20
3.9304353
 11
8.1858306
 21
3.9304353
  0
LINE
  8
1
  6
CONTINUOUS
 62
1
 10
5.950838
 20
3.9304353
 11
2.37412
 21
3.9304353
  0
LINE
  8
1
  6
CONTINUOUS
 62
1
 10
-6.9888916E-001
 20
3.9304353
 11
-5.2260628
 21
3.9304353
  0
LINE
  8
1
  6
CONTINUOUS
 62
1
 10
-8.740902
 20
3.9304353
 11
-1.0205452E+001
 21
3.9304353
  0
LINE
  8
1
  6
CONTINUOUS
 62
1
 10
-1.6120028E+001
 20
3.9304353
 11
-2.0202811E+001
 21
3.9304353
  0
ENDBLK
  0
BLOCK
  2
*XH26
  3
*XH
 10
0.0
 20
0.0
 70
65
  0
LINE
  8
1
  6
CONTINUOUS
 62
1
 10
-1.918589E+001
 20
-6.9235838
 11
-1.6317838E+001
 21
-6.9235838
  0
LINE
  8
1
  6
CONTINUOUS
 62
1
 10
1.6317837E+001
 20
-6.9235838
 11
1.9185893E+001
 21
-6.9235838
  0
LINE
  8
1
  6
CONTINUOUS
 62
1
 10
1.9237957E+001
 20
-6.741101
 11
1.6370143E+001
 21
-6.741101
  0
LINE
  8
1
  6
CONTINUOUS
 62
1
 10
-1.6370143E+001
 20
-6.741101
 11
-1.9237953E+001
 21
-6.741101
  0
LINE
  8
1
  6
CONTINUOUS
 62
1
 10
-1.9289968E+001
 20
-6.558618
 11
-1.6422493E+001
 21
-6.558618
  0
LINE
  8
1
  6
CONTINUOUS
 62
1
 10
1.6422493E+001
 20
-6.558618
 11
1.9289967E+001
 21
-6.558618
  0
LINE
  8
1
  6
CONTINUOUS
 62
1
 10
1.9342031E+001
 20
-6.3761654
 11
1.6474798E+001
 21
-6.3761654
  0
LINE
  8
1
  6
CONTINUOUS
 62
1
 10
-1.6474799E+001
 20
-6.3761654
 11
-1.9342027E+001
 21
-6.3761654
  0
LINE
  8
1
  6
CONTINUOUS
 62
1
 10
-1.9394091E+001
 20
-6.1936824
 11
-1.6527104E+001
 21
-6.1936824
  0
LINE
  8
1
  6
CONTINUOUS
 62
1
 10
1.6527103E+001
 20
-6.1936824
 11
1.9394094E+001
 21
-6.1936824
  0
LINE
  8
1
  6
CONTINUOUS
 62
1
 10
1.9446105E+001
 20
-6.0111996
 11
1.6579454E+001
 21
-6.0111996
  0
LINE
  8
1
  6
CONTINUOUS
 62
1
 10
-1.6579454E+001
 20
-6.0111996
 11
-1.9446105E+001
 21
-6.0111996
  0
LINE
  8
1
  6
CONTINUOUS
 62
1
 10
-1.9498165E+001
 20
-5.8287166
 11
-1.663176E+001
 21
-5.8287166
  0
LINE
  8
1
  6
CONTINUOUS
 62
1
 10
1.6631759E+001
 20
-5.8287166
 11
1.9498168E+001
 21
-5.8287166
  0
LINE
  8
1
  6
CONTINUOUS
 62
1
 10
1.9550232E+001
 20
-5.6462338
 11
1.668411E+001
 21
-5.6462338
  0
LINE
  8
1
  6
CONTINUOUS
 62
1
 10
-1.668411E+001
 20
-5.6462338
 11
-1.9550229E+001
 21
-5.6462338
  0
LINE
  8
1
  6
CONTINUOUS
 62
1
 10
-1.9602288E+001
 20
-5.463781
 11
-1.6736415E+001
 21
-5.463781
  0
LINE
  8
1
  6
CONTINUOUS
 62
1
 10
1.6736415E+001
 20
-5.463781
 11
1.9602243E+001
 21
-5.463781
  0
LINE
  8
1
  6
CONTINUOUS
 62
1
 10
1.9654306E+001
 20
-5.2812982
 11
1.6788766E+001
 21
-5.2812982
  0
LINE
  8
1
  6
CONTINUOUS
 62
1
 10
-1.6788766E+001
 20
-5.2812982
 11
-1.9654303E+001
 21
-5.2812982
  0
LINE
  8
1
  6
CONTINUOUS
 62
1
 10
-1.9706366E+001
 20
-5.0988152
 11
-1.6841071E+001
 21
-5.0988152
  0
LINE
  8
1
  6
CONTINUOUS
 62
1
 10
1.6841071E+001
 20
-5.0988152
 11
1.970637E+001
 21
-5.0988152
  0
LINE
  8
1
  6
CONTINUOUS
 62
1
 10
1.9758426E+001
 20
-4.9163626
 11
1.6893376E+001
 21
-4.9163626
  0
LINE
  8
1
  6
CONTINUOUS
 62
1
 10
-1.6893373E+001
 20
-4.9163626
 11
-1.9758426E+001
 21
-4.9163626
  0
LINE
  8
1
  6
CONTINUOUS
 62
1
 10
-1.981044E+001
 20
-4.7338796
 11
-1.6945727E+001
 21
-4.7338796
  0
LINE
  8
1
  6
CONTINUOUS
 62
1
 10
1.6945727E+001
 20
-4.7338796
 11
1.9810444E+001
 21
-4.7338796
  0
LINE
  8
1
  6
CONTINUOUS
 62
1
 10
1.9862507E+001
 20
-4.5513966
 11
1.6998032E+001
 21
-4.5513966
  0
LINE
  8
1
  6
CONTINUOUS
 62
1
 10
3.7941015
 20
-4.5513966
 11
3.6492709
 21
-4.5513966
  0
LINE
  8
1
  6
CONTINUOUS
 62
1
 10
-3.6492713
 20
-4.5513966
 11
-3.7940983
 21
-4.5513966
  0
LINE
  8
1
  6
CONTINUOUS
 62
1
 10
-1.6998028E+001
 20
-4.5513966
 11
-1.9862504E+001
 21
-4.5513966
  0
LINE
  8
1
  6
CONTINUOUS
 62
1
 10
-1.9914564E+001
 20
-4.3689138
 11
-1.7050383E+001
 21
-4.3689138
  0
LINE
  8
1
  6
CONTINUOUS
 62
1
 10
-5.3646599
 20
-4.3689138
 11
-3.5439397
 21
-4.3689138
  0
LINE
  8
1
  6
CONTINUOUS
 62
1
 10
3.5439429
 20
-4.3689138
 11
5.3647083
 21
-4.3689138
  0
LINE
  8
1
  6
CONTINUOUS
 62
1
 10
1.7050382E+001
 20
-4.3689138
 11
1.9914563E+001
 21
-4.3689138
  0
LINE
  8
1
  6
CONTINUOUS
 62
1
 10
1.9966582E+001
 20
-4.186461
 11
1.7102688E+001
 21
-4.186461
  0
LINE
  8
1
  6
CONTINUOUS
 62
1
 10
6.5649413
 20
-4.186461
 11
3.4385619
 21
-4.186461
  0
LINE
  8
1
  6
CONTINUOUS
 62
1
 10
-3.4385587
 20
-4.186461
 11
-6.5648891
 21
-4.186461
  0
LINE
  8
1
  6
CONTINUOUS
 62
1
 10
-1.7102684E+001
 20
-4.186461
 11
-1.9966627E+001
 21
-4.186461
  0
LINE
  8
1
  6
CONTINUOUS
 62
1
 10
-2.0018642E+001
 20
-4.0039782
 11
-1.7155038E+001
 21
-4.0039782
  0
LINE
  8
1
  6
CONTINUOUS
 62
1
 10
-7.5729675
 20
-4.0039782
 11
-3.3332271
 21
-4.0039782
  0
LINE
  8
1
  6
CONTINUOUS
 62
1
 10
3.3332265
 20
-4.0039782
 11
7.5729707
 21
-4.0039782
  0
LINE
  8
1
  6
CONTINUOUS
 62
1
 10
1.7155038E+001
 20
-4.0039782
 11
2.0018645E+001
 21
-4.0039782
  0
LINE
  8
1
  6
CONTINUOUS
 62
1
 10
2.0070701E+001
 20
-3.8214952
 11
1.7207343E+001
 21
-3.8214952
  0
LINE
  8
1
  6
CONTINUOUS
 62
1
 10
8.4578315
 20
-3.8214952
 11
3.2278909
 21
-3.8214952
  0
LINE
  8
1
  6
CONTINUOUS
 62
1
 10
-3.2278877
 20
-3.8214952
 11
-8.4578283
 21
-3.8214952
  0
LINE
  8
1
  6
CONTINUOUS
 62
1
 10
-1.720734E+001
 20
-3.8214952
 11
-2.0070701E+001
 21
-3.8214952
  0
LINE
  8
1
  6
CONTINUOUS
 62
1
 10
-2.0122765E+001
 20
-3.6390124
 11
-1.7259645E+001
 21
-3.6390124
  0
LINE
  8
1
  6
CONTINUOUS
 62
1
 10
-9.2549031
 20
-3.6390124
 11
-3.1225069
 21
-3.6390124
  0
LINE
  8
1
  6
CONTINUOUS
 62
1
 10
3.1225101
 20
-3.6390124
 11
9.2549027
 21
-3.6390124
  0
LINE
  8
1
  6
CONTINUOUS
 62
1
 10
1.7259648E+001
 20
-3.6390124
 11
2.0122765E+001
 21
-3.6390124
  0
LINE
  8
1
  6
CONTINUOUS
 62
1
 10
2.0174783E+001
 20
-3.4565294
 11
1.7311999E+001
 21
-3.4565294
  0
LINE
  8
1
  6
CONTINUOUS
 62
1
 10
9.9852723
 20
-3.4565294
 11
3.0171821
 21
-3.4565294
  0
LINE
  8
1
  6
CONTINUOUS
 62
1
 10
-3.0171789
 20
-3.4565294
 11
-9.9852729
 21
-3.4565294
  0
LINE
  8
1
  6
CONTINUOUS
 62
1
 10
-1.7311996E+001
 20
-3.4565294
 11
-2.0174779E+001
 21
-3.4565294
  0
LINE
  8
1
  6
CONTINUOUS
 62
1
 10
-2.0226839E+001
 20
-3.2740466
 11
-1.7364301E+001
 21
-3.2740466
  0
LINE
  8
1
  6
CONTINUOUS
 62
1
 10
-1.0662559E+001
 20
-3.2740466
 11
-2.9117979
 21
-3.2740466
  0
LINE
  8
1
  6
CONTINUOUS
 62
1
 10
2.9118011
 20
-3.2740466
 11
1.0662612E+001
 21
-3.2740466
  0
LINE
  8
1
  6
CONTINUOUS
 62
1
 10
1.7364304E+001
 20
-3.2740466
 11
2.0226839E+001
 21
-3.2740466
  0
LINE
  8
1
  6
CONTINUOUS
 62
1
 10
2.0278902E+001
 20
-3.0915636
 11
1.7416655E+001
 21
-3.0915636
  0
LINE
  8
1
  6
CONTINUOUS
 62
1
 10
1.1296445E+001
 20
-3.0915636
 11
2.8064657
 21
-3.0915636
  0
LINE
  8
1
  6
CONTINUOUS
 62
1
 10
-2.8064699
 20
-3.0915636
 11
-1.1296442E+001
 21
-3.0915636
  0
LINE
  8
1
  6
CONTINUOUS
 62
1
 10
-1.7416651E+001
 20
-3.0915636
 11
-2.0278903E+001
 21
-3.0915636
  0
LINE
  8
1
  6
CONTINUOUS
 62
1
 10
-2.0330917E+001
 20
-2.9090808
 11
-1.7468957E+001
 21
-2.9090808
  0
LINE
  8
1
  6
CONTINUOUS
 62
1
 10
-1.1893775E+001
 20
-2.9090808
 11
-2.7010891
 21
-2.9090808
  0
LINE
  8
1
  6
CONTINUOUS
 62
1
 10
2.7010847
 20
-2.9090808
 11
1.1893775E+001
 21
-2.9090808
  0
LINE
  8
1
  6
CONTINUOUS
 62
1
 10
1.746896E+001
 20
-2.9090808
 11
2.033092E+001
 21
-2.9090808
  0
LINE
  8
1
  6
CONTINUOUS
 62
1
 10
2.0382976E+001
 20
-2.726628
 11
1.7521311E+001
 21
-2.726628
  0
LINE
  8
1
  6
CONTINUOUS
 62
1
 10
1.2459834E+001
 20
-2.726628
 11
2.5957567
 21
-2.726628
  0
LINE
  8
1
  6
CONTINUOUS
 62
1
 10
-2.5957535
 20
-2.726628
 11
-1.2459835E+001
 21
-2.726628
  0
LINE
  8
1
  6
CONTINUOUS
 62
1
 10
-1.7521307E+001
 20
-2.726628
 11
-2.0382977E+001
 21
-2.726628
  0
LINE
  8
1
  6
CONTINUOUS
 62
1
 10
-2.043504E+001
 20
-2.5441452
 11
-1.7573612E+001
 21
-2.5441452
  0
LINE
  8
1
  6
CONTINUOUS
 62
1
 10
-1.299868E+001
 20
-2.5441452
 11
-2.4903727
 21
-2.5441452
  0
LINE
  8
1
  6
CONTINUOUS
 62
1
 10
2.4903759
 20
-2.5441452
 11
1.299868E+001
 21
-2.5441452
  0
LINE
  8
1
  6
CONTINUOUS
 62
1
 10
1.7573616E+001
 20
-2.5441452
 11
2.043504E+001
 21
-2.5441452
  0
LINE
  8
1
  6
CONTINUOUS
 62
1
 10
2.0487058E+001
 20
-2.3616622
 11
1.7625913E+001
 21
-2.3616622
  0
LINE
  8
1
  6
CONTINUOUS
 62
1
 10
1.3513643E+001
 20
-2.3616622
 11
2.3850403
 21
-2.3616622
  0
LINE
  8
1
  6
CONTINUOUS
 62
1
 10
-2.3850371
 20
-2.3616622
 11
-1.3513643E+001
 21
-2.3616622
  0
LINE
  8
1
  6
CONTINUOUS
 62
1
 10
-1.7625914E+001
 20
-2.3616622
 11
-2.0487104E+001
 21
-2.3616622
  0
LINE
  8
1
  6
CONTINUOUS
 62
1
 10
-2.0539115E+001
 20
-2.1791792
 11
-1.7678268E+001
 21
-2.1791792
  0
LINE
  8
1
  6
CONTINUOUS
 62
1
 10
-1.4007291E+001
 20
-2.1791792
 11
-2.2797017
 21
-2.1791792
  0
LINE
  8
1
  6
CONTINUOUS
 62
1
 10
2.2797049
 20
-2.1791792
 11
1.4007291E+001
 21
-2.1791792
  0
LINE
  8
1
  6
CONTINUOUS
 62
1
 10
1.7678272E+001
 20
-2.1791792
 11
2.0539114E+001
 21
-2.1791792
  0
LINE
  8
1
  6
CONTINUOUS
 62
1
 10
2.0591178E+001
 20
-1.9966964
 11
1.7730569E+001
 21
-1.9966964
  0
LINE
  8
1
  6
CONTINUOUS
 62
1
 10
1.4481845E+001
 20
-1.9966964
 11
2.1743239
 21
-1.9966964
  0
LINE
  8
1
  6
CONTINUOUS
 62
1
 10
-2.1743207
 20
-1.9966964
 11
-1.4481845E+001
 21
-1.9966964
  0
LINE
  8
1
  6
CONTINUOUS
 62
1
 10
-1.773057E+001
 20
-1.9966964
 11
-2.0591178E+001
 21
-1.9966964
  0
LINE
  8
1
  6
CONTINUOUS
 62
1
 10
-2.0643242E+001
 20
-1.8142436
 11
-1.7782924E+001
 21
-1.8142436
  0
LINE
  8
1
  6
CONTINUOUS
 62
1
 10
-1.4939091E+001
 20
-1.8142436
 11
-2.0689929
 21
-1.8142436
  0
LINE
  8
1
  6
CONTINUOUS
 62
1
 10
2.0689961
 20
-1.8142436
 11
1.4939094E+001
 21
-1.8142436
  0
LINE
  8
1
  6
CONTINUOUS
 62
1
 10
1.7782927E+001
 20
-1.8142436
 11
2.0643241E+001
 21
-1.8142436
  0
LINE
  8
1
  6
CONTINUOUS
 62
1
 10
2.0695252E+001
 20
-1.6317608
 11
1.7835225E+001
 21
-1.6317608
  0
LINE
  8
1
  6
CONTINUOUS
 62
1
 10
1.5380581E+001
 20
-1.6317608
 11
1.9636151
 21
-1.6317608
  0
LINE
  8
1
  6
CONTINUOUS
 62
1
 10
-1.9636119
 20
-1.6317608
 11
-1.5380577E+001
 21
-1.6317608
  0
LINE
  8
1
  6
CONTINUOUS
 62
1
 10
-1.7835225E+001
 20
-1.6317608
 11
-2.0695252E+001
 21
-1.6317608
  0
LINE
  8
1
  6
CONTINUOUS
 62
1
 10
-2.0747316E+001
 20
-1.4492778
 11
-1.788758E+001
 21
-1.4492778
  0
LINE
  8
1
  6
CONTINUOUS
 62
1
 10
-1.5807611E+001
 20
-1.4492778
 11
-1.8582839
 21
-1.4492778
  0
LINE
  8
1
  6
CONTINUOUS
 62
1
 10
1.8582797
 20
-1.4492778
 11
1.5807663E+001
 21
-1.4492778
  0
LINE
  8
1
  6
CONTINUOUS
 62
1
 10
1.7887583E+001
 20
-1.4492778
 11
2.0747315E+001
 21
-1.4492778
  0
LINE
  8
1
  6
CONTINUOUS
 62
1
 10
2.0799379E+001
 20
-1.2668252
 11
1.7939881E+001
 21
-1.2668252
  0
LINE
  8
1
  6
CONTINUOUS
 62
1
 10
1.6221399E+001
 20
-1.2668252
 11
1.7529517
 21
-1.2668252
  0
LINE
  8
1
  6
CONTINUOUS
 62
1
 10
-1.7529485
 20
-1.2668252
 11
-1.62214E+001
 21
-1.2668252
  0
LINE
  8
1
  6
CONTINUOUS
 62
1
 10
-1.7939881E+001
 20
-1.2668252
 11
-2.0799379E+001
 21
-1.2668252
  0
LINE
  8
1
  6
CONTINUOUS
 62
1
 10
-2.085139E+001
 20
-1.0843422
 11
-1.7992186E+001
 21
-1.0843422
  0
LINE
  8
1
  6
CONTINUOUS
 62
1
 10
-1.6622862E+001
 20
-1.0843422
 11
-5.7478967
 21
-1.0843422
  0
LINE
  8
1
  6
CONTINUOUS
 62
1
 10
-4.8081701
 20
-1.0843422
 11
-1.6475675
 21
-1.0843422
  0
LINE
  8
1
  6
CONTINUOUS
 62
1
 10
1.6475707
 20
-1.0843422
 11
4.8081733
 21
-1.0843422
  0
LINE
  8
1
  6
CONTINUOUS
 62
1
 10
5.7478999
 20
-1.0843422
 11
1.6622915E+001
 21
-1.0843422
  0
LINE
  8
1
  6
CONTINUOUS
 62
1
 10
1.7992186E+001
 20
-1.0843422
 11
2.085139E+001
 21
-1.0843422
  0
LINE
  8
1
  6
CONTINUOUS
 62
1
 10
2.0903453E+001
 20
-9.0185944E-001
 11
1.8044536E+001
 21
-9.0185944E-001
  0
LINE
  8
1
  6
CONTINUOUS
 62
1
 10
1.7012919E+001
 20
-9.0185944E-001
 11
6.7939741
 21
-9.0185944E-001
  0
LINE
  8
1
  6
CONTINUOUS
 62
1
 10
4.7027923
 20
-9.0185944E-001
 11
1.5422353
 21
-9.0185944E-001
  0
LINE
  8
1
  6
CONTINUOUS
 62
1
 10
-1.5422321
 20
-9.0185944E-001
 11
-4.7027891
 21
-9.0185944E-001
  0
LINE
  8
1
  6
CONTINUOUS
 62
1
 10
-6.7939709
 20
-9.0185944E-001
 11
-1.7012919E+001
 21
-9.0185944E-001
  0
LINE
  8
1
  6
CONTINUOUS
 62
1
 10
-1.8044537E+001
 20
-9.0185944E-001
 11
-2.0903453E+001
 21
-9.0185944E-001
  0
LINE
  8
1
  6
CONTINUOUS
 62
1
 10
-2.0955517E+001
 20
-7.1937644E-001
 11
-1.8096842E+001
 21
-7.1937644E-001
  0
LINE
  8
1
  6
CONTINUOUS
 62
1
 10
-1.7392289E+001
 20
-7.1937644E-001
 11
-7.6948329
 21
-7.1937644E-001
  0
LINE
  8
1
  6
CONTINUOUS
 62
1
 10
-4.5974575
 20
-7.1937644E-001
 11
-1.4368511
 21
-7.1937644E-001
  0
LINE
  8
1
  6
CONTINUOUS
 62
1
 10
1.4368543
 20
-7.1937644E-001
 11
4.5974569
 21
-7.1937644E-001
  0
LINE
  8
1
  6
CONTINUOUS
 62
1
 10
7.6948323
 20
-7.1937644E-001
 11
1.7392341E+001
 21
-7.1937644E-001
  0
LINE
  8
1
  6
CONTINUOUS
 62
1
 10
1.8096842E+001
 20
-7.1937644E-001
 11
2.0955517E+001
 21
-7.1937644E-001
  0
LINE
  8
1
  6
CONTINUOUS
 62
1
 10
2.100758E+001
 20
-5.3692384E-001
 11
1.8149192E+001
 21
-5.3692384E-001
  0
LINE
  8
1
  6
CONTINUOUS
 62
1
 10
1.7761748E+001
 20
-5.3692384E-001
 11
8.4968885
 21
-5.3692384E-001
  0
LINE
  8
1
  6
CONTINUOUS
 62
1
 10
4.4921289
 20
-5.3692384E-001
 11
1.3315263
 21
-5.3692384E-001
  0
LINE
  8
1
  6
CONTINUOUS
 62
1
 10
-1.3315157
 20
-5.3692384E-001
 11
-4.4921257
 21
-5.3692384E-001
  0
LINE
  8
1
  6
CONTINUOUS
 62
1
 10
-8.4968891
 20
-5.3692384E-001
 11
-1.7761749E+001
 21
-5.3692384E-001
  0
LINE
  8
1
  6
CONTINUOUS
 62
1
 10
-1.8149193E+001
 20
-5.3692384E-001
 11
-2.1007577E+001
 21
-5.3692384E-001
  0
LINE
  8
1
  6
CONTINUOUS
 62
1
 10
-2.1059591E+001
 20
-3.5444084E-001
 11
-1.8201498E+001
 21
-3.5444084E-001
  0
LINE
  8
1
  6
CONTINUOUS
 62
1
 10
-1.8121786E+001
 20
-3.5444084E-001
 11
-9.2258993
 21
-3.5444084E-001
  0
LINE
  8
1
  6
CONTINUOUS
 62
1
 10
-4.3867449
 20
-3.5444084E-001
 11
-1.2261347
 21
-3.5444084E-001
  0
LINE
  8
1
  6
CONTINUOUS
 62
1
 10
1.2261455
 20
-3.5444084E-001
 11
4.3867481
 21
-3.5444084E-001
  0
LINE
  8
1
  6
CONTINUOUS
 62
1
 10
9.2258987
 20
-3.5444084E-001
 11
1.812179E+001
 21
-3.5444084E-001
  0
LINE
  8
1
  6
CONTINUOUS
 62
1
 10
1.8201497E+001
 20
-3.5444084E-001
 11
2.1059591E+001
 21
-3.5444084E-001
  0
LINE
  8
1
  6
CONTINUOUS
 62
1
 10
2.1111654E+001
 20
-1.7195804E-001
 11
9.8979735
 21
-1.7195804E-001
  0
LINE
  8
1
  6
CONTINUOUS
 62
1
 10
4.2814125
 20
-1.7195804E-001
 11
1.1208099
 21
-1.7195804E-001
  0
LINE
  8
1
  6
CONTINUOUS
 62
1
 10
-1.1208067
 20
-1.7195804E-001
 11
-4.2814131
 21
-1.7195804E-001
  0
LINE
  8
1
  6
CONTINUOUS
 62
1
 10
-9.8979703
 20
-1.7195804E-001
 11
-2.1111655E+001
 21
-1.7195804E-001
  0
LINE
  8
1
  6
CONTINUOUS
 62
1
 10
-2.1163714E+001
 20
1.0524958E-002
 11
-1.0524115E+001
 21
1.0524958E-002
  0
LINE
  8
1
  6
CONTINUOUS
 62
1
 10
-4.1760321
 20
1.0524958E-002
 11
-1.0154787
 21
1.0524958E-002
  0
LINE
  8
1
  6
CONTINUOUS
 62
1
 10
1.0154745
 20
1.0524958E-002
 11
4.1760317
 21
1.0524958E-002
  0
LINE
  8
1
  6
CONTINUOUS
 62
1
 10
1.0524118E+001
 20
1.0524958E-002
 11
2.1163718E+001
 21
1.0524958E-002
  0
LINE
  8
1
  6
CONTINUOUS
 62
1
 10
2.1215728E+001
 20
1.9300796E-001
 11
1.1112029E+001
 21
1.9300796E-001
  0
LINE
  8
1
  6
CONTINUOUS
 62
1
 10
4.0706961
 20
1.9300796E-001
 11
9.100935E-001
 21
1.9300796E-001
  0
LINE
  8
1
  6
CONTINUOUS
 62
1
 10
-9.100979E-001
 20
1.9300796E-001
 11
-4.0706967
 21
1.9300796E-001
  0
LINE
  8
1
  6
CONTINUOUS
 62
1
 10
-1.1112025E+001
 20
1.9300796E-001
 11
-2.1215729E+001
 21
1.9300796E-001
  0
LINE
  8
1
  6
CONTINUOUS
 62
1
 10
-2.1267792E+001
 20
3.7549076E-001
 11
-1.1667499E+001
 21
3.7549076E-001
  0
LINE
  8
1
  6
CONTINUOUS
 62
1
 10
-3.9653157
 20
3.7549076E-001
 11
-8.047623E-001
 21
3.7549076E-001
  0
LINE
  8
1
  6
CONTINUOUS
 62
1
 10
8.047581E-001
 20
3.7549076E-001
 11
3.9653153
 21
3.7549076E-001
  0
LINE
  8
1
  6
CONTINUOUS
 62
1
 10
1.1667499E+001
 20
3.7549076E-001
 11
2.1267792E+001
 21
3.7549076E-001
  0
LINE
  8
1
  6
CONTINUOUS
 62
1
 10
2.1319855E+001
 20
5.5797376E-001
 11
1.2194932E+001
 21
5.5797376E-001
  0
LINE
  8
1
  6
CONTINUOUS
 62
1
 10
3.8599873
 20
5.5797376E-001
 11
6.993771E-001
 21
5.5797376E-001
  0
LINE
  8
1
  6
CONTINUOUS
 62
1
 10
-6.993815E-001
 20
5.5797376E-001
 11
-3.8599841
 21
5.5797376E-001
  0
LINE
  8
1
  6
CONTINUOUS
 62
1
 10
-1.2194981E+001
 20
5.5797376E-001
 11
-2.1319852E+001
 21
5.5797376E-001
  0
LINE
  8
1
  6
CONTINUOUS
 62
1
 10
-2.1371916E+001
 20
7.4045656E-001
 11
-1.2697908E+001
 21
7.4045656E-001
  0
LINE
  8
1
  6
CONTINUOUS
 62
1
 10
-3.7546523
 20
7.4045656E-001
 11
-5.940459E-001
 21
7.4045656E-001
  0
LINE
  8
1
  6
CONTINUOUS
 62
1
 10
5.940491E-001
 20
7.4045656E-001
 11
3.7546517
 21
7.4045656E-001
  0
LINE
  8
1
  6
CONTINUOUS
 62
1
 10
1.2697908E+001
 20
7.4045656E-001
 11
2.1371866E+001
 21
7.4045656E-001
  0
LINE
  8
1
  6
CONTINUOUS
 62
1
 10
2.142393E+001
 20
9.2290936E-001
 11
1.3179184E+001
 21
9.2290936E-001
  0
LINE
  8
1
  6
CONTINUOUS
 62
1
 10
3.6492709
 20
9.2290936E-001
 11
4.886683E-001
 21
9.2290936E-001
  0
LINE
  8
1
  6
CONTINUOUS
 62
1
 10
-4.886651E-001
 20
9.2290936E-001
 11
-3.6492713
 21
9.2290936E-001
  0
LINE
  8
1
  6
CONTINUOUS
 62
1
 10
-1.3179181E+001
 20
9.2290936E-001
 11
-2.142393E+001
 21
9.2290936E-001
  0
LINE
  8
1
  6
CONTINUOUS
 62
1
 10
-2.147599E+001
 20
1.1053922
 11
-1.3641019E+001
 21
1.1053922
  0
LINE
  8
1
  6
CONTINUOUS
 62
1
 10
-3.5439397
 20
1.1053922
 11
-3.833295E-001
 21
1.1053922
  0
LINE
  8
1
  6
CONTINUOUS
 62
1
 10
3.833403E-001
 20
1.1053922
 11
3.5439429
 21
1.1053922
  0
LINE
  8
1
  6
CONTINUOUS
 62
1
 10
1.3641018E+001
 20
1.1053922
 11
2.1475993E+001
 21
1.1053922
  0
LINE
  8
1
  6
CONTINUOUS
 62
1
 10
2.1528057E+001
 20
1.2878752
 11
1.4085413E+001
 21
1.2878752
  0
LINE
  8
1
  6
CONTINUOUS
 62
1
 10
3.4385619
 20
1.2878752
 11
2.779595E-001
 21
1.2878752
  0
LINE
  8
1
  6
CONTINUOUS
 62
1
 10
-2.779487E-001
 20
1.2878752
 11
-3.4385587
 21
1.2878752
  0
LINE
  8
1
  6
CONTINUOUS
 62
1
 10
-1.4085409E+001
 20
1.2878752
 11
-2.1528053E+001
 21
1.2878752
  0
LINE
  8
1
  6
CONTINUOUS
 62
1
 10
-2.1580068E+001
 20
1.470358
 11
-1.4513844E+001
 21
1.470358
  0
LINE
  8
1
  6
CONTINUOUS
 62
1
 10
-3.3332271
 20
1.470358
 11
-1.726207E-001
 21
1.470358
  0
LINE
  8
1
  6
CONTINUOUS
 62
1
 10
1.726239E-001
 20
1.470358
 11
3.3332265
 21
1.470358
  0
LINE
  8
1
  6
CONTINUOUS
 62
1
 10
1.4513847E+001
 20
1.470358
 11
2.1580067E+001
 21
1.470358
  0
LINE
  8
1
  6
CONTINUOUS
 62
1
 10
2.1632131E+001
 20
1.6528108
 11
1.4927825E+001
 21
1.6528108
  0
LINE
  8
1
  6
CONTINUOUS
 62
1
 10
3.2278455
 20
1.6528108
 11
6.7288304E-002
 21
1.6528108
  0
LINE
  8
1
  6
CONTINUOUS
 62
1
 10
-6.7292696E-002
 20
1.6528108
 11
-3.2278423
 21
1.6528108
  0
LINE
  8
1
  6
CONTINUOUS
 62
1
 10
-1.4927825E+001
 20
1.6528108
 11
-2.1632127E+001
 21
1.6528108
  0
LINE
  8
1
  6
CONTINUOUS
 62
1
 10
-2.1684191E+001
 20
1.8352936
 11
-1.5328419E+001
 21
1.8352936
  0
LINE
  8
1
  6
CONTINUOUS
 62
1
 10
-3.1225069
 20
1.8352936
 11
3.1225101
 21
1.8352936
  0
LINE
  8
1
  6
CONTINUOUS
 62
1
 10
1.5328419E+001
 20
1.8352936
 11
2.1684194E+001
 21
1.8352936
  0
LINE
  8
1
  6
CONTINUOUS
 62
1
 10
2.1736205E+001
 20
2.0177766
 11
1.5716686E+001
 21
2.0177766
  0
LINE
  8
1
  6
CONTINUOUS
 62
1
 10
3.0171821
 20
2.0177766
 11
-3.0171789
 21
2.0177766
  0
LINE
  8
1
  6
CONTINUOUS
 62
1
 10
-1.5716686E+001
 20
2.0177766
 11
-2.1736251E+001
 21
2.0177766
  0
LINE
  8
1
  6
CONTINUOUS
 62
1
 10
-2.1788265E+001
 20
2.2002594
 11
-1.6093541E+001
 21
2.2002594
  0
LINE
  8
1
  6
CONTINUOUS
 62
1
 10
-2.9117979
 20
2.2002594
 11
2.9118011
 21
2.2002594
  0
LINE
  8
1
  6
CONTINUOUS
 62
1
 10
1.609354E+001
 20
2.2002594
 11
2.1788269E+001
 21
2.2002594
  0
LINE
  8
1
  6
CONTINUOUS
 62
1
 10
2.1840332E+001
 20
2.3827122
 11
1.6459715E+001
 21
2.3827122
  0
LINE
  8
1
  6
CONTINUOUS
 62
1
 10
2.8064657
 20
2.3827122
 11
-2.8064699
 21
2.3827122
  0
LINE
  8
1
  6
CONTINUOUS
 62
1
 10
-1.6459715E+001
 20
2.3827122
 11
-2.1840329E+001
 21
2.3827122
  0
LINE
  8
1
  6
CONTINUOUS
 62
1
 10
-2.1892388E+001
 20
2.565195
 11
-1.681598E+001
 21
2.565195
  0
LINE
  8
1
  6
CONTINUOUS
 62
1
 10
-2.7010891
 20
2.565195
 11
2.7010847
 21
2.565195
  0
LINE
  8
1
  6
CONTINUOUS
 62
1
 10
1.6815979E+001
 20
2.565195
 11
2.1892388E+001
 21
2.565195
  0
LINE
  8
1
  6
CONTINUOUS
 62
1
 10
2.1944406E+001
 20
2.747678
 11
1.7162871E+001
 21
2.747678
  0
LINE
  8
1
  6
CONTINUOUS
 62
1
 10
2.5957567
 20
2.747678
 11
-2.5957535
 21
2.747678
  0
LINE
  8
1
  6
CONTINUOUS
 62
1
 10
-1.7162867E+001
 20
2.747678
 11
-2.1944403E+001
 21
2.747678
  0
LINE
  8
1
  6
CONTINUOUS
 62
1
 10
-2.1996466E+001
 20
2.9301308
 11
-1.7501004E+001
 21
2.9301308
  0
LINE
  8
1
  6
CONTINUOUS
 62
1
 10
-2.4903727
 20
2.9301308
 11
2.4903759
 21
2.9301308
  0
LINE
  8
1
  6
CONTINUOUS
 62
1
 10
1.7501008E+001
 20
2.9301308
 11
2.199647E+001
 21
2.9301308
  0
LINE
  8
1
  6
CONTINUOUS
 62
1
 10
2.2048526E+001
 20
3.1126136
 11
1.7830874E+001
 21
3.1126136
  0
LINE
  8
1
  6
CONTINUOUS
 62
1
 10
2.3850403
 20
3.1126136
 11
-2.3850371
 21
3.1126136
  0
LINE
  8
1
  6
CONTINUOUS
 62
1
 10
-1.7830875E+001
 20
3.1126136
 11
-2.2048526E+001
 21
3.1126136
  0
LINE
  8
1
  6
CONTINUOUS
 62
1
 10
-2.210059E+001
 20
3.2950966
 11
-1.8152916E+001
 21
3.2950966
  0
LINE
  8
1
  6
CONTINUOUS
 62
1
 10
-2.2797017
 20
3.2950966
 11
2.2797049
 21
3.2950966
  0
LINE
  8
1
  6
CONTINUOUS
 62
1
 10
1.8152916E+001
 20
3.2950966
 11
2.2100544E+001
 21
3.2950966
  0
LINE
  8
1
  6
CONTINUOUS
 62
1
 10
2.2152607E+001
 20
3.4775794
 11
1.846751E+001
 21
3.4775794
  0
LINE
  8
1
  6
CONTINUOUS
 62
1
 10
2.1743239
 20
3.4775794
 11
-2.1743207
 21
3.4775794
  0
LINE
  8
1
  6
CONTINUOUS
 62
1
 10
-1.8467511E+001
 20
3.4775794
 11
-2.2152604E+001
 21
3.4775794
  0
LINE
  8
1
  6
CONTINUOUS
 62
1
 10
-2.2204664E+001
 20
3.6600624
 11
-1.8775099E+001
 21
3.6600624
  0
LINE
  8
1
  6
CONTINUOUS
 62
1
 10
-2.0689929
 20
3.6600624
 11
2.0689961
 21
3.6600624
  0
LINE
  8
1
  6
CONTINUOUS
 62
1
 10
1.8775103E+001
 20
3.6600624
 11
2.2204663E+001
 21
3.6600624
  0
LINE
  8
1
  6
CONTINUOUS
 62
1
 10
2.2256682E+001
 20
3.8425452
 11
1.9075965E+001
 21
3.8425452
  0
LINE
  8
1
  6
CONTINUOUS
 62
1
 10
1.9636151
 20
3.8425452
 11
-1.9636119
 21
3.8425452
  0
LINE
  8
1
  6
CONTINUOUS
 62
1
 10
-1.9075966E+001
 20
3.8425452
 11
-2.2256727E+001
 21
3.8425452
  0
LINE
  8
1
  6
CONTINUOUS
 62
1
 10
-2.2308742E+001
 20
4.0250282
 11
-1.9370453E+001
 21
4.0250282
  0
LINE
  8
1
  6
CONTINUOUS
 62
1
 10
-1.8582839
 20
4.0250282
 11
1.8582797
 21
4.0250282
  0
LINE
  8
1
  6
CONTINUOUS
 62
1
 10
1.9370408E+001
 20
4.0250282
 11
2.2308745E+001
 21
4.0250282
  0
LINE
  8
1
  6
CONTINUOUS
 62
1
 10
2.2360801E+001
 20
4.207511
 11
1.96588E+001
 21
4.207511
  0
LINE
  8
1
  6
CONTINUOUS
 62
1
 10
1.7529517
 20
4.207511
 11
-1.7529485
 21
4.207511
  0
LINE
  8
1
  6
CONTINUOUS
 62
1
 10
-1.9658801E+001
 20
4.207511
 11
-2.2360802E+001
 21
4.207511
  0
LINE
  8
1
  6
CONTINUOUS
 62
1
 10
-2.2412865E+001
 20
4.389994
 11
-1.9941347E+001
 21
4.389994
  0
LINE
  8
1
  6
CONTINUOUS
 62
1
 10
-1.6475675
 20
4.389994
 11
1.6475707
 21
4.389994
  0
LINE
  8
1
  6
CONTINUOUS
 62
1
 10
1.9941347E+001
 20
4.389994
 11
2.2412865E+001
 21
4.389994
  0
LINE
  8
1
  6
CONTINUOUS
 62
1
 10
2.2464883E+001
 20
4.5724466
 11
2.0218289E+001
 21
4.5724466
  0
LINE
  8
1
  6
CONTINUOUS
 62
1
 10
1.5422353
 20
4.5724466
 11
-1.5422321
 21
4.5724466
  0
LINE
  8
1
  6
CONTINUOUS
 62
1
 10
-2.0218285E+001
 20
4.5724466
 11
-2.2464879E+001
 21
4.5724466
  0
LINE
  8
1
  6
CONTINUOUS
 62
1
 10
-2.2516939E+001
 20
4.7549296
 11
-2.0489857E+001
 21
4.7549296
  0
LINE
  8
1
  6
CONTINUOUS
 62
1
 10
-1.4368511
 20
4.7549296
 11
1.4368543
 21
4.7549296
  0
LINE
  8
1
  6
CONTINUOUS
 62
1
 10
2.0489807E+001
 20
4.7549296
 11
2.2516939E+001
 21
4.7549296
  0
LINE
  8
1
  6
CONTINUOUS
 62
1
 10
2.2569002E+001
 20
4.9374126
 11
2.0756258E+001
 21
4.9374126
  0
LINE
  8
1
  6
CONTINUOUS
 62
1
 10
1.3315263
 20
4.9374126
 11
-1.3315157
 21
4.9374126
  0
LINE
  8
1
  6
CONTINUOUS
 62
1
 10
-2.0756259E+001
 20
4.9374126
 11
-2.2569003E+001
 21
4.9374126
  0
LINE
  8
1
  6
CONTINUOUS
 62
1
 10
-2.2621066E+001
 20
5.1198652
 11
-2.1017728E+001
 21
5.1198652
  0
LINE
  8
1
  6
CONTINUOUS
 62
1
 10
-1.2261347
 20
5.1198652
 11
1.2261455
 21
5.1198652
  0
LINE
  8
1
  6
CONTINUOUS
 62
1
 10
2.1017679E+001
 20
5.1198652
 11
2.2621021E+001
 21
5.1198652
  0
LINE
  8
1
  6
CONTINUOUS
 62
1
 10
2.2673077E+001
 20
5.3023482
 11
2.1274363E+001
 21
5.3023482
  0
LINE
  8
1
  6
CONTINUOUS
 62
1
 10
1.1208099
 20
5.3023482
 11
-1.1208067
 21
5.3023482
  0
LINE
  8
1
  6
CONTINUOUS
 62
1
 10
-2.1274364E+001
 20
5.3023482
 11
-2.2673077E+001
 21
5.3023482
  0
LINE
  8
1
  6
CONTINUOUS
 62
1
 10
-2.272514E+001
 20
5.484831
 11
-2.1526456E+001
 21
5.484831
  0
LINE
  8
1
  6
CONTINUOUS
 62
1
 10
-1.0154787
 20
5.484831
 11
1.0154745
 21
5.484831
  0
LINE
  8
1
  6
CONTINUOUS
 62
1
 10
2.1526455E+001
 20
5.484831
 11
2.272514E+001
 21
5.484831
  0
LINE
  8
1
  6
CONTINUOUS
 62
1
 10
2.2777204E+001
 20
5.667314
 11
2.1774054E+001
 21
5.667314
  0
LINE
  8
1
  6
CONTINUOUS
 62
1
 10
9.100935E-001
 20
5.667314
 11
-9.100979E-001
 21
5.667314
  0
LINE
  8
1
  6
CONTINUOUS
 62
1
 10
-2.1774054E+001
 20
5.667314
 11
-2.2777204E+001
 21
5.667314
  0
LINE
  8
1
  6
CONTINUOUS
 62
1
 10
-2.2829215E+001
 20
5.8497968
 11
-2.2017396E+001
 21
5.8497968
  0
LINE
  8
1
  6
CONTINUOUS
 62
1
 10
-8.047623E-001
 20
5.8497968
 11
8.047581E-001
 21
5.8497968
  0
LINE
  8
1
  6
CONTINUOUS
 62
1
 10
2.2017399E+001
 20
5.8497968
 11
2.2829214E+001
 21
5.8497968
  0
LINE
  8
1
  6
CONTINUOUS
 62
1
 10
2.2881278E+001
 20
6.0322496
 11
2.2256583E+001
 21
6.0322496
  0
LINE
  8
1
  6
CONTINUOUS
 62
1
 10
6.993771E-001
 20
6.0322496
 11
-6.993815E-001
 21
6.0322496
  0
LINE
  8
1
  6
CONTINUOUS
 62
1
 10
-2.2256584E+001
 20
6.0322496
 11
-2.2881278E+001
 21
6.0322496
  0
LINE
  8
1
  6
CONTINUOUS
 62
1
 10
-2.2933342E+001
 20
6.2147324
 11
-2.2491708E+001
 21
6.2147324
  0
LINE
  8
1
  6
CONTINUOUS
 62
1
 10
-5.940459E-001
 20
6.2147324
 11
5.940491E-001
 21
6.2147324
  0
LINE
  8
1
  6
CONTINUOUS
 62
1
 10
2.2491711E+001
 20
6.2147324
 11
2.2933341E+001
 21
6.2147324
  0
LINE
  8
1
  6
CONTINUOUS
 62
1
 10
2.2985352E+001
 20
6.3972154
 11
2.2722965E+001
 21
6.3972154
  0
LINE
  8
1
  6
CONTINUOUS
 62
1
 10
4.886683E-001
 20
6.3972154
 11
-4.886651E-001
 21
6.3972154
  0
LINE
  8
1
  6
CONTINUOUS
 62
1
 10
-2.2722965E+001
 20
6.3972154
 11
-2.2985352E+001
 21
6.3972154
  0
LINE
  8
1
  6
CONTINUOUS
 62
1
 10
-2.3037416E+001
 20
6.579668
 11
-2.2950453E+001
 21
6.579668
  0
LINE
  8
1
  6
CONTINUOUS
 62
1
 10
-3.833295E-001
 20
6.579668
 11
3.833403E-001
 21
6.579668
  0
LINE
  8
1
  6
CONTINUOUS
 62
1
 10
2.2950404E+001
 20
6.579668
 11
2.3037415E+001
 21
6.579668
  0
LINE
  8
1
  6
CONTINUOUS
 62
1
 10
2.779595E-001
 20
6.762151
 11
-2.779487E-001
 21
6.762151
  0
LINE
  8
1
  6
CONTINUOUS
 62
1
 10
-1.726207E-001
 20
6.9446338
 11
1.726239E-001
 21
6.9446338
  0
LINE
  8
1
  6
CONTINUOUS
 62
1
 10
6.7288304E-002
 20
7.1271168
 11
-6.7292696E-002
 21
7.1271168
  0
ENDBLK
  0
BLOCK
  2
*XH50
  3
*XH
 10
0.0
 20
0.0
 70
65
  0
LINE
  8
1
  6
CONTINUOUS
 62
1
 10
1.4050176E+002
 20
4.9051961E+002
 11
1.4350176E+002
 21
4.9351961E+002
  0
LINE
  8
1
  6
CONTINUOUS
 62
1
 10
1.4050176E+002
 20
4.9264093E+002
 11
1.4350176E+002
 21
4.9564093E+002
  0
LINE
  8
1
  6
CONTINUOUS
 62
1
 10
1.4050176E+002
 20
4.9476226E+002
 11
1.4350176E+002
 21
4.9776226E+002
  0
LINE
  8
1
  6
CONTINUOUS
 62
1
 10
1.4050176E+002
 20
4.9688358E+002
 11
1.418037E+002
 21
4.9818552E+002
  0
LINE
  8
1
  6
CONTINUOUS
 62
1
 10
1.4089537E+002
 20
4.8879191E+002
 11
1.4350176E+002
 21
4.9139829E+002
  0
LINE
  8
1
  6
CONTINUOUS
 62
1
 10
1.421603E+002
 20
4.8793552E+002
 11
1.4350176E+002
 21
4.8927697E+002
  0
ENDBLK
  0
BLOCK
  2
M_PFN_7
 10
0.0
 20
0.0
 70
0
  0
ENDBLK
  0
BLOCK
  2
M_PFN_6
 10
0.0
 20
0.0
 70
0
  0
ENDBLK
  0
BLOCK
  2
*XH62
  3
*XH
 10
0.0
 20
0.0
 70
65
  0
LINE
  8
108
  6
CONTINUOUS
 62
3
 10
-1.9694767
 20
-1.9694767
 11
1.9694767
 21
1.9694767
  0
LINE
  8
108
  6
CONTINUOUS
 62
3
 10
-1.9694767
 20
-6.9668445E-001
 11
1.2754054
 21
2.5481977
  0
LINE
  8
108
  6
CONTINUOUS
 62
3
 10
-1.9694767
 20
5.7610776E-001
 11
5.8133424E-001
 21
3.1269187
  0
LINE
  8
108
  6
CONTINUOUS
 62
3
 10
-1.9694767
 20
1.8489
 11
-1.1273697E-001
 21
3.7056396
  0
LINE
  8
108
  6
CONTINUOUS
 62
3
 10
-1.9694767
 20
3.1216922
 11
-8.0680818E-001
 21
4.2843606
  0
LINE
  8
108
  6
CONTINUOUS
 62
3
 10
-1.9694767
 20
4.3944844
 11
-1.5008794
 21
4.8630816
  0
LINE
  8
108
  6
CONTINUOUS
 62
3
 10
1.9899349
 20
7.915764E-001
 11
-1.9694767
 21
4.750988
  0
LINE
  8
108
  6
CONTINUOUS
 62
3
 10
1.316322
 20
1.9239714E-001
 11
-1.9694767
 21
3.4781958
  0
LINE
  8
108
  6
CONTINUOUS
 62
3
 10
6.4270901E-001
 20
-4.0678211E-001
 11
-1.9694767
 21
2.2054036
  0
LINE
  8
108
  6
CONTINUOUS
 62
3
 10
-3.0903938E-002
 20
-1.0059614
 11
-1.9694767
 21
9.3261134E-001
  0
LINE
  8
108
  6
CONTINUOUS
 62
3
 10
-7.0451689E-001
 20
-1.6051406
 11
-1.9694767
 21
-3.4018086E-001
  0
LINE
  8
108
  6
CONTINUOUS
 62
3
 10
-1.3781298
 20
-2.2043199
 11
-1.9694767
 21
-1.6129731
  0
ENDBLK
  0
BLOCK
  2
K
 10
0.0
 20
0.0
 70
0
  0
TEXT
  8
103
  6
CONTINUOUS
 62
160
 10
1.1523832E+001
 20
-9.3284985
 40
4.5
  1
Empfohlenes Schliessblech Nr. 71.5
 41
6.6774196E-001
 72
1
 11
6.2606091E+001
 21
-7.0784985
 73
2
  0
TEXT
  8
103
  6
CONTINUOUS
 62
221
 10
1.1714929E+001
 20
-1.6965655E+001
 40
4.5
  1
recommended strike plate number 71.5
 41
6.6774196E-001
 72
1
 11
6.5802027E+001
 21
-1.4715655E+001
 73
2
  0
LINE
  8
104
  6
CONTINUOUS
 62
3
 10
4.3410049
 20
-1.5509478E+001
 11
4.3410049
 21
-7.5253531
  0
LINE
  8
104
  6
CONTINUOUS
 62
3
 10
4.3410049
 20
-7.5253531
 11
8.9740294
 21
-1.1388398E+001
  0
LINE
  8
104
  6
CONTINUOUS
 62
3
 10
8.9740294
 20
-1.1388398E+001
 11
4.3410049
 21
-1.5509478E+001
  0
INSERT
  2
*XH62
  8
108
 10
6.3104816
 20
-1.2779154E+001
  0
POINT
  8
Drafting_Hidden_Entities
  6
CONTINUOUS
 62
1
 10
0.0
 20
0.0
  0
ENDBLK
  0
BLOCK
  2
_D10
 10
0.0
 20
0.0
 70
0
  0
LINE
  8
4
  6
CONTINUOUS
 62
2
 10
2.7550176E+002
 20
4.9817799E+002
 11
2.7350176E+002
 21
4.9817799E+002
  0
LINE
  8
4
  6
CONTINUOUS
 62
2
 10
2.7350176E+002
 20
4.9817799E+002
 11
1.6045043E+002
 21
4.9817799E+002
  0
LINE
  8
4
  6
CONTINUOUS
 62
2
 10
1.4524086E+002
 20
4.9817799E+002
 11
1.4423553E+002
 21
4.9817799E+002
  0
ENDBLK
  0
BLOCK
  2
*XH72
  3
*XH
 10
0.0
 20
0.0
 70
65
  0
LINE
  8
1
  6
CONTINUOUS
 62
1
 10
-1.5
 20
-1.5
 11
1.5
 21
1.5
  0
LINE
  8
1
  6
CONTINUOUS
 62
1
 10
-1.5
 20
1.3284271
 11
1.5
 21
4.3284271
  0
LINE
  8
1
  6
CONTINUOUS
 62
1
 10
-1.5
 20
4.1568542
 11
1.1642136
 21
6.8210678
  0
ENDBLK
  0
BLOCK
  2
_D12
 10
0.0
 20
0.0
 70
0
  0
LINE
  8
4
  6
CONTINUOUS
 62
2
 10
1.3850176E+002
 20
4.9817799E+002
 11
1.2317534E+002
 21
4.9817799E+002
  0
ENDBLK
  0
BLOCK
  2
_D13
 10
0.0
 20
0.0
 70
0
  0
TEXT
  8
103
  6
CONTINUOUS
 62
1
 10
-2.1312
 20
2.1312
 40
6.4
  1
32
 41
5.6250002E-001
 50
9.0E+001
  0
LINE
  8
4
  6
CONTINUOUS
 62
2
 10
1.7578064E-003
 20
2.2267988E+001
 11
1.7578064E-003
 21
-9.732012
  0
INSERT
  2
M_PFN_6
  8
4
 10
1.7578064E-003
 20
2.2267988E+001
 41
2.0
 43
2.0
 42
2.0
 50
2.7E+002
  0
INSERT
  2
M_PFN_7
  8
4
 10
1.7578064E-003
 20
-9.732012
 41
2.0
 43
2.0
 42
2.0
 50
2.7E+002
  0
LINE
  8
4
  6
CONTINUOUS
 62
2
 10
9.4017578
 20
2.2267988E+001
 11
-4.5982422
 21
2.2267988E+001
  0
LINE
  8
4
  6
CONTINUOUS
 62
2
 10
-4.5982422
 20
2.2267988E+001
 11
-6.5982422
 21
2.2267988E+001
  0
ENDBLK
  0
BLOCK
  2
_D14
 10
0.0
 20
0.0
 70
0
  0
LINE
  8
4
  6
CONTINUOUS
 62
2
 10
1.2850176E+002
 20
4.1417799E+002
 11
1.1851046E+002
 21
4.1417799E+002
  0
LINE
  8
4
  6
CONTINUOUS
 62
2
 10
1.1851046E+002
 20
4.1417799E+002
 11
1.1651046E+002
 21
4.1417799E+002
  0
ENDBLK
  0
BLOCK
  2
_D18
 10
0.0
 20
0.0
 70
0
  0
LINE
  8
4
  6
CONTINUOUS
 62
2
 10
1.4050176E+002
 20
2.4067799E+002
 11
1.9550176E+002
 21
2.4067799E+002
  0
INSERT
  2
M_PFN_6
  8
4
 10
1.4050176E+002
 20
2.4067799E+002
 41
2.0
 43
2.0
 42
2.0
  0
INSERT
  2
M_PFN_7
  8
4
 10
1.9550176E+002
 20
2.4067799E+002
 41
2.0
 43
2.0
 42
2.0
 50
3.6E+002
  0
LINE
  8
4
  6
CONTINUOUS
 62
2
 10
1.4050176E+002
 20
2.6117799E+002
 11
1.4050176E+002
 21
2.393878E+002
  0
LINE
  8
4
  6
CONTINUOUS
 62
2
 10
1.4050176E+002
 20
2.393878E+002
 11
1.4050176E+002
 21
2.373878E+002
  0
ENDBLK
  0
BLOCK
  2
_D21
 10
0.0
 20
0.0
 70
0
  0
LINE
  8
4
  6
CONTINUOUS
 62
2
 10
1.5845367E+001
 20
-7.0279082E+001
 11
1.5845367E+001
 21
-7.0653596E+001
  0
TEXT
  8
103
  6
CONTINUOUS
 62
1
 10
2.1312
 20
2.1312
 40
6.4
  1
20
 41
5.6250002E-001
  0
ENDBLK
  0
BLOCK
  2
_D27
 10
0.0
 20
0.0
 70
0
  0
LINE
  8
4
  6
CONTINUOUS
 62
2
 10
1.4050176E+002
 20
3.6797474E+002
 11
1.4050176E+002
 21
3.7698689E+002
  0
LINE
  8
4
  6
CONTINUOUS
 62
2
 10
1.4050176E+002
 20
3.7698689E+002
 11
1.4050176E+002
 21
3.7898689E+002
  0
ENDBLK
  0
BLOCK
  2
_D33
 10
0.0
 20
0.0
 70
0
  0
LINE
  8
4
  6
CONTINUOUS
 62
2
 10
1.4050176E+002
 20
3.6702799E+002
 11
1.4050176E+002
 21
3.7687166E+002
  0
LINE
  8
4
  6
CONTINUOUS
 62
2
 10
1.4050176E+002
 20
3.7687166E+002
 11
1.4050176E+002
 21
3.7887166E+002
  0
LINE
  8
4
  6
CONTINUOUS
 62
2
 10
1.2040176E+002
 20
3.6649366E+002
 11
1.2040176E+002
 21
3.7687166E+002
  0
LINE
  8
4
  6
CONTINUOUS
 62
2
 10
1.2040176E+002
 20
3.7687166E+002
 11
1.2040176E+002
 21
3.7887166E+002
  0
LINE
  8
4
  6
CONTINUOUS
 62
2
 10
1.2040176E+002
 20
3.7687166E+002
 11
1.4050176E+002
 21
3.7687166E+002
  0
INSERT
  2
M_PFN_6
  8
4
 10
1.2040176E+002
 20
3.7687166E+002
 41
2.0
 43
2.0
 42
2.0
  0
INSERT
  2
M_PFN_7
  8
4
 10
1.4050176E+002
 20
3.7687166E+002
 41
2.0
 43
2.0
 42
2.0
 50
3.6E+002
  0
ENDBLK
  0
BLOCK
  2
_D37
 10
0.0
 20
0.0
 70
0
  0
LINE
  8
4
  6
CONTINUOUS
 62
2
 10
1.0183526E+001
 20
6.8365969E-001
 11
3.6360171
 21
-5.8638488
  0
LINE
  8
4
  6
CONTINUOUS
 62
2
 10
3.6360171
 20
-5.8638488
 11
2.2218035
 21
-7.2780623
  0
TEXT
  8
103
  6
CONTINUOUS
 62
1
 10
-2.1312
 20
2.1312
 40
6.4
  1
90°
 41
6.0000002E-001
 50
9.0E+001
  0
ARC
  8
4
  6
CONTINUOUS
 62
2
 10
1.4952405E+001
 20
5.4525392
 40
1.6003789E+001
 50
1.35E+002
 51
2.25E+002
  0
INSERT
  2
M_PFN_6
  8
4
 10
3.6360171
 20
-5.8638488
 41
2.0
 43
2.0
 42
2.0
 50
1.35E+002
  0
INSERT
  2
M_PFN_7
  8
4
 10
3.6360171
 20
1.6768927E+001
 41
2.0
 43
2.0
 42
2.0
 50
4.4999999E+001
  0
ENDBLK
  0
BLOCK
  2
M
 10
0.0
 20
0.0
 70
0
  0
ARC
  8
104
  6
CONTINUOUS
 62
40
 10
4.081E-007
 20
1.937E-007
 40
3.5999993
 50
9.0000004E+001
 51
2.2865725E+002
  0
ARC
  8
104
  6
CONTINUOUS
 62
40
 10
-3.3716594
 20
-3.8325633
 40
1.5045705
 50
3.5893947E+002
 51
4.0866868E+002
  0
ARC
  8
104
  6
CONTINUOUS
 62
40
 10
-3.3662286
 20
-3.832666
 40
1.4991387
 50
3.0909072E+002
 51
3.5893956E+002
  0
ARC
  8
104
  6
CONTINUOUS
 62
40
 10
-1.9999851E-001
 20
-7.2999987
 40
3.2000007
 50
1.3395125E+002
 51
1.5225632E+002
  0
ARC
  8
104
  6
CONTINUOUS
 62
40
 10
-2.7666125
 20
-5.9500003
 40
3.0000017E-001
 50
1.5225617E+002
 51
2.7000002E+002
  0
LINE
  8
104
  6
CONTINUOUS
 62
40
 10
-2.7666124
 20
-6.2500005
 11
-1.2499998
 21
-6.2500005
  0
ARC
  8
104
  6
CONTINUOUS
 62
40
 10
-1.2499998
 20
-7.3000005
 40
1.05
 50
2.7E+002
 51
4.5E+002
  0
LINE
  8
104
  6
CONTINUOUS
 62
40
 10
-1.2499998
 20
-8.3500005
 11
-2.1841124
 21
-8.3500005
  0
LINE
  8
104
  6
CONTINUOUS
 62
40
 10
-2.1841124
 20
-8.3500005
 11
-3.4174928
 21
-1.3540596E+001
  0
ARC
  8
104
  6
CONTINUOUS
 62
40
 10
-2.2499998
 20
-1.3818013E+001
 40
1.1999999
 50
1.6663344E+002
 51
2.7E+002
  0
ARC
  8
104
  6
CONTINUOUS
 62
40
 10
1.603E-007
 20
-4.63E-007
 40
1.5185624E+001
 50
2.6147932E+002
 51
2.7852068E+002
  0
ARC
  8
104
  6
CONTINUOUS
 62
40
 10
2.25
 20
-1.3818013E+001
 40
1.1999998
 50
2.7000001E+002
 51
3.7336656E+002
  0
LINE
  8
104
  6
CONTINUOUS
 62
40
 10
3.417493
 20
-1.3540596E+001
 11
2.4343654
 21
-9.4031705
  0
ARC
  8
104
  6
CONTINUOUS
 62
40
 10
2.9208208
 20
-9.2875803
 40
4.9999998E-001
 50
1.4750788E+002
 51
1.9336658E+002
  0
ARC
  8
104
  6
CONTINUOUS
 62
40
 10
-1.9999996E-001
 20
-7.2999991
 40
3.2000002
 50
3.2750784E+002
 51
4.0237398E+002
  0
ARC
  8
104
  6
CONTINUOUS
 62
40
 10
3.1492692
 20
-4.0140792
 40
1.4986103
 50
1.784336E+002
 51
2.2889578E+002
  0
ARC
  8
104
  6
CONTINUOUS
 62
40
 10
3.1587424
 20
-4.0143359
 40
1.5080869
 50
1.2818237E+002
 51
1.7843369E+002
  0
ARC
  8
104
  6
CONTINUOUS
 62
40
 10
0.0
 20
0.0
 40
3.5999995
 50
3.0820453E+002
 51
4.5E+002
  0
LINE
  8
106
  6
CENTERLINE
 62
1
 10
6.8578444
 20
-4.63E-007
 11
-6.9814502
 21
-4.63E-007
  0
LINE
  8
106
  6
CENTERLINE
 62
1
 10
1.603E-007
 20
-3.1754592E+001
 11
1.603E-007
 21
3.4484478E+001
  0
POINT
  8
Drafting_Hidden_Entities
  6
CONTINUOUS
 62
1
 10
0.0
 20
0.0
  0
ENDBLK
  0
BLOCK
  2
D
 10
0.0
 20
0.0
 70
0
  0
ARC
  8
104
  6
CONTINUOUS
 62
40
 10
2.7E-007
 20
7.159E-007
 40
3.9239993
 50
9.0000004E+001
 51
2.2865725E+002
  0
ARC
  8
104
  6
CONTINUOUS
 62
40
 10
-3.6751089
 20
-4.1774935
 40
1.6399818
 50
3.5893947E+002
 51
4.0866868E+002
  0
ARC
  8
104
  6
CONTINUOUS
 62
40
 10
-3.6691894
 20
-4.1776055
 40
1.6340612
 50
3.0909072E+002
 51
3.5893956E+002
  0
ARC
  8
104
  6
CONTINUOUS
 62
40
 10
-2.1799856E-001
 20
-7.9569981
 40
3.4880008
 50
1.3395125E+002
 51
1.5225632E+002
  0
ARC
  8
104
  6
CONTINUOUS
 62
40
 10
-3.0156078
 20
-6.4854998
 40
3.2700019E-001
 50
1.5225617E+002
 51
2.7000002E+002
  0
LINE
  8
104
  6
CONTINUOUS
 62
40
 10
-3.0156077
 20
-6.8125
 11
-1.3625
 21
-6.8125
  0
ARC
  8
104
  6
CONTINUOUS
 62
40
 10
-1.3625
 20
-7.957
 40
1.1445
 50
2.7E+002
 51
4.5E+002
  0
LINE
  8
104
  6
CONTINUOUS
 62
40
 10
-1.3625
 20
-9.1015
 11
-2.3806827
 21
-9.1015
  0
LINE
  8
104
  6
CONTINUOUS
 62
40
 10
-2.3806827
 20
-9.1015
 11
-3.7250674
 21
-1.475925E+001
  0
ARC
  8
104
  6
CONTINUOUS
 62
40
 10
-2.4524999
 20
-1.5061633E+001
 40
1.3079999
 50
1.6663344E+002
 51
2.7E+002
  0
ARC
  8
104
  6
CONTINUOUS
 62
40
 10
0.0
 20
0.0
 40
1.655233E+001
 50
2.6147932E+002
 51
2.7852068E+002
  0
ARC
  8
104
  6
CONTINUOUS
 62
40
 10
2.4524998
 20
-1.5061633E+001
 40
1.3079998
 50
2.7000001E+002
 51
3.7336656E+002
  0
LINE
  8
104
  6
CONTINUOUS
 62
40
 10
3.7250672
 20
-1.475925E+001
 11
2.6534581
 21
-1.0249455E+001
  0
ARC
  8
104
  6
CONTINUOUS
 62
40
 10
3.1836945
 20
-1.0123462E+001
 40
5.4499997E-001
 50
1.4750788E+002
 51
1.9336658E+002
  0
ARC
  8
104
  6
CONTINUOUS
 62
40
 10
-2.1800013E-001
 20
-7.9569985
 40
3.4880002
 50
3.2750784E+002
 51
4.0237398E+002
  0
ARC
  8
104
  6
CONTINUOUS
 62
40
 10
3.4327032
 20
-4.3753458
 40
1.6334852
 50
1.784336E+002
 51
2.2889578E+002
  0
ARC
  8
104
  6
CONTINUOUS
 62
40
 10
3.443029
 20
-4.3756257
 40
1.6438148
 50
1.2818237E+002
 51
1.7843369E+002
  0
ARC
  8
104
  6
CONTINUOUS
 62
40
 10
-1.748E-007
 20
5.047E-007
 40
3.9239995
 50
3.0820453E+002
 51
4.5E+002
  0
LINE
  8
106
  6
CENTERLINE
 62
1
 10
0.0
 20
-3.1754592E+001
 11
0.0
 21
3.4484478E+001
  0
LINE
  8
106
  6
CENTERLINE
 62
1
 10
6.8578442
 20
0.0
 11
-6.9814504
 21
0.0
  0
POINT
  8
Drafting_Hidden_Entities
  6
CONTINUOUS
 62
1
 10
0.0
 20
0.0
  0
ENDBLK
  0
BLOCK
  2
HHHHH
 10
0.0
 20
0.0
 70
0
  0
ARC
  8
104
  6
CONTINUOUS
 62
40
 10
1.3088436
 20
-2.0000376E+001
 40
5.1000957
 50
1.8E+002
 51
3.6E+002
  0
LINE
  8
104
  6
CONTINUOUS
 62
40
 10
6.4089393
 20
-2.0000376E+001
 11
6.4089393
 21
-6.9247245
  0
ARC
  8
104
  6
CONTINUOUS
 62
40
 10
1.3088433
 20
0.0
 40
8.6001621
 50
3.0637184E+002
 51
5.9362816E+002
  0
LINE
  8
104
  6
CONTINUOUS
 62
40
 10
-3.7912521
 20
-6.9247245
 11
-3.7912521
 21
-2.0000376E+001
  0
LINE
  8
106
  6
CENTERLINE
 62
1
 10
-6.7912521
 20
-2.0000376E+001
 11
-3.7912521
 21
-2.0000376E+001
  0
LINE
  8
106
  6
CENTERLINE
 62
1
 10
-3.7912521
 20
-2.0000376E+001
 11
6.4089393
 21
-2.0000376E+001
  0
LINE
  8
106
  6
CENTERLINE
 62
1
 10
6.4089393
 20
-2.0000376E+001
 11
9.4089393
 21
-2.0000376E+001
  0
LINE
  8
106
  6
CENTERLINE
 62
1
 10
1.1426697E+001
 20
0.0
 11
-1.1426697E+001
 21
0.0
  0
LINE
  8
7
  6
CENTERLINE
 62
1
 10
1.3088433
 20
1.1427383E+001
 11
1.3088433
 21
-3.3000621E+001
  0
POINT
  8
Drafting_Hidden_Entities
  6
CONTINUOUS
 62
1
 10
0.0
 20
0.0
  0
ENDBLK
  0
BLOCK
  2
*XH116
  3
*XH
 10
0.0
 20
0.0
 70
65
  0
LINE
  8
104
  6
CONTINUOUS
 62
1
 10
-1.7586186E-001
 20
-1.7586186E-001
 11
1.7586186E-001
 21
1.7586186E-001
  0
LINE
  8
104
  6
CONTINUOUS
 62
1
 10
-2.3681306
 20
-2.4681024E-001
 11
1.7586186E-001
 21
2.2971822
  0
LINE
  8
104
  6
CONTINUOUS
 62
1
 10
-2.8241945
 20
1.4184462
 11
1.7586186E-001
 21
4.4185026
  0
LINE
  8
104
  6
CONTINUOUS
 62
1
 10
-2.8241945
 20
3.5397665
 11
-3.6995655E-001
 21
5.9940045
  0
ENDBLK
  0
BLOCK
  2
*XH117
  3
*XH
 10
0.0
 20
0.0
 70
65
  0
LINE
  8
104
  6
CONTINUOUS
 62
1
 10
-5.4070843E-001
 20
-5.4070843E-001
 11
5.4070843E-001
 21
5.4070843E-001
  0
LINE
  8
104
  6
CONTINUOUS
 62
1
 10
-1.6013688
 20
5.1995158E-001
 11
5.4070843E-001
 21
2.6620288
  0
LINE
  8
104
  6
CONTINUOUS
 62
1
 10
-2.459348
 20
1.7832927
 11
5.4070843E-001
 21
4.7833491
  0
LINE
  8
104
  6
CONTINUOUS
 62
1
 10
-2.459348
 20
3.9046131
 11
5.4070843E-001
 21
6.9046695
  0
LINE
  8
104
  6
CONTINUOUS
 62
1
 10
-2.459348
 20
6.0259334
 11
5.4070843E-001
 21
9.0259898
  0
LINE
  8
104
  6
CONTINUOUS
 62
1
 10
-2.459348
 20
8.1472537
 11
8.8812984E-002
 21
1.0695415E+001
  0
LINE
  8
104
  6
CONTINUOUS
 62
1
 10
-2.4694541
 20
1.0258468E+001
 11
-2.459348
 21
1.0268574E+001
  0
ENDBLK
  0
BLOCK
  2
GGSSSSS
 10
0.0
 20
0.0
 70
0
  0
DIMENSION
  8
100
  6
CONTINUOUS
 62
4
  2
*D1990
  3
DSTYLE8
 10
8.6001621
 20
1.7676E+001
 11
-4.204213E-001
 21
2.23275E+001
 70
129
 13
-8.6001621
 23
0.0
 14
8.6001621
 24
0.0
 40
7.5
1001
ACAD
1000
DSTYLE
1002
{
1070
173
1070
0
1070
5
1000
_AH13
1002
}
  0
INSERT
  2
HHHHH
  8
109
 10
-1.3088433
 20
0.0
  0
DIMENSION
  8
100
  6
CONTINUOUS
 62
4
  1
33,7
  2
*D1992
  3
DSTYLE8
 10
2.7491735E+001
 20
-2.5100472E+001
 11
2.2840235E+001
 21
-8.254691
 70
128
 13
0.0
 23
8.6001621
 14
3.0E-007
 24
-2.5100472E+001
 40
7.5
 50
9.0E+001
1001
ACAD
1000
DSTYLE
1002
{
1070
173
1070
0
1070
5
1000
_AH13
1002
}
  0
DIMENSION
  8
100
  6
CONTINUOUS
 62
4
  2
*D1993
  3
DSTYLE9
 10
-5.0008066E+001
 20
-9.4930528
 11
-5.6419014E+001
 21
-1.9500367E+001
 70
130
 13
-5.0008067E+001
 23
-2.9507681E+001
 14
-4.5087954E+001
 24
-2.4587569E+001
 15
-4.5143278E+001
 25
-1.4357841E+001
 16
-5.2653232E+001
 26
-1.9500367E+001
1001
ACAD
1000
DSTYLE
1002
{
1070
173
1070
0
1070
5
1000
_AH13
1002
}
  0
DIMENSION
  8
100
  6
CONTINUOUS
 62
4
  2
*D1994
  3
DSTYLE10
 10
-6.1427383E+001
 20
-2.4500462E+001
 11
-6.4845389E+001
 21
-1.9500367E+001
 70
128
 13
-4.3638641E+001
 23
-1.4500274E+001
 14
-4.3829953E+001
 24
-2.4500462E+001
 40
3.0
 50
9.0E+001
1001
ACAD
1000
DSTYLE
1002
{
1070
173
1070
0
1070
5
1000
_AH13
1002
}
  0
LINE
  8
106
  6
CENTERLINE
 62
1
 10
-4.7078463E+001
 20
-1.9500367E+001
 11
-4.0330965E+001
 21
-1.9500367E+001
  0
LINE
  8
104
  6
CONTINUOUS
 62
40
 10
-4.3000808E+001
 20
-1.6500311E+001
 11
-4.5000846E+001
 21
-1.4500274E+001
  0
LINE
  8
104
  6
CONTINUOUS
 62
40
 10
-4.3000808E+001
 20
-2.2500423E+001
 11
-4.3000808E+001
 21
-1.6500311E+001
  0
LINE
  8
104
  6
CONTINUOUS
 62
40
 10
-4.3000808E+001
 20
-2.2500423E+001
 11
-4.5000846E+001
 21
-2.4500462E+001
  0
LINE
  8
99
  6
CONTINUOUS
 62
1
 10
-4.5000846E+001
 20
-2.8136642E+001
 11
-4.5000846E+001
 21
-2.4500462E+001
  0
ARC
  8
99
  6
CONTINUOUS
 62
1
 10
-4.4203265E+001
 20
-2.8009313E+001
 40
8.0768059E-001
 50
1.8907037E+002
 51
2.8234439E+002
  0
ARC
  8
99
  6
CONTINUOUS
 62
1
 10
-4.4203262E+001
 20
-2.800932E+001
 40
8.0767278E-001
 50
2.8234427E+002
 51
3.1425728E+002
  0
ARC
  8
99
  6
CONTINUOUS
 62
1
 10
-4.2777386E+001
 20
-2.946491E+001
 40
1.2299438
 50
1.2781063E+002
 51
1.345089E+002
  0
ARC
  8
99
  6
CONTINUOUS
 62
1
 10
-4.300373E+001
 20
-2.9177238E+001
 40
8.6391368E-001
 50
1.2341442E+002
 51
1.2764734E+002
  0
ARC
  8
99
  6
CONTINUOUS
 62
1
 10
-4.3111451E+001
 20
-2.9013493E+001
 40
6.6791334E-001
 50
1.1841107E+002
 51
1.2343643E+002
  0
ARC
  8
99
  6
CONTINUOUS
 62
1
 10
-4.3185828E+001
 20
-2.8875533E+001
 40
5.1118193E-001
 50
1.1242957E+002
 51
1.1843593E+002
  0
ARC
  8
99
  6
CONTINUOUS
 62
1
 10
-4.3231618E+001
 20
-2.8764181E+001
 40
3.9078283E-001
 50
1.0526913E+002
 51
1.1245305E+002
  0
ARC
  8
99
  6
CONTINUOUS
 62
1
 10
-4.325467E+001
 20
-2.8679492E+001
 40
3.0301168E-001
 50
9.6770697E+001
 51
1.0528134E+002
  0
ARC
  8
99
  6
CONTINUOUS
 62
1
 10
-4.3261709E+001
 20
-2.8620753E+001
 40
2.4385306E-001
 50
8.6920967E+001
 51
9.6755677E+001
  0
ARC
  8
99
  6
CONTINUOUS
 62
1
 10
-4.326574E+001
 20
-2.8673194E+001
 40
2.9643721E-001
 50
7.990278E+001
 51
8.6687341E+001
  0
ARC
  8
99
  6
CONTINUOUS
 62
1
 10
-4.3274172E+001
 20
-2.8720473E+001
 40
3.4446245E-001
 50
7.3762019E+001
 51
7.9900654E+001
  0
ARC
  8
99
  6
CONTINUOUS
 62
1
 10
-4.3302995E+001
 20
-2.8813503E+001
 40
4.4184437E-001
 50
6.3138307E+001
 51
7.3546821E+001
  0
ARC
  8
99
  6
CONTINUOUS
 62
1
 10
-4.3383592E+001
 20
-2.8974189E+001
 40
6.2160875E-001
 50
5.4913499E+001
 51
6.3203194E+001
  0
ARC
  8
99
  6
CONTINUOUS
 62
1
 10
-4.3518424E+001
 20
-2.9167743E+001
 40
8.5749476E-001
 50
4.8287083E+001
 51
5.4975385E+001
  0
ARC
  8
99
  6
CONTINUOUS
 62
1
 10
-4.2516406E+001
 20
-2.8040702E+001
 40
6.5057221E-001
 50
2.2845771E+002
 51
2.5841228E+002
  0
ARC
  8
99
  6
CONTINUOUS
 62
1
 10
-4.251641E+001
 20
-2.8040712E+001
 40
6.5056144E-001
 50
2.5841245E+002
 51
3.2242708E+002
  0
LINE
  8
99
  6
CONTINUOUS
 62
1
 10
-4.2000789E+001
 20
-2.2500423E+001
 11
-4.2000789E+001
 21
-2.8437405E+001
  0
LINE
  8
99
  6
CONTINUOUS
 62
1
 10
-4.3000808E+001
 20
-2.2500423E+001
 11
-4.2000789E+001
 21
-2.2500423E+001
  0
LINE
  8
99
  6
CONTINUOUS
 62
1
 10
-4.5000846E+001
 20
-2.4500462E+001
 11
-4.3000808E+001
 21
-2.2500423E+001
  0
LINE
  8
104
  6
CONTINUOUS
 62
40
 10
-4.5000846E+001
 20
-2.451782E+001
 11
-4.5000846E+001
 21
-1.4413358E+001
  0
LINE
  8
104
  6
CONTINUOUS
 62
40
 10
-4.5000846E+001
 20
-1.4413358E+001
 11
-4.5000846E+001
 21
-5.5490981
  0
LINE
  8
104
  6
CONTINUOUS
 62
40
 10
-4.2000789E+001
 20
-1.6500311E+001
 11
-4.3000808E+001
 21
-1.6500311E+001
  0
LINE
  8
104
  6
CONTINUOUS
 62
40
 10
-4.2000789E+001
 20
-2.2500423E+001
 11
-4.3000808E+001
 21
-2.2500423E+001
  0
ARC
  8
99
  6
CONTINUOUS
 62
1
 10
-4.27347E+001
 20
-5.869094
 40
7.4198816E-001
 50
8.4621845
 51
1.0669435E+002
  0
ARC
  8
99
  6
CONTINUOUS
 62
1
 10
-4.2734695E+001
 20
-5.8690997
 40
7.4199499E-001
 50
1.0669457E+002
 51
1.4068565E+002
  0
ARC
  8
99
  6
CONTINUOUS
 62
1
 10
-4.4123911E+001
 20
-4.7368484
 40
1.0501901
 50
3.1354087E+002
 51
3.2091317E+002
  0
ARC
  8
99
  6
CONTINUOUS
 62
1
 10
-4.3886818E+001
 20
-4.9883502
 40
7.045549E-001
 50
3.0402988E+002
 51
3.1365369E+002
  0
ARC
  8
99
  6
CONTINUOUS
 62
1
 10
-4.3775944E+001
 20
-5.1488921
 40
5.0946266E-001
 50
2.9783452E+002
 51
3.0380013E+002
  0
ARC
  8
99
  6
CONTINUOUS
 62
1
 10
-4.3729083E+001
 20
-5.2378631
 40
4.0890537E-001
 50
2.9094172E+002
 51
2.9784897E+002
  0
ARC
  8
99
  6
CONTINUOUS
 62
1
 10
-4.3701683E+001
 20
-5.3095521
 40
3.3215874E-001
 50
2.8301409E+002
 51
2.9094745E+002
  0
ARC
  8
99
  6
CONTINUOUS
 62
1
 10
-4.3689344E+001
 20
-5.3626872
 40
2.7760976E-001
 50
2.7406229E+002
 51
2.8300241E+002
  0
ARC
  8
99
  6
CONTINUOUS
 62
1
 10
-4.3696319E+001
 20
-5.2418396
 40
3.986511E-001
 50
2.5643789E+002
 51
2.7383182E+002
  0
ARC
  8
99
  6
CONTINUOUS
 62
1
 10
-4.368641E+001
 20
-5.2020631
 40
4.396422E-001
 50
2.4010186E+002
 51
2.5639813E+002
  0
ARC
  8
99
  6
CONTINUOUS
 62
1
 10
-4.3660013E+001
 20
-5.1559182
 40
4.9280368E-001
 50
2.250134E+002
 51
2.4011552E+002
  0
ARC
  8
99
  6
CONTINUOUS
 62
1
 10
-4.3624836E+001
 20
-5.1201148
 40
5.4299455E-001
 50
2.1090315E+002
 51
2.250589E+002
  0
ARC
  8
99
  6
CONTINUOUS
 62
1
 10
-4.4516031E+001
 20
-5.6545003
 40
4.9613826E-001
 50
3.099727E+001
 51
8.9512888E+001
  0
ARC
  8
99
  6
CONTINUOUS
 62
1
 10
-4.4516032E+001
 20
-5.6545018
 40
4.9613974E-001
 50
8.9512834E+001
 51
1.9226583E+002
  0
INSERT
  2
*XH116
  8
108
 10
-4.2176651E+001
 20
-2.8494427E+001
  0
INSERT
  2
*XH117
  8
108
 10
-4.2541498E+001
 20
-1.5878204E+001
  0
POINT
  8
Drafting_Hidden_Entities
  6
CONTINUOUS
 62
1
 10
0.0
 20
0.0
  0
ENDBLK
  0
BLOCK
  2
HHHHHNEW00
 10
0.0
 20
0.0
 70
0
  0
ARC
  8
104
  6
CONTINUOUS
 62
40
 10
1.3088436
 20
-2.0000376E+001
 40
5.1000957
 50
1.8E+002
 51
3.6E+002
  0
LINE
  8
104
  6
CONTINUOUS
 62
40
 10
6.4089393
 20
-2.0000376E+001
 11
6.4089393
 21
-6.9247245
  0
ARC
  8
104
  6
CONTINUOUS
 62
40
 10
1.3088433
 20
0.0
 40
8.6001621
 50
3.0637184E+002
 51
5.9362816E+002
  0
LINE
  8
104
  6
CONTINUOUS
 62
40
 10
-3.7912521
 20
-6.9247245
 11
-3.7912521
 21
-2.0000376E+001
  0
LINE
  8
106
  6
CENTERLINE
 62
1
 10
-6.7912521
 20
-2.0000376E+001
 11
-3.7912521
 21
-2.0000376E+001
  0
LINE
  8
106
  6
CENTERLINE
 62
1
 10
-3.7912521
 20
-2.0000376E+001
 11
6.4089393
 21
-2.0000376E+001
  0
LINE
  8
106
  6
CENTERLINE
 62
1
 10
6.4089393
 20
-2.0000376E+001
 11
9.4089393
 21
-2.0000376E+001
  0
LINE
  8
106
  6
CENTERLINE
 62
1
 10
1.1426697E+001
 20
0.0
 11
-1.1426697E+001
 21
0.0
  0
LINE
  8
7
  6
CENTERLINE
 62
1
 10
1.3088433
 20
1.1427383E+001
 11
1.3088433
 21
-3.3000621E+001
  0
POINT
  8
Drafting_Hidden_Entities
  6
CONTINUOUS
 62
1
 10
0.0
 20
0.0
  0
ENDBLK
  0
BLOCK
  2
*XH120
  3
*XH
 10
0.0
 20
0.0
 70
65
  0
LINE
  8
104
  6
CONTINUOUS
 62
1
 10
-1.7586186E-001
 20
-1.7586186E-001
 11
1.7586186E-001
 21
1.7586186E-001
  0
LINE
  8
104
  6
CONTINUOUS
 62
1
 10
-2.3681306
 20
-2.4681024E-001
 11
1.7586186E-001
 21
2.2971822
  0
LINE
  8
104
  6
CONTINUOUS
 62
1
 10
-2.8241945
 20
1.4184462
 11
1.7586186E-001
 21
4.4185026
  0
LINE
  8
104
  6
CONTINUOUS
 62
1
 10
-2.8241945
 20
3.5397665
 11
-3.6995655E-001
 21
5.9940045
  0
ENDBLK
  0
BLOCK
  2
*XH121
  3
*XH
 10
0.0
 20
0.0
 70
65
  0
LINE
  8
104
  6
CONTINUOUS
 62
1
 10
-5.4070843E-001
 20
-5.4070843E-001
 11
5.4070843E-001
 21
5.4070843E-001
  0
LINE
  8
104
  6
CONTINUOUS
 62
1
 10
-1.6013688
 20
5.1995158E-001
 11
5.4070843E-001
 21
2.6620288
  0
LINE
  8
104
  6
CONTINUOUS
 62
1
 10
-2.459348
 20
1.7832927
 11
5.4070843E-001
 21
4.7833491
  0
LINE
  8
104
  6
CONTINUOUS
 62
1
 10
-2.459348
 20
3.9046131
 11
5.4070843E-001
 21
6.9046695
  0
LINE
  8
104
  6
CONTINUOUS
 62
1
 10
-2.459348
 20
6.0259334
 11
5.4070843E-001
 21
9.0259898
  0
LINE
  8
104
  6
CONTINUOUS
 62
1
 10
-2.459348
 20
8.1472537
 11
8.8812984E-002
 21
1.0695415E+001
  0
LINE
  8
104
  6
CONTINUOUS
 62
1
 10
-2.4694541
 20
1.0258468E+001
 11
-2.459348
 21
1.0268574E+001
  0
ENDBLK
  0
BLOCK
  2
GGSSSSSNEW00
 10
0.0
 20
0.0
 70
0
  0
DIMENSION
  8
100
  6
CONTINUOUS
 62
4
  2
*D2062
  3
DSTYLE8
 10
8.6001621
 20
1.7676E+001
 11
-4.204213E-001
 21
2.23275E+001
 70
129
 13
-8.6001621
 23
0.0
 14
8.6001621
 24
0.0
 40
7.5
1001
ACAD
1000
DSTYLE
1002
{
1070
173
1070
0
1070
5
1000
_AH13
1002
}
  0
INSERT
  2
HHHHHNEW00
  8
109
 10
-1.3088433
 20
0.0
  0
DIMENSION
  8
100
  6
CONTINUOUS
 62
4
  1
33,7
  2
*D2064
  3
DSTYLE8
 10
2.7491735E+001
 20
-2.5100472E+001
 11
2.2840235E+001
 21
-8.254691
 70
128
 13
0.0
 23
8.6001621
 14
3.0E-007
 24
-2.5100472E+001
 40
7.5
 50
9.0E+001
1001
ACAD
1000
DSTYLE
1002
{
1070
173
1070
0
1070
5
1000
_AH13
1002
}
  0
DIMENSION
  8
100
  6
CONTINUOUS
 62
4
  2
*D2065
  3
DSTYLE9
 10
-5.0008066E+001
 20
-9.4930528
 11
-5.6419014E+001
 21
-1.9500367E+001
 70
130
 13
-5.0008067E+001
 23
-2.9507681E+001
 14
-4.5087954E+001
 24
-2.4587569E+001
 15
-4.5143278E+001
 25
-1.4357841E+001
 16
-5.2653232E+001
 26
-1.9500367E+001
1001
ACAD
1000
DSTYLE
1002
{
1070
173
1070
0
1070
5
1000
_AH13
1002
}
  0
DIMENSION
  8
100
  6
CONTINUOUS
 62
4
  2
*D2066
  3
DSTYLE10
 10
-6.1427383E+001
 20
-2.4500462E+001
 11
-6.4845389E+001
 21
-1.9500367E+001
 70
128
 13
-4.3638641E+001
 23
-1.4500274E+001
 14
-4.3829953E+001
 24
-2.4500462E+001
 40
3.0
 50
9.0E+001
1001
ACAD
1000
DSTYLE
1002
{
1070
173
1070
0
1070
5
1000
_AH13
1002
}
  0
LINE
  8
106
  6
CENTERLINE
 62
1
 10
-4.7078463E+001
 20
-1.9500367E+001
 11
-4.0330965E+001
 21
-1.9500367E+001
  0
LINE
  8
104
  6
CONTINUOUS
 62
40
 10
-4.3000808E+001
 20
-1.6500311E+001
 11
-4.5000846E+001
 21
-1.4500274E+001
  0
LINE
  8
104
  6
CONTINUOUS
 62
40
 10
-4.3000808E+001
 20
-2.2500423E+001
 11
-4.3000808E+001
 21
-1.6500311E+001
  0
LINE
  8
104
  6
CONTINUOUS
 62
40
 10
-4.3000808E+001
 20
-2.2500423E+001
 11
-4.5000846E+001
 21
-2.4500462E+001
  0
LINE
  8
99
  6
CONTINUOUS
 62
1
 10
-4.5000846E+001
 20
-2.8136642E+001
 11
-4.5000846E+001
 21
-2.4500462E+001
  0
ARC
  8
99
  6
CONTINUOUS
 62
1
 10
-4.4203265E+001
 20
-2.8009313E+001
 40
8.0768059E-001
 50
1.8907037E+002
 51
2.8234439E+002
  0
ARC
  8
99
  6
CONTINUOUS
 62
1
 10
-4.4203262E+001
 20
-2.800932E+001
 40
8.0767278E-001
 50
2.8234427E+002
 51
3.1425728E+002
  0
ARC
  8
99
  6
CONTINUOUS
 62
1
 10
-4.2777386E+001
 20
-2.946491E+001
 40
1.2299438
 50
1.2781063E+002
 51
1.345089E+002
  0
ARC
  8
99
  6
CONTINUOUS
 62
1
 10
-4.300373E+001
 20
-2.9177238E+001
 40
8.6391368E-001
 50
1.2341442E+002
 51
1.2764734E+002
  0
ARC
  8
99
  6
CONTINUOUS
 62
1
 10
-4.3111451E+001
 20
-2.9013493E+001
 40
6.6791334E-001
 50
1.1841107E+002
 51
1.2343643E+002
  0
ARC
  8
99
  6
CONTINUOUS
 62
1
 10
-4.3185828E+001
 20
-2.8875533E+001
 40
5.1118193E-001
 50
1.1242957E+002
 51
1.1843593E+002
  0
ARC
  8
99
  6
CONTINUOUS
 62
1
 10
-4.3231618E+001
 20
-2.8764181E+001
 40
3.9078283E-001
 50
1.0526913E+002
 51
1.1245305E+002
  0
ARC
  8
99
  6
CONTINUOUS
 62
1
 10
-4.325467E+001
 20
-2.8679492E+001
 40
3.0301168E-001
 50
9.6770697E+001
 51
1.0528134E+002
  0
ARC
  8
99
  6
CONTINUOUS
 62
1
 10
-4.3261709E+001
 20
-2.8620753E+001
 40
2.4385306E-001
 50
8.6920967E+001
 51
9.6755677E+001
  0
ARC
  8
99
  6
CONTINUOUS
 62
1
 10
-4.326574E+001
 20
-2.8673194E+001
 40
2.9643721E-001
 50
7.990278E+001
 51
8.6687341E+001
  0
ARC
  8
99
  6
CONTINUOUS
 62
1
 10
-4.3274172E+001
 20
-2.8720473E+001
 40
3.4446245E-001
 50
7.3762019E+001
 51
7.9900654E+001
  0
ARC
  8
99
  6
CONTINUOUS
 62
1
 10
-4.3302995E+001
 20
-2.8813503E+001
 40
4.4184437E-001
 50
6.3138307E+001
 51
7.3546821E+001
  0
ARC
  8
99
  6
CONTINUOUS
 62
1
 10
-4.3383592E+001
 20
-2.8974189E+001
 40
6.2160875E-001
 50
5.4913499E+001
 51
6.3203194E+001
  0
ARC
  8
99
  6
CONTINUOUS
 62
1
 10
-4.3518424E+001
 20
-2.9167743E+001
 40
8.5749476E-001
 50
4.8287083E+001
 51
5.4975385E+001
  0
ARC
  8
99
  6
CONTINUOUS
 62
1
 10
-4.2516406E+001
 20
-2.8040702E+001
 40
6.5057221E-001
 50
2.2845771E+002
 51
2.5841228E+002
  0
ARC
  8
99
  6
CONTINUOUS
 62
1
 10
-4.251641E+001
 20
-2.8040712E+001
 40
6.5056144E-001
 50
2.5841245E+002
 51
3.2242708E+002
  0
LINE
  8
99
  6
CONTINUOUS
 62
1
 10
-4.2000789E+001
 20
-2.2500423E+001
 11
-4.2000789E+001
 21
-2.8437405E+001
  0
LINE
  8
99
  6
CONTINUOUS
 62
1
 10
-4.3000808E+001
 20
-2.2500423E+001
 11
-4.2000789E+001
 21
-2.2500423E+001
  0
LINE
  8
99
  6
CONTINUOUS
 62
1
 10
-4.5000846E+001
 20
-2.4500462E+001
 11
-4.3000808E+001
 21
-2.2500423E+001
  0
LINE
  8
104
  6
CONTINUOUS
 62
40
 10
-4.5000846E+001
 20
-2.451782E+001
 11
-4.5000846E+001
 21
-1.4413358E+001
  0
LINE
  8
104
  6
CONTINUOUS
 62
40
 10
-4.5000846E+001
 20
-1.4413358E+001
 11
-4.5000846E+001
 21
-5.5490981
  0
LINE
  8
104
  6
CONTINUOUS
 62
40
 10
-4.2000789E+001
 20
-1.6500311E+001
 11
-4.3000808E+001
 21
-1.6500311E+001
  0
LINE
  8
104
  6
CONTINUOUS
 62
40
 10
-4.2000789E+001
 20
-2.2500423E+001
 11
-4.3000808E+001
 21
-2.2500423E+001
  0
ARC
  8
99
  6
CONTINUOUS
 62
1
 10
-4.27347E+001
 20
-5.869094
 40
7.4198816E-001
 50
8.4621845
 51
1.0669435E+002
  0
ARC
  8
99
  6
CONTINUOUS
 62
1
 10
-4.2734695E+001
 20
-5.8690997
 40
7.4199499E-001
 50
1.0669457E+002
 51
1.4068565E+002
  0
ARC
  8
99
  6
CONTINUOUS
 62
1
 10
-4.4123911E+001
 20
-4.7368484
 40
1.0501901
 50
3.1354087E+002
 51
3.2091317E+002
  0
ARC
  8
99
  6
CONTINUOUS
 62
1
 10
-4.3886818E+001
 20
-4.9883502
 40
7.045549E-001
 50
3.0402988E+002
 51
3.1365369E+002
  0
ARC
  8
99
  6
CONTINUOUS
 62
1
 10
-4.3775944E+001
 20
-5.1488921
 40
5.0946266E-001
 50
2.9783452E+002
 51
3.0380013E+002
  0
ARC
  8
99
  6
CONTINUOUS
 62
1
 10
-4.3729083E+001
 20
-5.2378631
 40
4.0890537E-001
 50
2.9094172E+002
 51
2.9784897E+002
  0
ARC
  8
99
  6
CONTINUOUS
 62
1
 10
-4.3701683E+001
 20
-5.3095521
 40
3.3215874E-001
 50
2.8301409E+002
 51
2.9094745E+002
  0
ARC
  8
99
  6
CONTINUOUS
 62
1
 10
-4.3689344E+001
 20
-5.3626872
 40
2.7760976E-001
 50
2.7406229E+002
 51
2.8300241E+002
  0
ARC
  8
99
  6
CONTINUOUS
 62
1
 10
-4.3696319E+001
 20
-5.2418396
 40
3.986511E-001
 50
2.5643789E+002
 51
2.7383182E+002
  0
ARC
  8
99
  6
CONTINUOUS
 62
1
 10
-4.368641E+001
 20
-5.2020631
 40
4.396422E-001
 50
2.4010186E+002
 51
2.5639813E+002
  0
ARC
  8
99
  6
CONTINUOUS
 62
1
 10
-4.3660013E+001
 20
-5.1559182
 40
4.9280368E-001
 50
2.250134E+002
 51
2.4011552E+002
  0
ARC
  8
99
  6
CONTINUOUS
 62
1
 10
-4.3624836E+001
 20
-5.1201148
 40
5.4299455E-001
 50
2.1090315E+002
 51
2.250589E+002
  0
ARC
  8
99
  6
CONTINUOUS
 62
1
 10
-4.4516031E+001
 20
-5.6545003
 40
4.9613826E-001
 50
3.099727E+001
 51
8.9512888E+001
  0
ARC
  8
99
  6
CONTINUOUS
 62
1
 10
-4.4516032E+001
 20
-5.6545018
 40
4.9613974E-001
 50
8.9512834E+001
 51
1.9226583E+002
  0
INSERT
  2
*XH120
  8
108
 10
-4.2176651E+001
 20
-2.8494427E+001
  0
INSERT
  2
*XH121
  8
108
 10
-4.2541498E+001
 20
-1.5878204E+001
  0
POINT
  8
Drafting_Hidden_Entities
  6
CONTINUOUS
 62
1
 10
0.0
 20
0.0
  0
ENDBLK
  0
BLOCK
  2
HHKL
 10
0.0
 20
0.0
 70
0
  0
CIRCLE
  8
1
  6
CONTINUOUS
 62
40
 10
0.0
 20
0.0
 40
4.0
  0
CIRCLE
  8
1
  6
CONTINUOUS
 62
40
 10
0.0
 20
0.0
 40
2.75
  0
LINE
  8
1
  6
CENTERLINE
 62
1
 10
-7.616778
 20
0.0
 11
7.083042
 21
0.0
  0
POINT
  8
Drafting_Hidden_Entities
  6
CONTINUOUS
 62
1
 10
0.0
 20
0.0
  0
ENDBLK
  0
BLOCK
  2
HHKLNEW00
 10
0.0
 20
0.0
 70
0
  0
CIRCLE
  8
1
  6
CONTINUOUS
 62
40
 10
0.0
 20
0.0
 40
4.0
  0
CIRCLE
  8
1
  6
CONTINUOUS
 62
40
 10
0.0
 20
0.0
 40
2.75
  0
LINE
  8
1
  6
CENTERLINE
 62
1
 10
-7.616778
 20
0.0
 11
7.083042
 21
0.0
  0
POINT
  8
Drafting_Hidden_Entities
  6
CONTINUOUS
 62
1
 10
0.0
 20
0.0
  0
ENDBLK
  0
BLOCK
  2
JJJG
 10
0.0
 20
0.0
 70
0
  0
TEXT
  8
103
  6
CONTINUOUS
 62
1
 10
6.2581369E-001
 20
1.934923
 40
4.5
  1
für Profilzylinder DIN 18252
 41
6.6696431E-001
 72
1
 11
4.2644565E+001
 21
4.184923
 73
2
  0
TEXT
  8
103
  6
CONTINUOUS
 62
1
 10
5.7206382E-001
 20
-5.765077
 40
4.5
  1
for Euro-profile cylinder
 41
6.6600002E-001
 72
1
 11
3.8034565E+001
 21
-3.515077
 73
2
  0
POINT
  8
Drafting_Hidden_Entities
  6
CONTINUOUS
 62
1
 10
0.0
 20
0.0
  0
ENDBLK
  0
BLOCK
  2
HZRREE
 10
0.0
 20
0.0
 70
0
  0
INSERT
  2
JJJG
  8
109
 10
-9.0783704E+001
 20
-5.0490765
  0
POINT
  8
Drafting_Hidden_Entities
  6
CONTINUOUS
 62
1
 10
0.0
 20
0.0
  0
ENDBLK
  0
BLOCK
  2
GFJJKK
 10
0.0
 20
0.0
 70
0
  0
ARC
  8
104
  6
CONTINUOUS
 62
40
 10
-5.4860521E+001
 20
-4.545E+001
 40
2.3
 50
9.3476729E+001
 51
2.6652327E+002
  0
ARC
  8
104
  6
CONTINUOUS
 62
40
 10
-5.4860521E+001
 20
-6.255E+001
 40
2.3
 50
9.3701766E+001
 51
2.6549843E+002
  0
LINE
  8
104
  6
CONTINUOUS
 62
40
 10
-3.9078619E+001
 20
4.2658181E+001
 11
-3.9078619E+001
 21
4.7E+001
  0
LINE
  8
104
  6
CONTINUOUS
 62
40
 10
-3.9078619E+001
 20
4.2658181E+001
 11
-3.6E+001
 21
4.2658181E+001
  0
POINT
  8
Drafting_Hidden_Entities
  6
CONTINUOUS
 62
1
 10
0.0
 20
0.0
  0
ENDBLK
  0
BLOCK
  2
FAFA
 10
0.0
 20
0.0
 70
0
  0
CIRCLE
  8
104
  6
CONTINUOUS
 62
40
 10
-6.6831961E+001
 20
-4.545E+001
 40
2.3
  0
CIRCLE
  8
104
  6
CONTINUOUS
 62
40
 10
-5.7809842E+001
 20
-5.415E+001
 40
2.3
  0
CIRCLE
  8
104
  6
CONTINUOUS
 62
40
 10
-6.6831961E+001
 20
-6.255E+001
 40
2.3
  0
LINE
  8
104
  6
CONTINUOUS
 62
40
 10
-3.891058E+001
 20
4.2658181E+001
 11
-3.891058E+001
 21
4.7E+001
  0
LINE
  8
104
  6
CONTINUOUS
 62
40
 10
-3.891058E+001
 20
4.2658181E+001
 11
-3.5831961E+001
 21
4.2658181E+001
  0
POINT
  8
Drafting_Hidden_Entities
  6
CONTINUOUS
 62
1
 10
0.0
 20
0.0
  0
ENDBLK
  0
BLOCK
  2
XBXN
 10
0.0
 20
0.0
 70
0
  0
LINE
  8
1
  6
CONTINUOUS
 62
40
 10
-3.0
 20
4.0
 11
-1.75
 21
2.75
  0
LINE
  8
1
  6
CONTINUOUS
 62
40
 10
-1.75
 20
2.75
 11
-1.75
 21
-2.75
  0
LINE
  8
1
  6
CONTINUOUS
 62
40
 10
-1.75
 20
-2.75
 11
-3.0
 21
-4.0
  0
POINT
  8
Drafting_Hidden_Entities
  6
CONTINUOUS
 62
1
 10
0.0
 20
0.0
  0
ENDBLK
  0
BLOCK
  2
XBXNNEW00
 10
0.0
 20
0.0
 70
0
  0
LINE
  8
104
  6
CONTINUOUS
 62
40
 10
-3.0
 20
4.0
 11
-1.75
 21
2.75
  0
LINE
  8
104
  6
CONTINUOUS
 62
40
 10
-1.75
 20
2.75
 11
-1.75
 21
-2.75
  0
LINE
  8
104
  6
CONTINUOUS
 62
40
 10
-1.75
 20
-2.75
 11
-3.0
 21
-4.0
  0
POINT
  8
Drafting_Hidden_Entities
  6
CONTINUOUS
 62
1
 10
0.0
 20
0.0
  0
ENDBLK
  0
BLOCK
  2
_AH1
 70
0
 10
0.0
 20
0.0
  3
_AH1
  0
LINE
  8
0
  6
CONTINUOUS
 62
0
 10
-1.0
 20
1.66667E-001
 11
0.0
 21
0.0
  0
LINE
  8
0
  6
CONTINUOUS
 62
0
 10
0.0
 20
0.0
 11
-1.0
 21
-1.66667E-001
  0
LINE
  8
0
  6
CONTINUOUS
 62
0
 10
-1.0
 20
1.66667E-001
 11
-1.0
 21
-1.66667E-001
  0
LINE
  8
0
  6
CONTINUOUS
 62
0
 10
0.0
 20
0.0
 11
-1.0
 21
0.0
  0
ENDBLK
  0
BLOCK
  2
_AH2
 70
0
 10
0.0
 20
0.0
  3
_AH2
  0
LINE
  8
0
  6
CONTINUOUS
 62
0
 10
-1.0
 20
1.66667E-001
 11
0.0
 21
0.0
  0
LINE
  8
0
  6
CONTINUOUS
 62
0
 10
0.0
 20
0.0
 11
-1.0
 21
-1.66667E-001
  0
LINE
  8
0
  6
CONTINUOUS
 62
0
 10
0.0
 20
0.0
 11
-1.0
 21
0.0
  0
ENDBLK
  0
BLOCK
  2
*D811
  3
*D
 10
0.0
 20
0.0
 70
65
  0
LINE
  8
1
  6
CONTINUOUS
 62
4
 10
2.3599579E+002
 20
1.8280359E+002
 11
2.5660089E+002
 21
1.8280359E+002
  0
LINE
  8
1
  6
CONTINUOUS
 62
4
 10
2.3599579E+002
 20
1.6900359E+002
 11
2.5660089E+002
 21
1.6900359E+002
  0
LINE
  8
1
  6
CONTINUOUS
 62
4
 10
2.5360089E+002
 20
1.8280359E+002
 11
2.5360089E+002
 21
2.1394557E+002
  0
LINE
  8
1
  6
CONTINUOUS
 62
4
 10
2.5360089E+002
 20
1.5300359E+002
 11
2.5360089E+002
 21
1.8280359E+002
  0
TEXT
  8
1
  6
CONTINUOUS
 62
4
 10
2.5059889E+002
 20
1.9046557E+002
 40
6.4
  1
13,8
 41
8.0E-001
 50
9.0E+001
  0
INSERT
  2
_AH13
  8
1
 62
4
 10
2.5360089E+002
 20
1.8280359E+002
 41
8.0
 42
8.0
 43
8.0
 50
4.5E+002
  0
INSERT
  2
_AH13
  8
1
 62
4
 10
2.5360089E+002
 20
1.6900359E+002
 41
8.0
 42
8.0
 43
8.0
 50
6.3E+002
  0
ENDBLK
  0
BLOCK
  2
*D1253
  3
*D
 10
0.0
 20
0.0
 70
65
  0
LINE
  8
1
  6
CONTINUOUS
 62
4
 10
3.3248723E+002
 20
2.550375E+002
 11
3.3248723E+002
 21
2.3786525E+002
  0
LINE
  8
1
  6
CONTINUOUS
 62
4
 10
3.5268723E+002
 20
2.5459636E+002
 11
3.5268723E+002
 21
2.3786525E+002
  0
LINE
  8
1
  6
CONTINUOUS
 62
4
 10
3.3248723E+002
 20
2.3986525E+002
 11
3.4258723E+002
 21
2.3986525E+002
  0
LINE
  8
1
  6
CONTINUOUS
 62
4
 10
3.5268723E+002
 20
2.3986525E+002
 11
3.4258723E+002
 21
2.3986525E+002
  0
TEXT
  8
1
  6
CONTINUOUS
 62
4
 10
3.3832056E+002
 20
2.4199845E+002
 40
6.4
  1
20
 41
6.6666667E-001
  0
INSERT
  2
_AH13
  8
1
 62
4
 10
3.3248723E+002
 20
2.3986525E+002
 41
7.0
 42
7.0
 43
7.0
 50
0.0
  0
INSERT
  2
_AH13
  8
1
 62
4
 10
3.5268723E+002
 20
2.3986525E+002
 41
7.0
 42
7.0
 43
7.0
 50
1.8E+002
  0
ENDBLK
  0
BLOCK
  2
*D1273
  3
*D
 10
0.0
 20
0.0
 70
65
  0
LINE
  8
1
  6
CONTINUOUS
 62
4
 10
2.3400024E+002
 20
3.9285524E+002
 11
2.5499779E+002
 21
3.9285524E+002
  0
LINE
  8
1
  6
CONTINUOUS
 62
4
 10
2.1324579E+002
 20
4.3885524E+002
 11
2.5499779E+002
 21
4.3885524E+002
  0
LINE
  8
1
  6
CONTINUOUS
 62
4
 10
2.5299779E+002
 20
3.9285524E+002
 11
2.5299779E+002
 21
4.158115E+002
  0
LINE
  8
1
  6
CONTINUOUS
 62
4
 10
2.5299779E+002
 20
4.3885524E+002
 11
2.5299779E+002
 21
4.158115E+002
  0
TEXT
  8
1
  6
CONTINUOUS
 62
4
 10
2.5086459E+002
 20
4.1154484E+002
 40
6.4
  1
46
 41
6.6666667E-001
 50
9.0E+001
  0
INSERT
  2
_AH13
  8
1
 62
4
 10
2.5299779E+002
 20
3.9285524E+002
 41
7.0
 42
7.0
 43
7.0
 50
9.0E+001
  0
INSERT
  2
_AH13
  8
1
 62
4
 10
2.5299779E+002
 20
4.3885524E+002
 41
7.0
 42
7.0
 43
7.0
 50
2.7E+002
  0
ENDBLK
  0
BLOCK
  2
*D1274
  3
*D
 10
0.0
 20
0.0
 70
65
  0
LINE
  8
1
  6
CONTINUOUS
 62
4
 10
2.1324579E+002
 20
3.7135524E+002
 11
2.5499603E+002
 21
3.7135524E+002
  0
LINE
  8
1
  6
CONTINUOUS
 62
4
 10
2.3400024E+002
 20
3.9285524E+002
 11
2.5499603E+002
 21
3.9285524E+002
  0
LINE
  8
1
  6
CONTINUOUS
 62
4
 10
2.5299603E+002
 20
3.7135524E+002
 11
2.5299603E+002
 21
3.8210524E+002
  0
LINE
  8
1
  6
CONTINUOUS
 62
4
 10
2.5299603E+002
 20
3.9285524E+002
 11
2.5299603E+002
 21
3.8210524E+002
  0
TEXT
  8
1
  6
CONTINUOUS
 62
4
 10
2.5086283E+002
 20
3.735719E+002
 40
6.4
  1
21,5
 41
6.6666667E-001
 50
9.0E+001
  0
INSERT
  2
_AH13
  8
1
 62
4
 10
2.5299603E+002
 20
3.7135524E+002
 41
7.0
 42
7.0
 43
7.0
 50
9.0E+001
  0
INSERT
  2
_AH13
  8
1
 62
4
 10
2.5299603E+002
 20
3.9285524E+002
 41
7.0
 42
7.0
 43
7.0
 50
2.7E+002
  0
ENDBLK
  0
BLOCK
  2
*D1289
  3
*D
 10
0.0
 20
0.0
 70
65
  0
LINE
  8
1
  6
CONTINUOUS
 62
4
 10
2.3262546E+002
 20
3.1285524E+002
 11
2.4252144E+002
 21
3.1285524E+002
  0
LINE
  8
1
  6
CONTINUOUS
 62
4
 10
2.5746051E+002
 20
3.1285524E+002
 11
2.6625732E+002
 21
3.1285524E+002
  0
LINE
  8
1
  6
CONTINUOUS
 62
4
 10
2.1455329E+002
 20
3.2085524E+002
 11
2.4155763E+002
 21
3.2085524E+002
  0
LINE
  8
1
  6
CONTINUOUS
 62
4
 10
2.5673765E+002
 20
3.2085524E+002
 11
2.6625732E+002
 21
3.2085524E+002
  0
LINE
  8
1
  6
CONTINUOUS
 62
4
 10
2.6425732E+002
 20
3.0085524E+002
 11
2.6425732E+002
 21
3.2085524E+002
  0
LINE
  8
1
  6
CONTINUOUS
 62
4
 10
2.6425732E+002
 20
3.2085524E+002
 11
2.6425732E+002
 21
3.4030337E+002
  0
TEXT
  8
1
  6
CONTINUOUS
 62
4
 10
2.6192432E+002
 20
3.326367E+002
 40
7.0
  1
8
 41
6.6666667E-001
 50
9.0E+001
  0
INSERT
  2
_AH13
  8
1
 62
4
 10
2.6425732E+002
 20
3.1285524E+002
 41
7.0
 42
7.0
 43
7.0
 50
2.7E+002
  0
INSERT
  2
_AH13
  8
1
 62
4
 10
2.6425732E+002
 20
3.2085524E+002
 41
7.0
 42
7.0
 43
7.0
 50
4.5E+002
  0
ENDBLK
  0
BLOCK
  2
*D1302
  3
*D
 10
0.0
 20
0.0
 70
65
  0
LINE
  8
1
  6
CONTINUOUS
 62
4
 10
2.4593437E+002
 20
3.2085524E+002
 11
2.4637668E+002
 21
3.2085524E+002
  0
LINE
  8
1
  6
CONTINUOUS
 62
4
 10
2.564967E+002
 20
3.2085524E+002
 11
2.7635945E+002
 21
3.2085524E+002
  0
LINE
  8
1
  6
CONTINUOUS
 62
4
 10
2.4658819E+002
 20
3.9285524E+002
 11
2.7635945E+002
 21
3.9285524E+002
  0
LINE
  8
1
  6
CONTINUOUS
 62
4
 10
2.7435945E+002
 20
3.2085524E+002
 11
2.7435945E+002
 21
3.5231864E+002
  0
LINE
  8
1
  6
CONTINUOUS
 62
4
 10
2.7435945E+002
 20
3.9285524E+002
 11
2.7435945E+002
 21
3.5231864E+002
  0
TEXT
  8
1
  6
CONTINUOUS
 62
4
 10
2.7222625E+002
 20
3.4805197E+002
 40
6.4
  1
72
 41
6.6666667E-001
 50
9.0E+001
  0
INSERT
  2
_AH13
  8
1
 62
4
 10
2.7435945E+002
 20
3.2085524E+002
 41
7.0
 42
7.0
 43
7.0
 50
9.0E+001
  0
INSERT
  2
_AH13
  8
1
 62
4
 10
2.7435945E+002
 20
3.9285524E+002
 41
7.0
 42
7.0
 43
7.0
 50
2.7E+002
  0
ENDBLK
  0
BLOCK
  2
*D1312
  3
*D
 10
0.0
 20
0.0
 70
65
  0
LINE
  8
1
  6
CONTINUOUS
 62
4
 10
2.18801E+002
 20
2.9085524E+002
 11
2.9769779E+002
 21
2.9085524E+002
  0
LINE
  8
1
  6
CONTINUOUS
 62
4
 10
2.469151E+002
 20
4.5585524E+002
 11
2.7017898E+002
 21
4.5585524E+002
  0
LINE
  8
1
  6
CONTINUOUS
 62
4
 10
2.8924196E+002
 20
4.5585524E+002
 11
2.9769779E+002
 21
4.5585524E+002
  0
LINE
  8
1
  6
CONTINUOUS
 62
4
 10
2.9569779E+002
 20
2.9085524E+002
 11
2.9569779E+002
 21
3.7351079E+002
  0
LINE
  8
1
  6
CONTINUOUS
 62
4
 10
2.9569779E+002
 20
4.5585524E+002
 11
2.9569779E+002
 21
3.7351079E+002
  0
TEXT
  8
1
  6
CONTINUOUS
 62
4
 10
2.9336479E+002
 20
3.6711079E+002
 40
6.4
  1
165
 41
6.6666667E-001
 50
9.0E+001
  0
INSERT
  2
_AH13
  8
1
 62
4
 10
2.9569779E+002
 20
2.9085524E+002
 41
7.0
 42
7.0
 43
7.0
 50
9.0E+001
  0
INSERT
  2
_AH13
  8
1
 62
4
 10
2.9569779E+002
 20
4.5585524E+002
 41
7.0
 42
7.0
 43
7.0
 50
2.7E+002
  0
ENDBLK
  0
BLOCK
  2
*D1326
  3
*D
 10
0.0
 20
0.0
 70
65
  0
LINE
  8
1
  6
CONTINUOUS
 62
4
 10
1.3091955E+002
 20
3.2000524E+002
 11
1.1599603E+002
 21
3.2000524E+002
  0
LINE
  8
1
  6
CONTINUOUS
 62
4
 10
1.3136443E+002
 20
3.5770524E+002
 11
1.1599603E+002
 21
3.5770524E+002
  0
LINE
  8
1
  6
CONTINUOUS
 62
4
 10
1.1799603E+002
 20
3.2000524E+002
 11
1.1799603E+002
 21
3.3940045E+002
  0
LINE
  8
1
  6
CONTINUOUS
 62
4
 10
1.1799603E+002
 20
3.5770524E+002
 11
1.1799603E+002
 21
3.3940045E+002
  0
TEXT
  8
1
  6
CONTINUOUS
 62
4
 10
1.1586283E+002
 20
3.3513379E+002
 40
6.4
  1
38
 41
6.6666667E-001
 50
9.0E+001
  0
INSERT
  2
_AH13
  8
1
 62
4
 10
1.1799603E+002
 20
3.2000524E+002
 41
7.0
 42
7.0
 43
7.0
 50
9.0E+001
  0
INSERT
  2
_AH13
  8
1
 62
4
 10
1.1799603E+002
 20
3.5770524E+002
 41
7.0
 42
7.0
 43
7.0
 50
2.7E+002
  0
ENDBLK
  0
BLOCK
  2
*D1347
  3
*D
 10
0.0
 20
0.0
 70
65
  0
LINE
  8
1
  6
CONTINUOUS
 62
4
 10
1.4999579E+002
 20
2.5585524E+002
 11
9.270998E+001
 21
2.5585524E+002
  0
LINE
  8
1
  6
CONTINUOUS
 62
4
 10
1.4999579E+002
 20
4.9086276E+002
 11
1.4614033E+002
 21
4.9086276E+002
  0
LINE
  8
1
  6
CONTINUOUS
 62
4
 10
1.3920945E+002
 20
4.9086276E+002
 11
1.2979249E+002
 21
4.9086276E+002
  0
LINE
  8
1
  6
CONTINUOUS
 62
4
 10
1.2150556E+002
 20
4.9086276E+002
 11
9.270998E+001
 21
4.9086276E+002
  0
LINE
  8
1
  6
CONTINUOUS
 62
4
 10
9.470998E+001
 20
2.5585524E+002
 11
9.470998E+001
 21
3.7868815E+002
  0
LINE
  8
1
  6
CONTINUOUS
 62
4
 10
9.470998E+001
 20
4.9086276E+002
 11
9.470998E+001
 21
3.7868815E+002
  0
TEXT
  8
1
  6
CONTINUOUS
 62
4
 10
9.257678E+001
 20
3.7228815E+002
 40
6.4
  1
235
 41
6.6666667E-001
 50
9.0E+001
  0
INSERT
  2
_AH13
  8
1
 62
4
 10
9.470998E+001
 20
2.5585524E+002
 41
7.0
 42
7.0
 43
7.0
 50
9.0E+001
  0
INSERT
  2
_AH13
  8
1
 62
4
 10
9.470998E+001
 20
4.9086276E+002
 41
7.0
 42
7.0
 43
7.0
 50
2.7E+002
  0
ENDBLK
  0
BLOCK
  2
*D1356
  3
*D
 10
0.0
 20
0.0
 70
65
  0
LINE
  8
1
  6
CONTINUOUS
 62
4
 10
2.2599579E+002
 20
3.0560343E+002
 11
2.2599579E+002
 21
2.841066E+002
  0
LINE
  8
1
  6
CONTINUOUS
 62
4
 10
2.2599579E+002
 20
2.6591995E+002
 11
2.2599579E+002
 21
2.5709604E+002
  0
LINE
  8
1
  6
CONTINUOUS
 62
4
 10
1.8799579E+002
 20
3.0547849E+002
 11
1.8799579E+002
 21
2.7583389E+002
  0
LINE
  8
1
  6
CONTINUOUS
 62
4
 10
1.8799579E+002
 20
2.6735578E+002
 11
1.8799579E+002
 21
2.5709604E+002
  0
LINE
  8
1
  6
CONTINUOUS
 62
4
 10
2.2599579E+002
 20
2.5909604E+002
 11
2.0673876E+002
 21
2.5909604E+002
  0
LINE
  8
1
  6
CONTINUOUS
 62
4
 10
1.8799579E+002
 20
2.5909604E+002
 11
2.0673876E+002
 21
2.5909604E+002
  0
TEXT
  8
1
  6
CONTINUOUS
 62
4
 10
2.0247209E+002
 20
2.6122924E+002
 40
6.4
  1
38
 41
6.6666667E-001
 50
3.6E+002
  0
INSERT
  2
_AH13
  8
1
 62
4
 10
2.2599579E+002
 20
2.5909604E+002
 41
7.0
 42
7.0
 43
7.0
 50
1.8E+002
  0
INSERT
  2
_AH13
  8
1
 62
4
 10
1.8799579E+002
 20
2.5909604E+002
 41
7.0
 42
7.0
 43
7.0
 50
3.6E+002
  0
ENDBLK
  0
BLOCK
  2
*D1366
  3
*D
 10
0.0
 20
0.0
 70
65
  0
LINE
  8
1
  6
CONTINUOUS
 62
4
 10
2.3699579E+002
 20
3.1631526E+002
 11
2.3699579E+002
 21
2.2911609E+002
  0
LINE
  8
1
  6
CONTINUOUS
 62
4
 10
2.0699579E+002
 20
2.2949359E+002
 11
2.0699579E+002
 21
2.2911609E+002
  0
LINE
  8
1
  6
CONTINUOUS
 62
4
 10
2.3699579E+002
 20
2.3111609E+002
 11
2.2210642E+002
 21
2.3111609E+002
  0
LINE
  8
1
  6
CONTINUOUS
 62
4
 10
2.0699579E+002
 20
2.3111609E+002
 11
2.2210642E+002
 21
2.3111609E+002
  0
TEXT
  8
1
  6
CONTINUOUS
 62
4
 10
2.1783975E+002
 20
2.3324929E+002
 40
6.4
  1
30
 41
6.6666667E-001
 50
3.6E+002
  0
INSERT
  2
_AH13
  8
1
 62
4
 10
2.3699579E+002
 20
2.3111609E+002
 41
7.0
 42
7.0
 43
7.0
 50
1.8E+002
  0
INSERT
  2
_AH13
  8
1
 62
4
 10
2.0699579E+002
 20
2.3111609E+002
 41
7.0
 42
7.0
 43
7.0
 50
3.6E+002
  0
ENDBLK
  0
BLOCK
  2
*D1378
  3
*D
 10
0.0
 20
0.0
 70
65
  0
LINE
  8
1
  6
CONTINUOUS
 62
4
 10
2.0274579E+002
 20
4.3885524E+002
 11
2.0274579E+002
 21
4.668375E+002
  0
LINE
  8
1
  6
CONTINUOUS
 62
4
 10
2.1124579E+002
 20
4.3885524E+002
 11
2.1124579E+002
 21
4.668375E+002
  0
LINE
  8
1
  6
CONTINUOUS
 62
4
 10
1.8674579E+002
 20
4.638375E+002
 11
2.1124579E+002
 21
4.638375E+002
  0
LINE
  8
1
  6
CONTINUOUS
 62
4
 10
2.1124579E+002
 20
4.638375E+002
 11
2.2792361E+002
 21
4.638375E+002
  0
TEXT
  8
1
  6
CONTINUOUS
 62
4
 10
2.1932361E+002
 20
4.668395E+002
 40
7.0
  1
8
 41
8.0E-001
  0
INSERT
  2
_AH13
  8
1
 62
4
 10
2.0274579E+002
 20
4.638375E+002
 41
8.0
 42
8.0
 43
8.0
 50
1.8E+002
  0
INSERT
  2
_AH13
  8
1
 62
4
 10
2.1124579E+002
 20
4.638375E+002
 41
8.0
 42
8.0
 43
8.0
 50
3.6E+002
  0
ENDBLK
  0
BLOCK
  2
*D1379
  3
*D
 10
0.0
 20
0.0
 70
65
  0
LINE
  8
1
  6
CONTINUOUS
 62
4
 10
1.5199579E+002
 20
2.5585524E+002
 11
1.5199579E+002
 21
2.2814452E+002
  0
LINE
  8
1
  6
CONTINUOUS
 62
4
 10
2.0699579E+002
 20
2.8910064E+002
 11
2.0699579E+002
 21
2.773556E+002
  0
LINE
  8
1
  6
CONTINUOUS
 62
4
 10
2.0699579E+002
 20
2.5279081E+002
 11
2.0699579E+002
 21
2.2814452E+002
  0
LINE
  8
1
  6
CONTINUOUS
 62
4
 10
1.5199579E+002
 20
2.3114452E+002
 11
1.9608564E+002
 21
2.3114452E+002
  0
LINE
  8
1
  6
CONTINUOUS
 62
4
 10
2.0699579E+002
 20
2.3114452E+002
 11
1.9608564E+002
 21
2.3114452E+002
  0
INSERT
  2
_AH13
  8
1
 62
4
 10
1.5199579E+002
 20
2.3114452E+002
 41
8.0
 42
8.0
 43
8.0
 50
0.0
  0
INSERT
  2
_AH13
  8
1
 62
4
 10
2.0699579E+002
 20
2.3114452E+002
 41
8.0
 42
8.0
 43
8.0
 50
1.8E+002
  0
ENDBLK
  0
BLOCK
  2
*D1387
  3
*D
 10
0.0
 20
0.0
 70
65
  0
LINE
  8
1
  6
CONTINUOUS
 62
4
 10
1.5199579E+002
 20
4.8186276E+002
 11
1.41984E+002
 21
4.9187456E+002
  0
LINE
  8
1
  6
CONTINUOUS
 62
4
 10
1.5199579E+002
 20
4.7386276E+002
 11
1.41984E+002
 21
4.6385097E+002
  0
ARC
  8
1
  6
CONTINUOUS
 62
4
 10
1.5599579E+002
 20
4.7786276E+002
 40
1.6815666E+001
 50
1.35E+002
 51
1.8E+002
  0
ARC
  8
1
  6
CONTINUOUS
 62
4
 10
1.5599579E+002
 20
4.7786276E+002
 40
1.6815666E+001
 50
1.8E+002
 51
2.25E+002
  0
TEXT
  8
1
  6
CONTINUOUS
 62
4
 10
1.3618012E+002
 20
4.7018276E+002
 40
6.4
  1
90%%d
 41
8.0E-001
 50
9.0E+001
  0
INSERT
  2
_AH13
  8
1
 62
4
 10
1.4410532E+002
 20
4.8975324E+002
 41
8.0
 42
8.0
 43
8.0
 50
2.3876106E+002
  0
INSERT
  2
_AH13
  8
1
 62
4
 10
1.4410532E+002
 20
4.6597229E+002
 41
8.0
 42
8.0
 43
8.0
 50
1.2123894E+002
  0
ENDBLK
  0
BLOCK
  2
*D1399
  3
*D
 10
0.0
 20
0.0
 70
65
  0
LINE
  8
1
  6
CONTINUOUS
 62
4
 10
3.5268723E+002
 20
2.3786276E+002
 11
3.5268723E+002
 21
2.250913E+002
  0
LINE
  8
1
  6
CONTINUOUS
 62
4
 10
3.3248723E+002
 20
2.3786276E+002
 11
3.3248723E+002
 21
2.250913E+002
  0
LINE
  8
1
  6
CONTINUOUS
 62
4
 10
3.5268723E+002
 20
2.270913E+002
 11
3.4258723E+002
 21
2.270913E+002
  0
LINE
  8
1
  6
CONTINUOUS
 62
4
 10
3.3248723E+002
 20
2.270913E+002
 11
3.4258723E+002
 21
2.270913E+002
  0
TEXT
  8
1
  6
CONTINUOUS
 62
4
 10
3.3832056E+002
 20
2.292245E+002
 40
6.4
  1
24
 41
6.6666667E-001
 50
3.6E+002
  0
INSERT
  2
_AH13
  8
1
 62
4
 10
3.5268723E+002
 20
2.270913E+002
 41
7.0
 42
7.0
 43
7.0
 50
1.8E+002
  0
INSERT
  2
_AH13
  8
1
 62
4
 10
3.3248723E+002
 20
2.270913E+002
 41
7.0
 42
7.0
 43
7.0
 50
3.6E+002
  0
ENDBLK
  0
BLOCK
  2
*D1408
  3
*D
 10
0.0
 20
0.0
 70
65
  0
LINE
  8
1
  6
CONTINUOUS
 62
4
 10
1.5499579E+002
 20
2.5385524E+002
 11
1.5499579E+002
 21
2.4033525E+002
  0
LINE
  8
1
  6
CONTINUOUS
 62
4
 10
1.5199579E+002
 20
2.5102316E+002
 11
1.5199579E+002
 21
2.4033525E+002
  0
LINE
  8
1
  6
CONTINUOUS
 62
4
 10
1.6699579E+002
 20
2.4233525E+002
 11
1.5499579E+002
 21
2.4233525E+002
  0
LINE
  8
1
  6
CONTINUOUS
 62
4
 10
1.5199579E+002
 20
2.4233525E+002
 11
1.3605245E+002
 21
2.4233525E+002
  0
TEXT
  8
1
  6
CONTINUOUS
 62
4
 10
1.3905245E+002
 20
2.4446845E+002
 40
6.4
  1
3
 41
6.6666667E-001
 50
3.6E+002
  0
INSERT
  2
_AH13
  8
1
 62
4
 10
1.5499579E+002
 20
2.4233525E+002
 41
7.0
 42
7.0
 43
7.0
 50
3.6E+002
  0
INSERT
  2
_AH13
  8
1
 62
4
 10
1.5199579E+002
 20
2.4233525E+002
 41
7.0
 42
7.0
 43
7.0
 50
5.4E+002
  0
ENDBLK
  0
BLOCK
  2
*D1420
  3
*D
 10
0.0
 20
0.0
 70
65
  0
LINE
  8
1
  6
CONTINUOUS
 62
4
 10
2.2302109E+002
 20
4.5585524E+002
 11
2.6567603E+002
 21
4.5585524E+002
  0
LINE
  8
1
  6
CONTINUOUS
 62
4
 10
2.5903402E+002
 20
3.9285524E+002
 11
2.6567603E+002
 21
3.9285524E+002
  0
LINE
  8
1
  6
CONTINUOUS
 62
4
 10
2.6367603E+002
 20
4.5585524E+002
 11
2.6367603E+002
 21
4.234115E+002
  0
LINE
  8
1
  6
CONTINUOUS
 62
4
 10
2.6367603E+002
 20
3.9285524E+002
 11
2.6367603E+002
 21
4.234115E+002
  0
TEXT
  8
1
  6
CONTINUOUS
 62
4
 10
2.6154283E+002
 20
4.1914484E+002
 40
6.4
  1
63
 41
6.6666667E-001
 50
9.0E+001
  0
INSERT
  2
_AH13
  8
1
 62
4
 10
2.6367603E+002
 20
4.5585524E+002
 41
7.0
 42
7.0
 43
7.0
 50
2.7E+002
  0
INSERT
  2
_AH13
  8
1
 62
4
 10
2.6367603E+002
 20
3.9285524E+002
 41
7.0
 42
7.0
 43
7.0
 50
4.5E+002
  0
ENDBLK
  0
BLOCK
  2
*D1429
  3
*D
 10
0.0
 20
0.0
 70
65
  0
LINE
  8
1
  6
CONTINUOUS
 62
4
 10
1.6076349E+002
 20
4.7786276E+002
 11
2.7632995E+002
 21
4.7786276E+002
  0
LINE
  8
1
  6
CONTINUOUS
 62
4
 10
2.6568276E+002
 20
3.9284221E+002
 11
2.7632995E+002
 21
3.9284221E+002
  0
LINE
  8
1
  6
CONTINUOUS
 62
4
 10
2.7432995E+002
 20
4.7786276E+002
 11
2.7432995E+002
 21
4.3157316E+002
  0
LINE
  8
1
  6
CONTINUOUS
 62
4
 10
2.7432995E+002
 20
3.9284221E+002
 11
2.7432995E+002
 21
4.3157316E+002
  0
TEXT
  8
1
  6
CONTINUOUS
 62
4
 10
2.7219675E+002
 20
4.2730649E+002
 40
6.4
  1
85
 41
6.6666667E-001
 50
9.0E+001
  0
INSERT
  2
_AH13
  8
1
 62
4
 10
2.7432995E+002
 20
4.7786276E+002
 41
7.0
 42
7.0
 43
7.0
 50
2.7E+002
  0
INSERT
  2
_AH13
  8
1
 62
4
 10
2.7432995E+002
 20
3.9284221E+002
 41
7.0
 42
7.0
 43
7.0
 50
4.5E+002
  0
ENDBLK
  0
BLOCK
  2
*D1438
  3
*D
 10
0.0
 20
0.0
 70
65
  0
LINE
  8
1
  6
CONTINUOUS
 62
4
 10
1.5699579E+002
 20
4.9086276E+002
 11
1.5861041E+002
 21
4.9086276E+002
  0
LINE
  8
1
  6
CONTINUOUS
 62
4
 10
1.7228779E+002
 20
4.9086276E+002
 11
2.8707603E+002
 21
4.9086276E+002
  0
LINE
  8
1
  6
CONTINUOUS
 62
4
 10
2.7637248E+002
 20
3.9285524E+002
 11
2.8707603E+002
 21
3.9285524E+002
  0
LINE
  8
1
  6
CONTINUOUS
 62
4
 10
2.8507603E+002
 20
4.9086276E+002
 11
2.8507603E+002
 21
4.409115E+002
  0
LINE
  8
1
  6
CONTINUOUS
 62
4
 10
2.8507603E+002
 20
3.9285524E+002
 11
2.8507603E+002
 21
4.409115E+002
  0
TEXT
  8
1
  6
CONTINUOUS
 62
4
 10
2.8294283E+002
 20
4.3664484E+002
 40
6.4
  1
98
 41
6.6666667E-001
 50
9.0E+001
  0
INSERT
  2
_AH13
  8
1
 62
4
 10
2.8507603E+002
 20
4.9086276E+002
 41
7.0
 42
7.0
 43
7.0
 50
2.7E+002
  0
INSERT
  2
_AH13
  8
1
 62
4
 10
2.8507603E+002
 20
3.9285524E+002
 41
7.0
 42
7.0
 43
7.0
 50
4.5E+002
  0
ENDBLK
  0
BLOCK
  2
*D1448
  3
*D
 10
0.0
 20
0.0
 70
65
  0
LINE
  8
1
  6
CONTINUOUS
 62
4
 10
1.8599579E+002
 20
3.9685524E+002
 11
1.7557954E+002
 21
3.9685524E+002
  0
LINE
  8
1
  6
CONTINUOUS
 62
4
 10
1.8599579E+002
 20
3.8885524E+002
 11
1.7557954E+002
 21
3.8885524E+002
  0
LINE
  8
1
  6
CONTINUOUS
 62
4
 10
1.7757954E+002
 20
4.0885524E+002
 11
1.7757954E+002
 21
3.9685524E+002
  0
LINE
  8
1
  6
CONTINUOUS
 62
4
 10
1.7757954E+002
 20
3.8885524E+002
 11
1.7757954E+002
 21
3.7369576E+002
  0
TEXT
  8
1
  6
CONTINUOUS
 62
4
 10
1.7544634E+002
 20
3.7669576E+002
 40
6.4
  1
8
 41
6.6666667E-001
 50
9.0E+001
  0
INSERT
  2
_AH13
  8
1
 62
4
 10
1.7757954E+002
 20
3.9685524E+002
 41
7.0
 42
7.0
 43
7.0
 50
4.5E+002
  0
INSERT
  2
_AH13
  8
1
 62
4
 10
1.7757954E+002
 20
3.8885524E+002
 41
7.0
 42
7.0
 43
7.0
 50
6.3E+002
  0
ENDBLK
  0
BLOCK
  2
*D1472
  3
*D
 10
0.0
 20
0.0
 70
65
  0
LINE
  8
1
  6
CONTINUOUS
 62
4
 10
1.1599579E+002
 20
3.5770524E+002
 11
1.1599541E+002
 21
3.5770524E+002
  0
LINE
  8
1
  6
CONTINUOUS
 62
4
 10
1.8199579E+002
 20
3.9285524E+002
 11
1.1599541E+002
 21
3.9285524E+002
  0
LINE
  8
1
  6
CONTINUOUS
 62
4
 10
1.1799541E+002
 20
3.5770524E+002
 11
1.1799541E+002
 21
3.7414999E+002
  0
LINE
  8
1
  6
CONTINUOUS
 62
4
 10
1.1799541E+002
 20
3.9285524E+002
 11
1.1799541E+002
 21
3.7414999E+002
  0
TEXT
  8
1
  6
CONTINUOUS
 62
4
 10
1.1586221E+002
 20
3.6988333E+002
 40
6.4
  1
35
 41
6.6666667E-001
 50
9.0E+001
  0
INSERT
  2
_AH13
  8
1
 62
4
 10
1.1799541E+002
 20
3.5770524E+002
 41
7.0
 42
7.0
 43
7.0
 50
9.0E+001
  0
INSERT
  2
_AH13
  8
1
 62
4
 10
1.1799541E+002
 20
3.9285524E+002
 41
7.0
 42
7.0
 43
7.0
 50
2.7E+002
  0
ENDBLK
  0
BLOCK
  2
*D1487
  3
*D
 10
0.0
 20
0.0
 70
65
  0
LINE
  8
1
  6
CONTINUOUS
 62
4
 10
1.4637122E+002
 20
2.6876439E+002
 11
1.0430166E+002
 21
2.6876439E+002
  0
LINE
  8
1
  6
CONTINUOUS
 62
4
 10
1.4609457E+002
 20
4.7786276E+002
 11
1.4235074E+002
 21
4.7786276E+002
  0
LINE
  8
1
  6
CONTINUOUS
 62
4
 10
1.1234545E+002
 20
4.7786276E+002
 11
1.0430166E+002
 21
4.7786276E+002
  0
LINE
  8
1
  6
CONTINUOUS
 62
4
 10
1.0630166E+002
 20
2.6876439E+002
 11
1.0630166E+002
 21
3.6114345E+002
  0
LINE
  8
1
  6
CONTINUOUS
 62
4
 10
1.0630166E+002
 20
4.7786276E+002
 11
1.0630166E+002
 21
3.6114345E+002
  0
TEXT
  8
1
  6
CONTINUOUS
 62
4
 10
1.0416846E+002
 20
3.5474345E+002
 40
6.4
  1
209
 41
6.6666667E-001
 50
9.0E+001
  0
INSERT
  2
_AH13
  8
1
 62
4
 10
1.0630166E+002
 20
2.6876439E+002
 41
7.0
 42
7.0
 43
7.0
 50
9.0E+001
  0
INSERT
  2
_AH13
  8
1
 62
4
 10
1.0630166E+002
 20
4.7786276E+002
 41
7.0
 42
7.0
 43
7.0
 50
2.7E+002
  0
ENDBLK
  0
BLOCK
  2
*D1505
  3
*D
 10
0.0
 20
0.0
 70
65
  0
LINE
  8
1
  6
CONTINUOUS
 62
4
 10
2.2599579E+002
 20
3.9885524E+002
 11
2.2599579E+002
 21
4.227697E+002
  0
LINE
  8
1
  6
CONTINUOUS
 62
4
 10
1.8799579E+002
 20
3.9885524E+002
 11
1.8799579E+002
 21
4.227697E+002
  0
LINE
  8
1
  6
CONTINUOUS
 62
4
 10
2.2599579E+002
 20
4.207697E+002
 11
2.0756935E+002
 21
4.207697E+002
  0
LINE
  8
1
  6
CONTINUOUS
 62
4
 10
1.8799579E+002
 20
4.207697E+002
 11
2.0756935E+002
 21
4.207697E+002
  0
TEXT
  8
1
  6
CONTINUOUS
 62
4
 10
2.0330269E+002
 20
4.229029E+002
 40
6.4
  1
38
 41
6.6666667E-001
 50
3.6E+002
  0
INSERT
  2
_AH13
  8
1
 62
4
 10
2.2599579E+002
 20
4.207697E+002
 41
7.0
 42
7.0
 43
7.0
 50
1.8E+002
  0
INSERT
  2
_AH13
  8
1
 62
4
 10
1.8799579E+002
 20
4.207697E+002
 41
7.0
 42
7.0
 43
7.0
 50
3.6E+002
  0
ENDBLK
  0
BLOCK
  2
*D1515
  3
*D
 10
0.0
 20
0.0
 70
65
  0
LINE
  8
1
  6
CONTINUOUS
 62
4
 10
1.5595405E+002
 20
4.7511276E+002
 11
1.700417E+002
 21
4.7511276E+002
  0
LINE
  8
1
  6
CONTINUOUS
 62
4
 10
1.5595405E+002
 20
4.8061276E+002
 11
1.700417E+002
 21
4.8061276E+002
  0
LINE
  8
1
  6
CONTINUOUS
 62
4
 10
1.680417E+002
 20
4.6311276E+002
 11
1.680417E+002
 21
4.7511276E+002
  0
LINE
  8
1
  6
CONTINUOUS
 62
4
 10
1.680417E+002
 20
4.8061276E+002
 11
1.680417E+002
 21
5.0939357E+002
  0
TEXT
  8
1
  6
CONTINUOUS
 62
4
 10
1.659085E+002
 20
4.893269E+002
 40
6.4
  1
%%c5,5
 41
6.6666667E-001
 50
9.0E+001
  0
INSERT
  2
_AH13
  8
1
 62
4
 10
1.680417E+002
 20
4.7511276E+002
 41
7.0
 42
7.0
 43
7.0
 50
2.7E+002
  0
INSERT
  2
_AH13
  8
1
 62
4
 10
1.680417E+002
 20
4.8061276E+002
 41
7.0
 42
7.0
 43
7.0
 50
4.5E+002
  0
ENDBLK
  0
BLOCK
  2
*D1517
  3
*D
 10
0.0
 20
0.0
 70
65
  0
LINE
  8
1
  6
CONTINUOUS
 62
4
 10
3.3858723E+002
 20
3.5780524E+002
 11
3.3858723E+002
 21
3.6974212E+002
  0
LINE
  8
1
  6
CONTINUOUS
 62
4
 10
3.4658723E+002
 20
3.5780524E+002
 11
3.4658723E+002
 21
3.6974212E+002
  0
LINE
  8
1
  6
CONTINUOUS
 62
4
 10
3.2258723E+002
 20
3.6674212E+002
 11
3.3858723E+002
 21
3.6674212E+002
  0
LINE
  8
1
  6
CONTINUOUS
 62
4
 10
3.6258723E+002
 20
3.6674212E+002
 11
3.3858723E+002
 21
3.6674212E+002
  0
TEXT
  8
1
  6
CONTINUOUS
 62
4
 10
3.4002723E+002
 20
3.6974412E+002
 40
6.4
  1
8
 41
8.0E-001
  0
INSERT
  2
_AH13
  8
1
 62
4
 10
3.3858723E+002
 20
3.6674212E+002
 41
8.0
 42
8.0
 43
8.0
 50
1.8E+002
  0
INSERT
  2
_AH13
  8
1
 62
4
 10
3.4658723E+002
 20
3.6674212E+002
 41
8.0
 42
8.0
 43
8.0
 50
3.6E+002
  0
ENDBLK
  0
BLOCK
  2
*D1527
  3
*D
 10
0.0
 20
0.0
 70
65
  0
LINE
  8
1
  6
CONTINUOUS
 62
4
 10
1.4999579E+002
 20
4.7386276E+002
 11
1.4421922E+002
 21
4.7386276E+002
  0
LINE
  8
1
  6
CONTINUOUS
 62
4
 10
1.2818228E+002
 20
4.7386276E+002
 11
1.2429885E+002
 21
4.7386276E+002
  0
LINE
  8
1
  6
CONTINUOUS
 62
4
 10
1.4999579E+002
 20
4.817552E+002
 11
1.4376102E+002
 21
4.817552E+002
  0
LINE
  8
1
  6
CONTINUOUS
 62
4
 10
1.283541E+002
 20
4.817552E+002
 11
1.2429885E+002
 21
4.817552E+002
  0
LINE
  8
1
  6
CONTINUOUS
 62
4
 10
1.2629885E+002
 20
4.6186276E+002
 11
1.2629885E+002
 21
4.7386276E+002
  0
LINE
  8
1
  6
CONTINUOUS
 62
4
 10
1.2629885E+002
 20
4.937552E+002
 11
1.2629885E+002
 21
4.7386276E+002
  0
TEXT
  8
1
  6
CONTINUOUS
 62
4
 10
1.2416565E+002
 20
4.7354231E+002
 40
6.4
  1
%%c8
 41
6.6666667E-001
 50
9.0E+001
  0
INSERT
  2
_AH13
  8
1
 62
4
 10
1.2629885E+002
 20
4.7386276E+002
 41
7.0
 42
7.0
 43
7.0
 50
2.7E+002
  0
INSERT
  2
_AH13
  8
1
 62
4
 10
1.2629885E+002
 20
4.817552E+002
 41
7.0
 42
7.0
 43
7.0
 50
4.5E+002
  0
ENDBLK
  0
BLOCK
  2
*D1546
  3
*D
 10
0.0
 20
0.0
 70
65
  0
LINE
  8
1
  6
CONTINUOUS
 62
4
 10
1.9199579E+002
 20
3.1135524E+002
 11
1.9199579E+002
 21
2.9575135E+002
  0
LINE
  8
1
  6
CONTINUOUS
 62
4
 10
1.8399579E+002
 20
3.1135524E+002
 11
1.8399579E+002
 21
2.9575135E+002
  0
LINE
  8
1
  6
CONTINUOUS
 62
4
 10
2.0399579E+002
 20
2.9775135E+002
 11
1.9199579E+002
 21
2.9775135E+002
  0
LINE
  8
1
  6
CONTINUOUS
 62
4
 10
1.8399579E+002
 20
2.9775135E+002
 11
1.6856327E+002
 21
2.9775135E+002
  0
TEXT
  8
1
  6
CONTINUOUS
 62
4
 10
1.7156327E+002
 20
2.9988455E+002
 40
6.4
  1
8
 41
6.6666667E-001
 50
3.6E+002
  0
INSERT
  2
_AH13
  8
1
 62
4
 10
1.9199579E+002
 20
2.9775135E+002
 41
7.0
 42
7.0
 43
7.0
 50
3.6E+002
  0
INSERT
  2
_AH13
  8
1
 62
4
 10
1.8399579E+002
 20
2.9775135E+002
 41
7.0
 42
7.0
 43
7.0
 50
5.4E+002
  0
ENDBLK
  0
BLOCK
  2
*D1558
  3
*D
 10
0.0
 20
0.0
 70
65
  0
LINE
  8
1
  6
CONTINUOUS
 62
4
 10
1.8002632E+002
 20
3.1235668E+002
 11
1.6706808E+002
 21
3.1235668E+002
  0
LINE
  8
1
  6
CONTINUOUS
 62
4
 10
1.7976158E+002
 20
3.1335397E+002
 11
1.6706808E+002
 21
3.1335397E+002
  0
LINE
  8
1
  6
CONTINUOUS
 62
4
 10
1.6906808E+002
 20
3.0035668E+002
 11
1.6906808E+002
 21
3.1235668E+002
  0
LINE
  8
1
  6
CONTINUOUS
 62
4
 10
1.6906808E+002
 20
3.1335397E+002
 11
1.6906808E+002
 21
3.3001589E+002
  0
TEXT
  8
1
  6
CONTINUOUS
 62
4
 10
1.6693488E+002
 20
3.2274922E+002
 40
6.4
  1
1
 41
6.6666667E-001
 50
9.0E+001
  0
INSERT
  2
_AH13
  8
1
 62
4
 10
1.6906808E+002
 20
3.1235668E+002
 41
7.0
 42
7.0
 43
7.0
 50
2.7E+002
  0
INSERT
  2
_AH13
  8
1
 62
4
 10
1.6906808E+002
 20
3.1335397E+002
 41
7.0
 42
7.0
 43
7.0
 50
4.5E+002
  0
ENDBLK
  0
BLOCK
  2
*D1990
  3
*D
 10
0.0
 20
0.0
 70
65
  0
LINE
  8
100
  6
CONTINUOUS
 62
4
 10
-8.6001621
 20
0.0
 11
-8.6001621
 21
1.9926E+001
  0
LINE
  8
100
  6
CONTINUOUS
 62
4
 10
8.6001621
 20
0.0
 11
8.6001621
 21
1.9926E+001
  0
LINE
  8
100
  6
CONTINUOUS
 62
4
 10
-8.6001621
 20
1.7676E+001
 11
-4.204213E-001
 21
1.7676E+001
  0
LINE
  8
100
  6
CONTINUOUS
 62
4
 10
8.6001621
 20
1.7676E+001
 11
-4.204213E-001
 21
1.7676E+001
  0
TEXT
  8
100
  6
CONTINUOUS
 62
4
 10
-8.1004213
 20
1.99275E+001
 40
4.8
  1
17,2
 41
8.0E-001
  0
INSERT
  2
_AH13
  8
100
 62
4
 10
-8.6001621
 20
1.7676E+001
 41
6.0
 42
6.0
 43
6.0
 50
0.0
  0
INSERT
  2
_AH13
  8
100
 62
4
 10
8.6001621
 20
1.7676E+001
 41
6.0
 42
6.0
 43
6.0
 50
1.8E+002
  0
ENDBLK
  0
BLOCK
  2
*D1992
  3
*D
 10
0.0
 20
0.0
 70
65
  0
LINE
  8
100
  6
CONTINUOUS
 62
4
 10
0.0
 20
8.6001621
 11
2.9741735E+001
 21
8.6001621
  0
LINE
  8
100
  6
CONTINUOUS
 62
4
 10
3.0E-007
 20
-2.5100472E+001
 11
2.9741735E+001
 21
-2.5100472E+001
  0
LINE
  8
100
  6
CONTINUOUS
 62
4
 10
2.7491735E+001
 20
8.6001621
 11
2.7491735E+001
 21
-8.254691
  0
LINE
  8
100
  6
CONTINUOUS
 62
4
 10
2.7491735E+001
 20
-2.5100472E+001
 11
2.7491735E+001
 21
-8.254691
  0
TEXT
  8
100
  6
CONTINUOUS
 62
4
 10
2.5240235E+001
 20
-1.5934691E+001
 40
4.8
  1
33,7
 41
8.0E-001
 50
9.0E+001
  0
INSERT
  2
_AH13
  8
100
 62
4
 10
2.7491735E+001
 20
8.6001621
 41
6.0
 42
6.0
 43
6.0
 50
2.7E+002
  0
INSERT
  2
_AH13
  8
100
 62
4
 10
2.7491735E+001
 20
-2.5100472E+001
 41
6.0
 42
6.0
 43
6.0
 50
4.5E+002
  0
ENDBLK
  0
BLOCK
  2
*D1993
  3
*D
 10
0.0
 20
0.0
 70
65
  0
LINE
  8
100
  6
CONTINUOUS
 62
4
 10
-4.5143278E+001
 20
-1.4357841E+001
 11
-5.0008066E+001
 21
-9.4930528
  0
LINE
  8
100
  6
CONTINUOUS
 62
4
 10
-4.5087954E+001
 20
-2.4587569E+001
 11
-5.0008067E+001
 21
-2.9507681E+001
  0
ARC
  8
100
  6
CONTINUOUS
 62
4
 10
-4.0000752E+001
 20
-1.9500368E+001
 40
1.265248E+001
 50
1.35E+002
 51
1.8E+002
  0
ARC
  8
100
  6
CONTINUOUS
 62
4
 10
-4.0000752E+001
 20
-1.9500368E+001
 40
1.265248E+001
 50
1.8E+002
 51
2.25E+002
  0
TEXT
  8
100
  6
CONTINUOUS
 62
4
 10
-5.4019014E+001
 20
-2.4300367E+001
 40
4.8
  1
90%%d
 41
6.6666667E-001
 50
8.9999997E+001
  0
INSERT
  2
_AH13
  8
100
 62
4
 10
-4.8947406E+001
 20
-1.0553713E+001
 41
5.25
 42
5.25
 43
5.25
 50
2.3697408E+002
  0
INSERT
  2
_AH13
  8
100
 62
4
 10
-4.8947407E+001
 20
-2.8447021E+001
 41
5.25
 42
5.25
 43
5.25
 50
1.2302591E+002
  0
ENDBLK
  0
BLOCK
  2
*D1994
  3
*D
 10
0.0
 20
0.0
 70
65
  0
LINE
  8
100
  6
CONTINUOUS
 62
4
 10
-4.5138641E+001
 20
-1.4500274E+001
 11
-4.8946681E+001
 21
-1.4500274E+001
  0
LINE
  8
100
  6
CONTINUOUS
 62
4
 10
-5.9674731E+001
 20
-1.4500274E+001
 11
-6.2927383E+001
 21
-1.4500274E+001
  0
LINE
  8
100
  6
CONTINUOUS
 62
4
 10
-4.5329953E+001
 20
-2.4500462E+001
 11
-4.9041202E+001
 21
-2.4500462E+001
  0
LINE
  8
100
  6
CONTINUOUS
 62
4
 10
-5.9911031E+001
 20
-2.4500462E+001
 11
-6.2927383E+001
 21
-2.4500462E+001
  0
LINE
  8
100
  6
CONTINUOUS
 62
4
 10
-6.1427383E+001
 20
-5.5002735
 11
-6.1427383E+001
 21
-1.4500274E+001
  0
LINE
  8
100
  6
CONTINUOUS
 62
4
 10
-6.1427383E+001
 20
-3.3500462E+001
 11
-6.1427383E+001
 21
-1.4500274E+001
  0
TEXT
  8
100
  6
CONTINUOUS
 62
4
 10
-6.2794665E+001
 20
-2.3601815E+001
 40
4.1014475
  1
%%c10
 41
6.6666667E-001
 50
9.0E+001
  0
INSERT
  2
_AH13
  8
100
 62
4
 10
-6.1427383E+001
 20
-1.4500274E+001
 41
5.25
 42
5.25
 43
5.25
 50
4.5E+002
  0
INSERT
  2
_AH13
  8
100
 62
4
 10
-6.1427383E+001
 20
-2.4500462E+001
 41
5.25
 42
5.25
 43
5.25
 50
6.3E+002
  0
ENDBLK
  0
BLOCK
  2
*D2062
  3
*D
 10
0.0
 20
0.0
 70
65
  0
LINE
  8
100
  6
CONTINUOUS
 62
4
 10
-8.6001621
 20
0.0
 11
-8.6001621
 21
1.9926E+001
  0
LINE
  8
100
  6
CONTINUOUS
 62
4
 10
8.6001621
 20
0.0
 11
8.6001621
 21
1.9926E+001
  0
LINE
  8
100
  6
CONTINUOUS
 62
4
 10
-8.6001621
 20
1.7676E+001
 11
-4.204213E-001
 21
1.7676E+001
  0
LINE
  8
100
  6
CONTINUOUS
 62
4
 10
8.6001621
 20
1.7676E+001
 11
-4.204213E-001
 21
1.7676E+001
  0
TEXT
  8
100
  6
CONTINUOUS
 62
4
 10
-8.1004213
 20
1.99275E+001
 40
4.8
  1
17,2
 41
8.0E-001
  0
INSERT
  2
_AH13
  8
100
 62
4
 10
-8.6001621
 20
1.7676E+001
 41
6.0
 42
6.0
 43
6.0
 50
0.0
  0
INSERT
  2
_AH13
  8
100
 62
4
 10
8.6001621
 20
1.7676E+001
 41
6.0
 42
6.0
 43
6.0
 50
1.8E+002
  0
ENDBLK
  0
BLOCK
  2
*D2064
  3
*D
 10
0.0
 20
0.0
 70
65
  0
LINE
  8
100
  6
CONTINUOUS
 62
4
 10
0.0
 20
8.6001621
 11
2.9741735E+001
 21
8.6001621
  0
LINE
  8
100
  6
CONTINUOUS
 62
4
 10
3.0E-007
 20
-2.5100472E+001
 11
2.9741735E+001
 21
-2.5100472E+001
  0
LINE
  8
100
  6
CONTINUOUS
 62
4
 10
2.7491735E+001
 20
8.6001621
 11
2.7491735E+001
 21
-8.254691
  0
LINE
  8
100
  6
CONTINUOUS
 62
4
 10
2.7491735E+001
 20
-2.5100472E+001
 11
2.7491735E+001
 21
-8.254691
  0
TEXT
  8
100
  6
CONTINUOUS
 62
4
 10
2.5240235E+001
 20
-1.5934691E+001
 40
4.8
  1
33,7
 41
8.0E-001
 50
9.0E+001
  0
INSERT
  2
_AH13
  8
100
 62
4
 10
2.7491735E+001
 20
8.6001621
 41
6.0
 42
6.0
 43
6.0
 50
2.7E+002
  0
INSERT
  2
_AH13
  8
100
 62
4
 10
2.7491735E+001
 20
-2.5100472E+001
 41
6.0
 42
6.0
 43
6.0
 50
4.5E+002
  0
ENDBLK
  0
BLOCK
  2
*D2065
  3
*D
 10
0.0
 20
0.0
 70
65
  0
LINE
  8
100
  6
CONTINUOUS
 62
4
 10
-4.5143278E+001
 20
-1.4357841E+001
 11
-5.0008066E+001
 21
-9.4930528
  0
LINE
  8
100
  6
CONTINUOUS
 62
4
 10
-4.5087954E+001
 20
-2.4587569E+001
 11
-5.0008067E+001
 21
-2.9507681E+001
  0
ARC
  8
100
  6
CONTINUOUS
 62
4
 10
-4.0000752E+001
 20
-1.9500368E+001
 40
1.265248E+001
 50
1.35E+002
 51
1.8E+002
  0
ARC
  8
100
  6
CONTINUOUS
 62
4
 10
-4.0000752E+001
 20
-1.9500368E+001
 40
1.265248E+001
 50
1.8E+002
 51
2.25E+002
  0
TEXT
  8
100
  6
CONTINUOUS
 62
4
 10
-5.4019014E+001
 20
-2.4300367E+001
 40
4.8
  1
90%%d
 41
6.6666667E-001
 50
8.9999997E+001
  0
INSERT
  2
_AH13
  8
100
 62
4
 10
-4.8947406E+001
 20
-1.0553713E+001
 41
5.25
 42
5.25
 43
5.25
 50
2.3697408E+002
  0
INSERT
  2
_AH13
  8
100
 62
4
 10
-4.8947407E+001
 20
-2.8447021E+001
 41
5.25
 42
5.25
 43
5.25
 50
1.2302591E+002
  0
ENDBLK
  0
BLOCK
  2
*D2066
  3
*D
 10
0.0
 20
0.0
 70
65
  0
LINE
  8
100
  6
CONTINUOUS
 62
4
 10
-4.5138641E+001
 20
-1.4500274E+001
 11
-4.8946681E+001
 21
-1.4500274E+001
  0
LINE
  8
100
  6
CONTINUOUS
 62
4
 10
-5.9674731E+001
 20
-1.4500274E+001
 11
-6.2927383E+001
 21
-1.4500274E+001
  0
LINE
  8
100
  6
CONTINUOUS
 62
4
 10
-4.5329953E+001
 20
-2.4500462E+001
 11
-4.9041202E+001
 21
-2.4500462E+001
  0
LINE
  8
100
  6
CONTINUOUS
 62
4
 10
-5.9911031E+001
 20
-2.4500462E+001
 11
-6.2927383E+001
 21
-2.4500462E+001
  0
LINE
  8
100
  6
CONTINUOUS
 62
4
 10
-6.1427383E+001
 20
-5.5002735
 11
-6.1427383E+001
 21
-1.4500274E+001
  0
LINE
  8
100
  6
CONTINUOUS
 62
4
 10
-6.1427383E+001
 20
-3.3500462E+001
 11
-6.1427383E+001
 21
-1.4500274E+001
  0
TEXT
  8
100
  6
CONTINUOUS
 62
4
 10
-6.2794665E+001
 20
-2.3601815E+001
 40
4.1014475
  1
%%c10
 41
6.6666667E-001
 50
9.0E+001
  0
INSERT
  2
_AH13
  8
100
 62
4
 10
-6.1427383E+001
 20
-1.4500274E+001
 41
5.25
 42
5.25
 43
5.25
 50
4.5E+002
  0
INSERT
  2
_AH13
  8
100
 62
4
 10
-6.1427383E+001
 20
-2.4500462E+001
 41
5.25
 42
5.25
 43
5.25
 50
6.3E+002
  0
ENDBLK
  0
BLOCK
  2
*D2213
  3
*D
 10
0.0
 20
0.0
 70
65
  0
LINE
  8
1
  6
CONTINUOUS
 62
4
 10
1.9839563E+002
 20
3.2085524E+002
 11
1.9839563E+002
 21
3.3998074E+002
  0
LINE
  8
1
  6
CONTINUOUS
 62
4
 10
2.1559595E+002
 20
3.2085524E+002
 11
2.1559595E+002
 21
3.3998074E+002
  0
LINE
  8
1
  6
CONTINUOUS
 62
4
 10
1.9839563E+002
 20
3.3773074E+002
 11
2.0657537E+002
 21
3.3773074E+002
  0
LINE
  8
1
  6
CONTINUOUS
 62
4
 10
2.1559595E+002
 20
3.3773074E+002
 11
2.0657537E+002
 21
3.3773074E+002
  0
TEXT
  8
1
  6
CONTINUOUS
 62
4
 10
1.9633537E+002
 20
3.3998274E+002
 40
6.4
  1
17,2
 41
8.0E-001
  0
INSERT
  2
_AH13
  8
1
 62
4
 10
1.9839563E+002
 20
3.3773074E+002
 41
6.0
 42
6.0
 43
6.0
 50
0.0
  0
INSERT
  2
_AH13
  8
1
 62
4
 10
2.1559595E+002
 20
3.3773074E+002
 41
6.0
 42
6.0
 43
6.0
 50
1.8E+002
  0
ENDBLK
  0
BLOCK
  2
*D2215
  3
*D
 10
0.0
 20
0.0
 70
65
  0
LINE
  8
1
  6
CONTINUOUS
 62
4
 10
2.0699579E+002
 20
3.294554E+002
 11
2.5609048E+002
 21
3.294554E+002
  0
LINE
  8
1
  6
CONTINUOUS
 62
4
 10
2.0699579E+002
 20
2.9575476E+002
 11
2.5609048E+002
 21
2.9575476E+002
  0
LINE
  8
1
  6
CONTINUOUS
 62
4
 10
2.5384048E+002
 20
3.294554E+002
 11
2.5384048E+002
 21
3.1060244E+002
  0
LINE
  8
1
  6
CONTINUOUS
 62
4
 10
2.5384048E+002
 20
2.9575476E+002
 11
2.5384048E+002
 21
3.1060244E+002
  0
TEXT
  8
1
  6
CONTINUOUS
 62
4
 10
2.5158848E+002
 20
3.0036244E+002
 40
6.4
  1
33,7
 41
8.0E-001
 50
9.0E+001
  0
INSERT
  2
_AH13
  8
1
 62
4
 10
2.5384048E+002
 20
3.294554E+002
 41
6.0
 42
6.0
 43
6.0
 50
2.7E+002
  0
INSERT
  2
_AH13
  8
1
 62
4
 10
2.5384048E+002
 20
2.9575476E+002
 41
6.0
 42
6.0
 43
6.0
 50
4.5E+002
  0
ENDBLK
  0
BLOCK
  2
*D2216
  3
*D
 10
0.0
 20
0.0
 70
65
  0
LINE
  8
1
  6
CONTINUOUS
 62
4
 10
1.518823E+002
 20
3.0649739E+002
 11
1.475832E+002
 21
3.107965E+002
  0
LINE
  8
1
  6
CONTINUOUS
 62
4
 10
1.5193762E+002
 20
2.9626767E+002
 11
1.4758319E+002
 21
2.9191324E+002
  0
ARC
  8
1
  6
CONTINUOUS
 62
4
 10
1.5702482E+002
 20
3.0135487E+002
 40
1.185248E+001
 50
1.35E+002
 51
1.8E+002
  0
ARC
  8
1
  6
CONTINUOUS
 62
4
 10
1.5702482E+002
 20
3.0135487E+002
 40
1.185248E+001
 50
1.8E+002
 51
2.25E+002
  0
TEXT
  8
1
  6
CONTINUOUS
 62
4
 10
1.4380656E+002
 20
2.9495487E+002
 40
6.4
  1
90%%d
 41
6.6666667E-001
 50
8.9999997E+001
  0
INSERT
  2
_AH13
  8
1
 62
4
 10
1.4864386E+002
 20
3.0973584E+002
 41
5.25
 42
5.25
 43
5.25
 50
2.3779554E+002
  0
INSERT
  2
_AH13
  8
1
 62
4
 10
1.4864385E+002
 20
2.929739E+002
 41
5.25
 42
5.25
 43
5.25
 50
1.2220445E+002
  0
ENDBLK
  0
BLOCK
  2
*D2217
  3
*D
 10
0.0
 20
0.0
 70
65
  0
LINE
  8
1
  6
CONTINUOUS
 62
4
 10
1.5188693E+002
 20
3.0635496E+002
 11
1.4807889E+002
 21
3.0635496E+002
  0
LINE
  8
1
  6
CONTINUOUS
 62
4
 10
1.3735085E+002
 20
3.0635496E+002
 11
1.3302875E+002
 21
3.0635496E+002
  0
LINE
  8
1
  6
CONTINUOUS
 62
4
 10
1.5169562E+002
 20
2.9635477E+002
 11
1.4798437E+002
 21
2.9635477E+002
  0
LINE
  8
1
  6
CONTINUOUS
 62
4
 10
1.3711455E+002
 20
2.9635477E+002
 11
1.3302875E+002
 21
2.9635477E+002
  0
LINE
  8
1
  6
CONTINUOUS
 62
4
 10
1.3452875E+002
 20
3.1535496E+002
 11
1.3452875E+002
 21
3.0635496E+002
  0
LINE
  8
1
  6
CONTINUOUS
 62
4
 10
1.3452875E+002
 20
2.8735477E+002
 11
1.3452875E+002
 21
3.0635496E+002
  0
TEXT
  8
1
  6
CONTINUOUS
 62
4
 10
1.3316096E+002
 20
2.9495487E+002
 40
6.4
  1
%%c10
 41
6.6666667E-001
 50
9.0E+001
  0
INSERT
  2
_AH13
  8
1
 62
4
 10
1.3452875E+002
 20
3.0635496E+002
 41
5.25
 42
5.25
 43
5.25
 50
4.5E+002
  0
INSERT
  2
_AH13
  8
1
 62
4
 10
1.3452875E+002
 20
2.9635477E+002
 41
5.25
 42
5.25
 43
5.25
 50
6.3E+002
  0
ENDBLK
  0
BLOCK
  2
*D2271
  3
*D
 10
0.0
 20
0.0
 70
65
  0
LINE
  8
1
  6
CONTINUOUS
 62
4
 10
2.0189569E+002
 20
3.0085486E+002
 11
2.0189569E+002
 21
2.6879269E+002
  0
LINE
  8
1
  6
CONTINUOUS
 62
4
 10
2.1209588E+002
 20
3.0085486E+002
 11
2.1209588E+002
 21
2.6879269E+002
  0
LINE
  8
1
  6
CONTINUOUS
 62
4
 10
1.8589569E+002
 20
2.7179269E+002
 11
2.1209588E+002
 21
2.7179269E+002
  0
LINE
  8
1
  6
CONTINUOUS
 62
4
 10
2.1209588E+002
 20
2.7179269E+002
 11
2.3592935E+002
 21
2.7179269E+002
  0
TEXT
  8
1
  6
CONTINUOUS
 62
4
 10
2.1244935E+002
 20
2.7479469E+002
 40
6.4
  1
10,2
 41
8.0E-001
  0
INSERT
  2
_AH13
  8
1
 62
4
 10
2.0189569E+002
 20
2.7179269E+002
 41
8.0
 42
8.0
 43
8.0
 50
1.8E+002
  0
INSERT
  2
_AH13
  8
1
 62
4
 10
2.1209588E+002
 20
2.7179269E+002
 41
8.0
 42
8.0
 43
8.0
 50
3.6E+002
  0
ENDBLK
  0
BLOCK
  2
*D2397
  3
*D
 10
0.0
 20
0.0
 70
65
  0
LINE
  8
1
  6
CONTINUOUS
 62
4
 10
1.3199579E+002
 20
3.5717091E+002
 11
1.3199579E+002
 21
3.7114717E+002
  0
LINE
  8
1
  6
CONTINUOUS
 62
4
 10
1.5199579E+002
 20
3.5770524E+002
 11
1.5199579E+002
 21
3.7114717E+002
  0
LINE
  8
1
  6
CONTINUOUS
 62
4
 10
1.3199579E+002
 20
3.6814717E+002
 11
1.4199579E+002
 21
3.6814717E+002
  0
LINE
  8
1
  6
CONTINUOUS
 62
4
 10
1.5199579E+002
 20
3.6814717E+002
 11
1.4199579E+002
 21
3.6814717E+002
  0
TEXT
  8
1
  6
CONTINUOUS
 62
4
 10
1.3687579E+002
 20
3.7114917E+002
 40
6.4
  1
20
 41
8.0E-001
  0
INSERT
  2
_AH13
  8
1
 62
4
 10
1.3199579E+002
 20
3.6814717E+002
 41
8.0
 42
8.0
 43
8.0
 50
0.0
  0
INSERT
  2
_AH13
  8
1
 62
4
 10
1.5199579E+002
 20
3.6814717E+002
 41
8.0
 42
8.0
 43
8.0
 50
1.8E+002
  0
ENDBLK
  0
ENDSEC
  0
SECTION
  2
ENTITIES
  0
TEXT
  8
1
  6
CONTINUOUS
 62
1
 10
1.9248772E+001
 20
9.7564516
 40
4.9896002
  1
Techn. Änderungen vorbehalten !
 41
6.6774196E-001
 50
9.0E+001
 11
1.9248772E+001
 21
1.2251252E+001
 73
2
  0
TEXT
  8
1
  6
CONTINUOUS
 62
1
 10
2.6039139E+001
 20
1.0462625E+001
 40
3.5640001
  1
Es gelten unsere Überlassungs- und Nutzungsbedingungen
 41
6.7083333E-001
 50
9.0E+001
 11
2.6039139E+001
 21
1.2244625E+001
 73
2
  0
TEXT
  8
1
  6
CONTINUOUS
 62
1
 10
3.2049359E+001
 20
9.9477102
 40
3.5640001
  1
für DORMA - Dokumente.
 41
6.6477273E-001
 50
9.0E+001
 11
3.2049359E+001
 21
1.172971E+001
 73
2
  0
LINE
  8
1
  6
CONTINUOUS
 62
40
 10
4.1858851E+001
 20
1.2274801E+001
 11
4.1858851E+001
 21
5.805348E+002
  0
LINE
  8
1
  6
CONTINUOUS
 62
40
 10
4.1858851E+001
 20
5.805348E+002
 11
4.0815885E+002
 21
5.805348E+002
  0
LINE
  8
1
  6
CONTINUOUS
 62
40
 10
4.0815885E+002
 20
5.805348E+002
 11
4.0815885E+002
 21
1.2274801E+001
  0
INSERT
  2
*XH25
  8
1
 10
7.8780687E+001
 20
6.1059984E+001
  0
LINE
  8
1
  6
CONTINUOUS
 62
1
 10
9.4155567E+001
 20
6.0073381E+001
 11
9.5648739E+001
 21
6.0073381E+001
  0
LINE
  8
1
  6
CONTINUOUS
 62
1
 10
9.5648739E+001
 20
6.0073381E+001
 11
9.5125702E+001
 21
6.297933E+001
  0
LINE
  8
1
  6
CONTINUOUS
 62
1
 10
9.5125702E+001
 20
6.297933E+001
 11
9.4678604E+001
 21
6.297933E+001
  0
LINE
  8
1
  6
CONTINUOUS
 62
1
 10
9.4678604E+001
 20
6.297933E+001
 11
9.4155567E+001
 21
6.0073381E+001
  0
LINE
  8
1
  6
CONTINUOUS
 62
1
 10
9.0990326E+001
 20
5.7391003E+001
 11
9.2778561E+001
 21
6.4991144E+001
  0
LINE
  8
1
  6
CONTINUOUS
 62
1
 10
9.2778561E+001
 20
6.4991144E+001
 11
9.7025699E+001
 21
6.4991144E+001
  0
LINE
  8
1
  6
CONTINUOUS
 62
1
 10
9.7025699E+001
 20
6.4991144E+001
 11
9.8813979E+001
 21
5.7391003E+001
  0
LINE
  8
1
  6
CONTINUOUS
 62
1
 10
9.8813979E+001
 20
5.7391003E+001
 11
9.6131601E+001
 21
5.7391003E+001
  0
LINE
  8
1
  6
CONTINUOUS
 62
1
 10
9.6131601E+001
 20
5.7391003E+001
 11
9.5890144E+001
 21
5.8732192E+001
  0
LINE
  8
1
  6
CONTINUOUS
 62
1
 10
9.5890144E+001
 20
5.8732192E+001
 11
9.3914109E+001
 21
5.8732192E+001
  0
LINE
  8
1
  6
CONTINUOUS
 62
1
 10
9.3914109E+001
 20
5.8732192E+001
 11
9.3672704E+001
 21
5.7391003E+001
  0
LINE
  8
1
  6
CONTINUOUS
 62
1
 10
9.3672704E+001
 20
5.7391003E+001
 11
9.0990326E+001
 21
5.7391003E+001
  0
LINE
  8
1
  6
CONTINUOUS
 62
1
 10
8.339014E+001
 20
5.7391003E+001
 11
8.1154807E+001
 21
5.7391003E+001
  0
LINE
  8
1
  6
CONTINUOUS
 62
1
 10
8.1154807E+001
 20
5.7391003E+001
 11
8.1154807E+001
 21
6.4991144E+001
  0
LINE
  8
1
  6
CONTINUOUS
 62
1
 10
8.1154807E+001
 20
6.4991144E+001
 11
8.4731329E+001
 21
6.4991144E+001
  0
LINE
  8
1
  6
CONTINUOUS
 62
1
 10
8.4731329E+001
 20
6.4991144E+001
 11
8.5714901E+001
 21
6.0520464E+001
  0
LINE
  8
1
  6
CONTINUOUS
 62
1
 10
8.5714901E+001
 20
6.0520464E+001
 11
8.5848991E+001
 21
6.0520464E+001
  0
LINE
  8
1
  6
CONTINUOUS
 62
1
 10
8.5848991E+001
 20
6.0520464E+001
 11
8.5983134E+001
 21
6.0520464E+001
  0
LINE
  8
1
  6
CONTINUOUS
 62
1
 10
8.5983134E+001
 20
6.0520464E+001
 11
8.6966707E+001
 21
6.4991144E+001
  0
LINE
  8
1
  6
CONTINUOUS
 62
1
 10
8.6966707E+001
 20
6.4991144E+001
 11
9.0543228E+001
 21
6.4991144E+001
  0
LINE
  8
1
  6
CONTINUOUS
 62
1
 10
9.0543228E+001
 20
6.4991144E+001
 11
9.0543228E+001
 21
5.7391003E+001
  0
LINE
  8
1
  6
CONTINUOUS
 62
1
 10
9.0543228E+001
 20
5.7391003E+001
 11
8.8307896E+001
 21
5.7391003E+001
  0
LINE
  8
1
  6
CONTINUOUS
 62
1
 10
8.8307896E+001
 20
5.7391003E+001
 11
8.8307896E+001
 21
6.297933E+001
  0
LINE
  8
1
  6
CONTINUOUS
 62
1
 10
8.8307896E+001
 20
6.297933E+001
 11
8.8084377E+001
 21
6.297933E+001
  0
LINE
  8
1
  6
CONTINUOUS
 62
1
 10
8.8084377E+001
 20
6.297933E+001
 11
8.6854898E+001
 21
5.7391003E+001
  0
LINE
  8
1
  6
CONTINUOUS
 62
1
 10
8.6854898E+001
 20
5.7391003E+001
 11
8.4843092E+001
 21
5.7391003E+001
  0
LINE
  8
1
  6
CONTINUOUS
 62
1
 10
8.4843092E+001
 20
5.7391003E+001
 11
8.3613666E+001
 21
6.297933E+001
  0
LINE
  8
1
  6
CONTINUOUS
 62
1
 10
8.3613666E+001
 20
6.297933E+001
 11
8.339014E+001
 21
6.297933E+001
  0
LINE
  8
1
  6
CONTINUOUS
 62
1
 10
8.339014E+001
 20
6.297933E+001
 11
8.339014E+001
 21
5.7391003E+001
  0
ARC
  8
1
  6
CONTINUOUS
 62
1
 10
7.6818226E+001
 20
6.2677576E+001
 40
7.6001465E-001
 50
2.7000106E+002
 51
3.599995E+002
  0
LINE
  8
1
  6
CONTINUOUS
 62
1
 10
7.681824E+001
 20
6.1917561E+001
 11
7.5790006E+001
 21
6.1917561E+001
  0
LINE
  8
1
  6
CONTINUOUS
 62
1
 10
7.5790006E+001
 20
6.1917561E+001
 11
7.5790006E+001
 21
6.3594062E+001
  0
LINE
  8
1
  6
CONTINUOUS
 62
1
 10
7.5790006E+001
 20
6.3594062E+001
 11
7.681824E+001
 21
6.3594062E+001
  0
ARC
  8
1
  6
CONTINUOUS
 62
1
 10
7.6818239E+001
 20
6.2834027E+001
 40
7.6003534E-001
 50
9.153818E-004
 51
8.9999944E+001
  0
LINE
  8
1
  6
CONTINUOUS
 62
1
 10
7.7578274E+001
 20
6.2834039E+001
 11
7.757824E+001
 21
6.2677569E+001
  0
LINE
  8
1
  6
CONTINUOUS
 62
1
 10
7.3554624E+001
 20
5.7391003E+001
 11
7.3554624E+001
 21
6.4991144E+001
  0
LINE
  8
1
  6
CONTINUOUS
 62
1
 10
7.3554624E+001
 20
6.4991144E+001
 11
7.8025331E+001
 21
6.4991144E+001
  0
ARC
  8
1
  6
CONTINUOUS
 62
1
 10
7.802532E+001
 20
6.27558E+001
 40
2.2353439
 50
3.5999971E+002
 51
4.4999971E+002
  0
ARC
  8
1
  6
CONTINUOUS
 62
1
 10
7.7806096E+001
 20
6.2753654E+001
 40
2.4545686
 50
3.4224213E+002
 51
3.6004983E+002
  0
ARC
  8
1
  6
CONTINUOUS
 62
1
 10
7.7910873E+001
 20
6.2718537E+001
 40
2.3440732
 50
3.2391516E+002
 51
3.422785E+002
  0
ARC
  8
1
  6
CONTINUOUS
 62
1
 10
7.8017896E+001
 20
6.2640323E+001
 40
2.2115165
 50
3.0482971E+002
 51
3.2391966E+002
  0
ARC
  8
1
  6
CONTINUOUS
 62
1
 10
7.807622E+001
 20
6.2558853E+001
 40
2.111331
 50
2.8510451E+002
 51
3.0479323E+002
  0
LINE
  8
1
  6
CONTINUOUS
 62
1
 10
7.8626392E+001
 20
6.0520464E+001
 11
8.0260664E+001
 21
5.7391003E+001
  0
LINE
  8
1
  6
CONTINUOUS
 62
1
 10
8.0260664E+001
 20
5.7391003E+001
 11
7.7801812E+001
 21
5.7391003E+001
  0
LINE
  8
1
  6
CONTINUOUS
 62
1
 10
7.7801812E+001
 20
5.7391003E+001
 11
7.6549999E+001
 21
6.0520464E+001
  0
LINE
  8
1
  6
CONTINUOUS
 62
1
 10
7.6549999E+001
 20
6.0520464E+001
 11
7.5790006E+001
 21
6.0520464E+001
  0
LINE
  8
1
  6
CONTINUOUS
 62
1
 10
7.5790006E+001
 20
6.0520464E+001
 11
7.5790006E+001
 21
5.7391003E+001
  0
LINE
  8
1
  6
CONTINUOUS
 62
1
 10
7.5790006E+001
 20
5.7391003E+001
 11
7.3554624E+001
 21
5.7391003E+001
  0
ARC
  8
1
  6
CONTINUOUS
 62
1
 10
6.9385748E+001
 20
5.9715737E+001
 40
7.600001E-001
 50
2.6999996E+002
 51
3.6000145E+002
  0
LINE
  8
1
  6
CONTINUOUS
 62
1
 10
6.9385747E+001
 20
5.8955737E+001
 11
6.9229273E+001
 21
5.8955737E+001
  0
ARC
  8
1
  6
CONTINUOUS
 62
1
 10
6.922928E+001
 20
5.971575E+001
 40
7.6001249E-001
 50
1.7999948E+002
 51
2.6999953E+002
  0
LINE
  8
1
  6
CONTINUOUS
 62
1
 10
6.8469267E+001
 20
5.9715757E+001
 11
6.8469267E+001
 21
6.266639E+001
  0
ARC
  8
1
  6
CONTINUOUS
 62
1
 10
6.9229281E+001
 20
6.2666398E+001
 40
7.6001371E-001
 50
9.0000566E+001
 51
1.8000058E+002
  0
LINE
  8
1
  6
CONTINUOUS
 62
1
 10
6.9229273E+001
 20
6.3426412E+001
 11
6.9385747E+001
 21
6.3426412E+001
  0
ARC
  8
1
  6
CONTINUOUS
 62
1
 10
6.9385726E+001
 20
6.266641E+001
 40
7.6000132E-001
 50
3.5999849E+002
 51
4.4999838E+002
  0
LINE
  8
1
  6
CONTINUOUS
 62
1
 10
7.0145727E+001
 20
6.266639E+001
 11
7.0145748E+001
 21
5.9715757E+001
  0
ARC
  8
1
  6
CONTINUOUS
 62
1
 10
6.9978096E+001
 20
6.0073362E+001
 40
2.6823851
 50
2.7000015E+002
 51
3.6000041E+002
  0
LINE
  8
1
  6
CONTINUOUS
 62
1
 10
6.9978103E+001
 20
5.7390976E+001
 11
6.8636914E+001
 21
5.7390976E+001
  0
ARC
  8
1
  6
CONTINUOUS
 62
1
 10
6.8636884E+001
 20
6.007339E+001
 40
2.6824139
 50
1.800002E+002
 51
2.7000064E+002
  0
LINE
  8
1
  6
CONTINUOUS
 62
1
 10
6.595447E+001
 20
6.0073381E+001
 11
6.595447E+001
 21
6.2308736E+001
  0
ARC
  8
1
  6
CONTINUOUS
 62
1
 10
6.86369E+001
 20
6.2308722E+001
 40
2.6824302
 50
8.9999705E+001
 51
1.7999971E+002
  0
LINE
  8
1
  6
CONTINUOUS
 62
1
 10
6.8636914E+001
 20
6.4991153E+001
 11
6.9978103E+001
 21
6.4991153E+001
  0
ARC
  8
1
  6
CONTINUOUS
 62
1
 10
6.9978105E+001
 20
6.2308733E+001
 40
2.6824196
 50
6.32617E-005
 51
9.0000039E+001
  0
LINE
  8
1
  6
CONTINUOUS
 62
1
 10
7.2660524E+001
 20
6.2308736E+001
 11
7.2660481E+001
 21
6.0073381E+001
  0
ARC
  8
1
  6
CONTINUOUS
 62
1
 10
6.260148E+001
 20
5.9849863E+001
 40
2.4588671
 50
2.7000028E+002
 51
3.6000014E+002
  0
LINE
  8
1
  6
CONTINUOUS
 62
1
 10
6.2601492E+001
 20
5.7390996E+001
 11
5.8577876E+001
 21
5.7390996E+001
  0
LINE
  8
1
  6
CONTINUOUS
 62
1
 10
5.8577876E+001
 20
5.7390996E+001
 11
5.8577876E+001
 21
6.4991144E+001
  0
LINE
  8
1
  6
CONTINUOUS
 62
1
 10
5.8577876E+001
 20
6.4991144E+001
 11
6.2601492E+001
 21
6.4991144E+001
  0
ARC
  8
1
  6
CONTINUOUS
 62
1
 10
6.2601484E+001
 20
6.2532276E+001
 40
2.4588683
 50
4.001E-005
 51
8.999983E+001
  0
LINE
  8
1
  6
CONTINUOUS
 62
1
 10
6.5060353E+001
 20
6.2532278E+001
 11
6.5060347E+001
 21
5.9849869E+001
  0
ARC
  8
1
  6
CONTINUOUS
 62
1
 10
6.2154429E+001
 20
5.94028E+001
 40
4.4706314E-001
 50
2.6999599E+002
 51
3.5999819E+002
  0
LINE
  8
1
  6
CONTINUOUS
 62
1
 10
6.2154397E+001
 20
5.8955737E+001
 11
6.1036731E+001
 21
5.8955737E+001
  0
LINE
  8
1
  6
CONTINUOUS
 62
1
 10
6.1036731E+001
 20
5.8955737E+001
 11
6.1036731E+001
 21
6.3426414E+001
  0
LINE
  8
1
  6
CONTINUOUS
 62
1
 10
6.1036731E+001
 20
6.3426414E+001
 11
6.2154397E+001
 21
6.3426414E+001
  0
ARC
  8
1
  6
CONTINUOUS
 62
1
 10
6.2154393E+001
 20
6.2979334E+001
 40
4.4707957E-001
 50
3.5999953E+002
 51
4.4999949E+002
  0
LINE
  8
1
  6
CONTINUOUS
 62
1
 10
6.2601473E+001
 20
6.297933E+001
 11
6.2601492E+001
 21
5.9402786E+001
  0
INSERT
  2
*XH26
  8
1
 10
7.7611401E+001
 20
7.3373836E+001
  0
ARC
  8
1
  6
CONTINUOUS
 62
1
 10
7.761139E+001
 20
1.0832939E+002
 40
3.6495373E+001
 50
2.3080505E+002
 51
2.6231282E+002
  0
LINE
  8
1
  6
CONTINUOUS
 62
1
 10
5.4547738E+001
 20
8.0045471E+001
 11
5.8451324E+001
 21
6.6359736E+001
  0
LINE
  8
1
  6
CONTINUOUS
 62
1
 10
5.8451324E+001
 20
6.6359736E+001
 11
6.1319519E+001
 21
6.6359736E+001
  0
LINE
  8
1
  6
CONTINUOUS
 62
1
 10
6.1319519E+001
 20
6.6359736E+001
 11
5.9396077E+001
 21
7.3067584E+001
  0
ARC
  8
1
  6
CONTINUOUS
 62
1
 10
7.7611371E+001
 20
1.083294E+002
 40
3.9688693E+001
 50
2.4268035E+002
 51
2.604333E+002
  0
ARC
  8
1
  6
CONTINUOUS
 62
1
 10
7.761192E+001
 20
1.0832932E+002
 40
3.9688707E+001
 50
2.604325E+002
 51
2.6471274E+002
  0
LINE
  8
1
  6
CONTINUOUS
 62
1
 10
7.3954637E+001
 20
6.8809478E+001
 11
7.7611406E+001
 21
7.5143176E+001
  0
LINE
  8
1
  6
CONTINUOUS
 62
1
 10
7.7611406E+001
 20
7.5143176E+001
 11
8.1268164E+001
 21
6.8809478E+001
  0
ARC
  8
1
  6
CONTINUOUS
 62
1
 10
7.7611406E+001
 20
1.0832939E+002
 40
3.9688725E+001
 50
2.752865E+002
 51
2.9731967E+002
  0
LINE
  8
1
  6
CONTINUOUS
 62
1
 10
9.5826728E+001
 20
7.3067554E+001
 11
9.3903285E+001
 21
6.6359736E+001
  0
LINE
  8
1
  6
CONTINUOUS
 62
1
 10
9.3903285E+001
 20
6.6359736E+001
 11
9.6771477E+001
 21
6.6359736E+001
  0
LINE
  8
1
  6
CONTINUOUS
 62
1
 10
9.6771477E+001
 20
6.6359736E+001
 11
1.0067506E+002
 21
8.0045471E+001
  0
ARC
  8
1
  6
CONTINUOUS
 62
1
 10
7.7611413E+001
 20
1.0832939E+002
 40
3.6495369E+001
 50
2.7768718E+002
 51
3.0919495E+002
  0
LINE
  8
1
  6
CONTINUOUS
 62
1
 10
8.2493194E+001
 20
7.2161997E+001
 11
7.7611406E+001
 21
8.0617482E+001
  0
LINE
  8
1
  6
CONTINUOUS
 62
1
 10
7.7611406E+001
 20
8.0617482E+001
 11
7.2729607E+001
 21
7.2161997E+001
  0
LINE
  8
1
  6
HIDDEN
 62
40
 10
5.9832586E+001
 20
7.1545392E+001
 11
6.085739E+001
 21
6.7971416E+001
  0
TEXT
  8
1
  6
CONTINUOUS
 62
40
 10
2.889367E+002
 20
2.11767E+001
 40
9.9
  1
DSM_0778_55_01
 41
6.5892857E-001
  0
TEXT
  8
1
  6
CONTINUOUS
 62
3
 10
1.1833684E+002
 20
7.6356977E+001
 40
8.4
  1
Schloss mit Linearriegel  
 41
6.6964288E-001
 72
1
 11
1.9146184E+002
 21
8.0556977E+001
 73
2
  0
LINE
  8
1
  6
CONTINUOUS
 62
1
 10
5.5403893E-001
 20
2.6259563
 11
4.1635404E+002
 21
2.6259563
  0
LINE
  8
1
  6
CONTINUOUS
 62
1
 10
4.1635404E+002
 20
2.6259563
 11
4.1635404E+002
 21
5.9068596E+002
  0
LINE
  8
1
  6
CONTINUOUS
 62
1
 10
4.1635404E+002
 20
5.9068596E+002
 11
5.5403893E-001
 21
5.9068596E+002
  0
LINE
  8
1
  6
CONTINUOUS
 62
1
 10
5.5403893E-001
 20
5.9068596E+002
 11
5.5403893E-001
 21
2.6259563
  0
LINE
  8
1
  6
CONTINUOUS
 62
1
 10
5.5403893E-001
 20
2.6259563
 11
5.5403893E-001
 21
2.6259563
  0
TEXT
  8
1
  6
CONTINUOUS
 62
40
 10
1.1449583E+002
 20
4.4516667E+001
 40
9.9
  1
  = 55 mm
 41
6.5000002E-001
 72
1
 11
1.4345333E+002
 21
4.9466667E+001
 73
2
  0
TEXT
  8
1
  6
CONTINUOUS
 62
6
 10
1.1740123E+002
 20
4.3824375E+001
 40
1.2E+001
  1
X
 72
1
 11
1.2340123E+002
 21
4.9824375E+001
 73
2
  0
TEXT
  8
1
  6
CONTINUOUS
 62
1
 10
1.1694609E+002
 20
6.4558374E+001
 40
6.8
  1
lock with linear deadbolt mechanism 
 41
6.6875E-001
 72
1
 11
1.9880109E+002
 21
6.7958374E+001
 73
2
  0
LINE
  8
1
  6
CONTINUOUS
 62
40
 10
4.1858851E+001
 20
1.2274801E+001
 11
4.0815885E+002
 21
1.2274801E+001
  0
LINE
  8
1
  6
CONTINUOUS
 62
40
 10
3.8773513E+002
 20
3.9994801E+001
 11
3.8773513E+002
 21
1.2274801E+001
  0
LINE
  8
1
  6
CONTINUOUS
 62
1
 10
2.2588514
 20
2.964048E+002
 11
2.6018851E+001
 21
2.964048E+002
  0
TEXT
  8
1
  6
CONTINUOUS
 62
1
 10
6.0128698E+001
 20
4.8466245E+001
 40
3.96
  1
Schlosstechnik
 41
6.66E-001
 72
1
 11
7.8590218E+001
 21
5.0446245E+001
 73
2
  0
LINE
  8
1
  6
CONTINUOUS
 62
40
 10
4.1891236E+001
 20
9.1487503E+001
 11
4.0819124E+002
 21
9.1487503E+001
  0
LINE
  8
1
  6
CONTINUOUS
 62
40
 10
1.1313885E+002
 20
9.1474801E+001
 11
1.1313885E+002
 21
1.2274801E+001
  0
DIMENSION
  8
1
  6
CONTINUOUS
 62
4
  2
*D811
  3
DSTYLE1
 10
2.5360089E+002
 20
1.6900359E+002
 11
2.4739889E+002
 21
2.0070557E+002
 70
128
 13
2.3599579E+002
 23
1.8280359E+002
 14
2.3599579E+002
 24
1.6900359E+002
 40
1.0E+001
 50
9.0E+001
1001
ACAD
1000
DSTYLE
1002
{
1070
173
1070
0
1070
5
1000
_AH13
1002
}
  0
LINE
  8
1
  6
CONTINUOUS
 62
40
 10
2.7945885E+002
 20
3.9994801E+001
 11
2.7945885E+002
 21
1.2274801E+001
  0
LINE
  8
1
  6
CONTINUOUS
 62
1
 10
4.1858851E+001
 20
3.2074801E+001
 11
1.1313885E+002
 21
3.2074801E+001
  0
LINE
  8
1
  6
CONTINUOUS
 62
1
 10
4.1858851E+001
 20
2.2174801E+001
 11
1.1313885E+002
 21
2.2174801E+001
  0
LINE
  8
1
  6
CONTINUOUS
 62
40
 10
4.1858851E+001
 20
3.9994801E+001
 11
4.0815885E+002
 21
3.9994801E+001
  0
TEXT
  8
1
  6
CONTINUOUS
 62
1
 10
4.3386791E+001
 20
2.5837362E+001
 40
2.97
  1
Gezeichn.
 41
6.5E-001
 72
1
 11
5.2074041E+001
 21
2.7322362E+001
 73
2
  0
TEXT
  8
1
  6
CONTINUOUS
 62
1
 10
4.3427784E+001
 20
1.6242947E+001
 40
2.97
  1
Geprüft
 41
6.4285714E-001
 72
1
 11
5.0110284E+001
 21
1.7727947E+001
 73
2
  0
TEXT
  8
1
  6
CONTINUOUS
 62
1
 10
6.9685013E+001
 20
3.4710928E+001
 40
2.97
  1
Datum
 41
6.3E-001
 72
1
 11
7.4362763E+001
 21
3.6195928E+001
 73
2
  0
TEXT
  8
1
  6
CONTINUOUS
 62
1
 10
9.635309E+001
 20
3.4710928E+001
 40
2.97
  1
Name
 41
6.1875E-001
 72
1
 11
1.0002847E+002
 21
3.6195928E+001
 73
2
  0
LINE
  8
1
  6
CONTINUOUS
 62
1
 10
6.1658851E+001
 20
3.9994801E+001
 11
6.1658851E+001
 21
1.2274801E+001
  0
LINE
  8
1
  6
CONTINUOUS
 62
1
 10
8.7398851E+001
 20
3.9994801E+001
 11
8.7398851E+001
 21
1.2274801E+001
  0
TEXT
  8
1
  6
CONTINUOUS
 62
1
 10
6.3940757E+001
 20
2.5251868E+001
 40
3.96
  1
11.10.04
 41
6.46875E-001
 72
1
 11
7.4187257E+001
 21
2.7231868E+001
 73
2
  0
TEXT
  8
1
  6
CONTINUOUS
 62
1
 10
7.2785274E+001
 20
1.4716745E+001
 40
3.96
  1
*
 72
1
 11
7.4765274E+001
 21
1.6696745E+001
 73
2
  0
TEXT
  8
1
  6
CONTINUOUS
 62
1
 10
8.9997515E+001
 20
2.5216226E+001
 40
3.96
  1
Hartmann
 41
6.46875E-001
 72
1
 11
1.0024401E+002
 21
2.7196226E+001
 73
2
  0
TEXT
  8
1
  6
CONTINUOUS
 62
1
 10
9.8404008E+001
 20
1.4856738E+001
 40
3.96
  1
*
 72
1
 11
1.0038401E+002
 21
1.6836738E+001
 73
2
  0
TEXT
  8
1
  6
CONTINUOUS
 62
221
 10
1.1815863E+002
 20
2.7467855E+001
 40
7.92
  1
Einsteckschlösser
 41
6.6176471E-001
 72
1
 11
1.6270863E+002
 21
3.1427855E+001
 73
2
  0
TEXT
  8
1
  6
CONTINUOUS
 62
150
 10
1.1892335E+002
 20
1.5702756E+001
 40
7.0
  1
mortice locks
 41
6.5769231E-001
 72
1
 11
1.4884835E+002
 21
1.9202756E+001
 73
2
  0
LINE
  8
1
  6
CONTINUOUS
 62
40
 10
3.6261885E+002
 20
9.1474801E+001
 11
3.6261885E+002
 21
3.9994801E+001
  0
TEXT
  8
1
  6
CONTINUOUS
 62
1
 10
3.9028579E+002
 20
3.6021807E+001
 40
2.97
  1
Version:
 41
6.46875E-001
 72
1
 11
3.9797067E+002
 21
3.7506807E+001
 73
2
  0
TEXT
  8
1
  6
CONTINUOUS
 62
40
 10
3.9320028E+002
 20
2.0995672E+001
 40
9.9
  1
A
 72
1
 11
3.9815028E+002
 21
2.5945672E+001
 73
2
  0
TEXT
  8
1
  6
CONTINUOUS
 62
1
 10
8.4157175
 20
3.8934933E+001
 40
3.56
  1
Copyright    DORMA 1999 
 41
6.65625E-001
 50
9.0E+001
 72
1
 11
3.6851217E+001
 21
4.0714933E+001
 73
2
  0
CIRCLE
  8
1
  6
CONTINUOUS
 62
40
 10
3.6697604E+001
 20
3.8188126E+001
 40
1.9851937
  0
TEXT
  8
1
  6
CONTINUOUS
 62
1
 10
3.5707604E+001
 20
3.7198126E+001
 40
1.98
  1
C
 50
9.0E+001
 72
1
 11
3.6697604E+001
 21
3.8188126E+001
 73
2
  0
TEXT
  8
1
  6
CONTINUOUS
 62
6
 10
3.68648E+002
 20
5.6753333E+001
 40
1.584E+001
  1
778
 41
7.0E-001
 72
1
 11
3.8528E+002
 21
6.4673333E+001
 73
2
  0
TEXT
  8
1
  6
CONTINUOUS
 62
150
 10
3.6883271E+002
 20
1.0281915E+002
 40
7.0
  1
M. 1:2
 41
6.375E-001
 72
2
 11
3.9560771E+002
 21
1.0281915E+002
  0
LINE
  8
1
  6
CONTINUOUS
 62
40
 10
3.5258723E+002
 20
2.5586276E+002
 11
3.5258723E+002
 21
4.9086276E+002
  0
LINE
  8
1
  6
CONTINUOUS
 62
40
 10
3.3258723E+002
 20
2.5586276E+002
 11
3.3258723E+002
 21
4.9086276E+002
  0
CIRCLE
  8
1
  6
CONTINUOUS
 62
40
 10
2.0699579E+002
 20
3.9285524E+002
 40
1.2E+001
  0
LINE
  8
1
  6
CONTINUOUS
 62
40
 10
1.7099579E+002
 20
4.11691E+002
 11
1.7099579E+002
 21
4.3258946E+002
  0
LINE
  8
1
  6
CENTERLINE
 62
1
 10
1.4746138E+002
 20
2.6876439E+002
 11
1.5912391E+002
 21
2.6876439E+002
  0
LINE
  8
1
  6
CENTERLINE
 62
1
 10
1.4809457E+002
 20
4.7786276E+002
 11
1.5906402E+002
 21
4.7786276E+002
  0
LINE
  8
1
  6
CONTINUOUS
 62
40
 10
1.5199579E+002
 20
4.9085524E+002
 11
1.5499579E+002
 21
4.9085524E+002
  0
LINE
  8
1
  6
CONTINUOUS
 62
40
 10
1.5499579E+002
 20
4.9085524E+002
 11
1.5499579E+002
 21
4.7511276E+002
  0
LINE
  8
1
  6
CONTINUOUS
 62
40
 10
1.5499579E+002
 20
2.5585524E+002
 11
1.5199579E+002
 21
2.5585524E+002
  0
LINE
  8
1
  6
CONTINUOUS
 62
40
 10
1.5199579E+002
 20
2.5585524E+002
 11
1.5199579E+002
 21
4.9085524E+002
  0
ARC
  8
1
  6
CONTINUOUS
 62
1
 10
1.5264641E+002
 20
4.6640504E+002
 40
6.9449534E-001
 50
7.7058249E+001
 51
1.5952496E+002
  0
ARC
  8
1
  6
CONTINUOUS
 62
1
 10
1.5264641E+002
 20
4.6640505E+002
 40
6.9448829E-001
 50
4.2978326E+001
 51
7.705848E+001
  0
ARC
  8
1
  6
CONTINUOUS
 62
1
 10
1.5381501E+002
 20
4.6749011E+002
 40
9.0018123E-001
 50
2.2279902E+002
 51
2.3047174E+002
  0
ARC
  8
1
  6
CONTINUOUS
 62
1
 10
1.5366748E+002
 20
4.6731008E+002
 40
6.6742552E-001
 50
2.3040368E+002
 51
2.3977188E+002
  0
ARC
  8
1
  6
CONTINUOUS
 62
1
 10
1.5359431E+002
 20
4.6718763E+002
 40
5.2479639E-001
 50
2.3994371E+002
 51
2.4543833E+002
  0
ARC
  8
1
  6
CONTINUOUS
 62
1
 10
1.535618E+002
 20
4.6711637E+002
 40
4.4646632E-001
 50
2.4543184E+002
 51
2.5155159E+002
  0
ARC
  8
1
  6
CONTINUOUS
 62
1
 10
1.5354168E+002
 20
4.6705599E+002
 40
3.8282797E-001
 50
2.515496E+002
 51
2.5832979E+002
  0
ARC
  8
1
  6
CONTINUOUS
 62
1
 10
1.5353173E+002
 20
4.6700802E+002
 40
3.3383106E-001
 50
2.5833532E+002
 51
2.6576329E+002
  0
ARC
  8
1
  6
CONTINUOUS
 62
1
 10
1.5352077E+002
 20
4.668767E+002
 40
2.0206396E-001
 50
2.6611221E+002
 51
2.7651251E+002
  0
ARC
  8
1
  6
CONTINUOUS
 62
1
 10
1.5351143E+002
 20
4.669589E+002
 40
2.847946E-001
 50
2.7650314E+002
 51
2.8477996E+002
  0
ARC
  8
1
  6
CONTINUOUS
 62
1
 10
1.5347742E+002
 20
4.6708912E+002
 40
4.1938495E-001
 50
2.8473434E+002
 51
2.9112997E+002
  0
ARC
  8
1
  6
CONTINUOUS
 62
1
 10
1.5340383E+002
 20
4.6728102E+002
 40
6.2491502E-001
 50
2.9108103E+002
 51
2.959835E+002
  0
ARC
  8
1
  6
CONTINUOUS
 62
1
 10
1.5318445E+002
 20
4.6771953E+002
 40
1.115219
 50
2.9624509E+002
 51
3.0293572E+002
  0
ARC
  8
1
  6
CONTINUOUS
 62
1
 10
1.5252865E+002
 20
4.687456E+002
 40
2.3329486
 50
3.0275218E+002
 51
3.0683954E+002
  0
ARC
  8
1
  6
CONTINUOUS
 62
1
 10
1.5467178E+002
 20
4.6587624E+002
 40
1.248434
 50
1.0504154E+002
 51
1.2660035E+002
  0
ARC
  8
1
  6
CONTINUOUS
 62
1
 10
1.5467179E+002
 20
4.6587624E+002
 40
1.248432
 50
7.495815E+001
 51
1.0504185E+002
  0
LINE
  8
1
  6
CONTINUOUS
 62
40
 10
1.5499579E+002
 20
4.7511276E+002
 11
1.5324579E+002
 21
4.7511276E+002
  0
LINE
  8
1
  6
CONTINUOUS
 62
1
 10
1.5324579E+002
 20
4.7511276E+002
 11
1.5199579E+002
 21
4.7386276E+002
  0
LINE
  8
1
  6
CONTINUOUS
 62
1
 10
1.5199579E+002
 20
4.7386276E+002
 11
1.5199579E+002
 21
4.6664798E+002
  0
LINE
  8
1
  6
CONTINUOUS
 62
1
 10
1.5199579E+002
 20
4.9086276E+002
 11
1.5499579E+002
 21
4.9086276E+002
  0
LINE
  8
1
  6
CONTINUOUS
 62
1
 10
1.5499579E+002
 20
4.9086276E+002
 11
1.5499579E+002
 21
4.8061276E+002
  0
LINE
  8
1
  6
CONTINUOUS
 62
40
 10
1.5499579E+002
 20
4.8061276E+002
 11
1.5324579E+002
 21
4.8061276E+002
  0
LINE
  8
1
  6
CONTINUOUS
 62
1
 10
1.5324579E+002
 20
4.8061276E+002
 11
1.5199579E+002
 21
4.8186276E+002
  0
LINE
  8
1
  6
CONTINUOUS
 62
1
 10
1.5199579E+002
 20
4.8186276E+002
 11
1.5199579E+002
 21
4.9086276E+002
  0
INSERT
  2
*XH50
  8
1
 10
1.1494031E+001
 20
-7.322752
  0
LINE
  8
1
  6
CONTINUOUS
 62
40
 10
1.5499579E+002
 20
4.5585524E+002
 11
1.5499579E+002
 21
4.3985524E+002
  0
LINE
  8
1
  6
CONTINUOUS
 62
40
 10
1.5499579E+002
 20
4.3985524E+002
 11
1.7099579E+002
 21
4.3985524E+002
  0
LINE
  8
1
  6
CONTINUOUS
 62
40
 10
1.7099579E+002
 20
4.3985524E+002
 11
1.7099579E+002
 21
4.0585524E+002
  0
LINE
  8
1
  6
CONTINUOUS
 62
40
 10
1.7099579E+002
 20
4.0585524E+002
 11
1.5499579E+002
 21
4.0585524E+002
  0
LINE
  8
1
  6
CONTINUOUS
 62
40
 10
1.5499579E+002
 20
4.0585524E+002
 11
1.5499579E+002
 21
2.9085524E+002
  0
LINE
  8
1
  6
HIDDEN
 62
150
 10
1.5324579E+002
 20
2.6601439E+002
 11
1.5499579E+002
 21
2.6601439E+002
  0
LINE
  8
1
  6
HIDDEN
 62
150
 10
1.5324579E+002
 20
2.7151439E+002
 11
1.5499579E+002
 21
2.7151439E+002
  0
LINE
  8
1
  6
CONTINUOUS
 62
40
 10
1.3253012E+002
 20
3.5770524E+002
 11
1.5199579E+002
 21
3.5770524E+002
  0
LINE
  8
1
  6
CONTINUOUS
 62
40
 10
1.3253012E+002
 20
3.2000524E+002
 11
1.5199579E+002
 21
3.2000524E+002
  0
LINE
  8
1
  6
CONTINUOUS
 62
40
 10
1.3289579E+002
 20
3.5770524E+002
 11
1.3253012E+002
 21
3.5770524E+002
  0
LINE
  8
1
  6
CONTINUOUS
 62
40
 10
1.3253012E+002
 20
3.5770524E+002
 11
1.3199579E+002
 21
3.5717091E+002
  0
LINE
  8
1
  6
CONTINUOUS
 62
40
 10
1.3199579E+002
 20
3.5717091E+002
 11
1.3199579E+002
 21
3.2053956E+002
  0
LINE
  8
1
  6
CONTINUOUS
 62
40
 10
1.3199579E+002
 20
3.2053956E+002
 11
1.3253012E+002
 21
3.2000524E+002
  0
LINE
  8
1
  6
CONTINUOUS
 62
40
 10
1.3253012E+002
 20
3.5770524E+002
 11
1.3253012E+002
 21
3.2000524E+002
  0
LINE
  8
1
  6
CENTERLINE
 62
1
 10
2.2042651E+002
 20
3.1335524E+002
 11
2.3136156E+002
 21
3.1335524E+002
  0
LINE
  8
1
  6
CENTERLINE
 62
1
 10
2.2044387E+002
 20
3.1235524E+002
 11
2.3125742E+002
 21
3.1235524E+002
  0
LINE
  8
1
  6
CENTERLINE
 62
1
 10
2.0030915E+002
 20
4.3885524E+002
 11
2.1350568E+002
 21
4.3885524E+002
  0
ARC
  8
1
  6
CONTINUOUS
 62
40
 10
2.3569579E+002
 20
4.4497448E+002
 40
9.9999961E-001
 50
6.0618976E+001
 51
1.1938102E+002
  0
LINE
  8
1
  6
CONTINUOUS
 62
40
 10
2.3520517E+002
 20
4.4584585E+002
 11
2.3569579E+002
 21
4.4535524E+002
  0
LINE
  8
1
  6
CONTINUOUS
 62
40
 10
2.3569579E+002
 20
4.4535524E+002
 11
2.3661503E+002
 21
4.4627448E+002
  0
LINE
  8
1
  6
CONTINUOUS
 62
40
 10
2.3661503E+002
 20
4.4627448E+002
 11
2.2741503E+002
 21
4.5547448E+002
  0
LINE
  8
1
  6
CONTINUOUS
 62
40
 10
2.2741503E+002
 20
4.5547448E+002
 11
2.2649579E+002
 21
4.5455524E+002
  0
LINE
  8
1
  6
CONTINUOUS
 62
40
 10
2.2649579E+002
 20
4.5455524E+002
 11
2.272029E+002
 21
4.5384813E+002
  0
ARC
  8
1
  6
CONTINUOUS
 62
40
 10
2.2649579E+002
 20
4.5455524E+002
 40
1.0000002
 50
9.0000021E+001
 51
4.050001E+002
  0
LINE
  8
1
  6
CONTINUOUS
 62
40
 10
2.2549579E+002
 20
4.5455524E+002
 11
2.2649579E+002
 21
4.5455524E+002
  0
LINE
  8
1
  6
CONTINUOUS
 62
40
 10
2.2649579E+002
 20
4.5455524E+002
 11
2.2649579E+002
 21
4.5585524E+002
  0
LINE
  8
1
  6
CONTINUOUS
 62
40
 10
2.2649579E+002
 20
4.5585524E+002
 11
1.5499579E+002
 21
4.5585524E+002
  0
ARC
  8
1
  6
CONTINUOUS
 62
40
 10
2.3569579E+002
 20
4.4497448E+002
 40
1.0
 50
1.1938107E+002
 51
3.6E+002
  0
LINE
  8
1
  6
CONTINUOUS
 62
40
 10
1.9099579E+002
 20
3.0729268E+002
 11
1.9599579E+002
 21
3.0685524E+002
  0
LINE
  8
1
  6
CONTINUOUS
 62
40
 10
1.9599579E+002
 20
3.0685524E+002
 11
1.9599579E+002
 21
3.0445331E+002
  0
ARC
  8
1
  6
CONTINUOUS
 62
40
 10
1.9749579E+002
 20
3.0185524E+002
 40
3.0000007
 50
1.1999999E+002
 51
2.4000001E+002
  0
LINE
  8
1
  6
CONTINUOUS
 62
40
 10
1.9599579E+002
 20
2.9925716E+002
 11
1.9599579E+002
 21
2.9685524E+002
  0
LINE
  8
1
  6
CONTINUOUS
 62
40
 10
1.9599579E+002
 20
2.9685524E+002
 11
1.9099579E+002
 21
2.9641779E+002
  0
LINE
  8
1
  6
CENTERLINE
 62
1
 10
1.9856042E+002
 20
3.0185524E+002
 11
1.9001583E+002
 21
3.0185524E+002
  0
LINE
  8
1
  6
CENTERLINE
 62
1
 10
1.9749579E+002
 20
3.0106861E+002
 11
1.9749579E+002
 21
3.0238316E+002
  0
LINE
  8
1
  6
CENTERLINE
 62
1
 10
2.2599579E+002
 20
3.0591186E+002
 11
2.2599579E+002
 21
3.1952657E+002
  0
LINE
  8
1
  6
CENTERLINE
 62
1
 10
1.8799579E+002
 20
3.059833E+002
 11
1.8799579E+002
 21
3.1919644E+002
  0
LINE
  8
1
  6
CENTERLINE
 62
1
 10
2.3208809E+002
 20
3.1285524E+002
 11
2.1970599E+002
 21
3.1285524E+002
  0
LINE
  8
1
  6
CENTERLINE
 62
1
 10
1.8188466E+002
 20
3.1285524E+002
 11
1.9379814E+002
 21
3.1285524E+002
  0
ARC
  8
1
  6
CONTINUOUS
 62
40
 10
1.8799579E+002
 20
3.1335524E+002
 40
4.0
 50
0.0
 51
1.8E+002
  0
LINE
  8
1
  6
CONTINUOUS
 62
40
 10
1.9199579E+002
 20
3.1335524E+002
 11
1.9199579E+002
 21
3.1235524E+002
  0
ARC
  8
1
  6
CONTINUOUS
 62
40
 10
1.8799579E+002
 20
3.1235524E+002
 40
4.0
 50
1.8E+002
 51
3.6E+002
  0
LINE
  8
1
  6
CONTINUOUS
 62
40
 10
1.8399579E+002
 20
3.1235524E+002
 11
1.8399579E+002
 21
3.1335524E+002
  0
ARC
  8
1
  6
CONTINUOUS
 62
40
 10
2.2599579E+002
 20
3.1335524E+002
 40
4.0
 50
0.0
 51
1.8E+002
  0
LINE
  8
1
  6
CONTINUOUS
 62
40
 10
2.2999579E+002
 20
3.1335524E+002
 11
2.2999579E+002
 21
3.1235524E+002
  0
ARC
  8
1
  6
CONTINUOUS
 62
40
 10
2.2599579E+002
 20
3.1235524E+002
 40
4.0
 50
1.8E+002
 51
3.6E+002
  0
LINE
  8
1
  6
CONTINUOUS
 62
40
 10
2.2199579E+002
 20
3.1235524E+002
 11
2.2199579E+002
 21
3.1335524E+002
  0
CIRCLE
  8
1
  6
CONTINUOUS
 62
40
 10
2.0699579E+002
 20
4.3885524E+002
 40
4.25
  0
LINE
  8
1
  6
CENTERLINE
 62
1
 10
2.0073336E+002
 20
3.7135524E+002
 11
2.1345209E+002
 21
3.7135524E+002
  0
CIRCLE
  8
1
  6
CONTINUOUS
 62
40
 10
2.0699579E+002
 20
3.7135524E+002
 40
4.25
  0
LINE
  8
1
  6
CENTERLINE
 62
1
 10
2.2599579E+002
 20
3.8651956E+002
 11
2.2599579E+002
 21
3.992383E+002
  0
LINE
  8
1
  6
CENTERLINE
 62
1
 10
1.8799579E+002
 20
3.8678454E+002
 11
1.8799579E+002
 21
4.0004121E+002
  0
CIRCLE
  8
1
  6
CONTINUOUS
 62
40
 10
2.2599579E+002
 20
3.9285524E+002
 40
4.0
  0
CIRCLE
  8
1
  6
CONTINUOUS
 62
40
 10
1.8799579E+002
 20
3.9285524E+002
 40
4.0
  0
LINE
  8
1
  6
CENTERLINE
 62
1
 10
2.3200024E+002
 20
3.9285524E+002
 11
1.8165526E+002
 21
3.9285524E+002
  0
LINE
  8
1
  6
CONTINUOUS
 62
40
 10
2.2649579E+002
 20
2.9215524E+002
 11
2.2549579E+002
 21
2.9215524E+002
  0
ARC
  8
1
  6
CONTINUOUS
 62
40
 10
2.2649579E+002
 20
2.9215524E+002
 40
1.0000002
 50
4.5000085E+001
 51
1.8E+002
  0
LINE
  8
1
  6
CONTINUOUS
 62
40
 10
2.272029E+002
 20
2.9286234E+002
 11
2.2649579E+002
 21
2.9215524E+002
  0
LINE
  8
1
  6
CONTINUOUS
 62
40
 10
2.2649579E+002
 20
2.9215524E+002
 11
2.2741503E+002
 21
2.91236E+002
  0
LINE
  8
1
  6
CONTINUOUS
 62
40
 10
2.2741503E+002
 20
2.91236E+002
 11
2.3377899E+002
 21
2.9759996E+002
  0
LINE
  8
1
  6
CONTINUOUS
 62
40
 10
2.3377899E+002
 20
2.9759996E+002
 11
2.3285975E+002
 21
2.985192E+002
  0
LINE
  8
1
  6
CONTINUOUS
 62
40
 10
2.3285975E+002
 20
2.985192E+002
 11
2.3511E+002
 21
3.0076945E+002
  0
ARC
  8
1
  6
CONTINUOUS
 62
40
 10
2.3369579E+002
 20
3.0218366E+002
 40
2.000002
 50
3.1500004E+002
 51
3.6E+002
  0
LINE
  8
1
  6
CONTINUOUS
 62
40
 10
2.3569579E+002
 20
3.0218366E+002
 11
2.3569579E+002
 21
3.0497448E+002
  0
LINE
  8
1
  6
CONTINUOUS
 62
40
 10
2.3569579E+002
 20
3.0497448E+002
 11
2.3699579E+002
 21
3.0497448E+002
  0
LINE
  8
1
  6
CONTINUOUS
 62
40
 10
2.3699579E+002
 20
3.0497448E+002
 11
2.3699579E+002
 21
4.4497448E+002
  0
LINE
  8
1
  6
CONTINUOUS
 62
40
 10
2.3699579E+002
 20
4.4497448E+002
 11
2.3569579E+002
 21
4.4497448E+002
  0
LINE
  8
1
  6
CONTINUOUS
 62
40
 10
2.3569579E+002
 20
4.4497448E+002
 11
2.3569579E+002
 21
4.4397448E+002
  0
LINE
  8
1
  6
CONTINUOUS
 62
40
 10
2.2649579E+002
 20
2.9215524E+002
 11
2.2649579E+002
 21
2.9085524E+002
  0
LINE
  8
1
  6
CONTINUOUS
 62
40
 10
2.2649579E+002
 20
2.9085524E+002
 11
1.5499579E+002
 21
2.9085524E+002
  0
LINE
  8
1
  6
CONTINUOUS
 62
40
 10
1.5499579E+002
 20
2.9085524E+002
 11
1.5499579E+002
 21
2.9215524E+002
  0
LINE
  8
1
  6
CENTERLINE
 62
1
 10
2.0699579E+002
 20
3.5147553E+002
 11
2.0699579E+002
 21
4.0766142E+002
  0
LINE
  8
1
  6
CENTERLINE
 62
1
 10
2.0699579E+002
 20
4.3202834E+002
 11
2.0699579E+002
 21
4.4700613E+002
  0
ARC
  8
1
  6
CONTINUOUS
 62
40
 10
2.3569579E+002
 20
4.4497448E+002
 40
1.0000001
 50
1.1938107E+002
 51
2.7E+002
  0
ARC
  8
1
  6
CONTINUOUS
 62
40
 10
2.2649579E+002
 20
4.5455524E+002
 40
9.9999945E-001
 50
1.8000001E+002
 51
3.1500001E+002
  0
LINE
  8
1
  6
CONTINUOUS
 62
40
 10
2.2649579E+002
 20
1.8280359E+002
 11
2.2649579E+002
 21
1.6900359E+002
  0
LINE
  8
1
  6
CENTERLINE
 62
1
 10
1.2811538E+002
 20
1.7590359E+002
 11
2.4127817E+002
 21
1.7590359E+002
  0
LINE
  8
1
  6
CENTERLINE
 62
1
 10
1.8799579E+002
 20
1.8844256E+002
 11
1.8799579E+002
 21
1.6411275E+002
  0
LINE
  8
1
  6
CENTERLINE
 62
1
 10
2.2599579E+002
 20
1.8844256E+002
 11
2.2599579E+002
 21
1.6328333E+002
  0
LINE
  8
1
  6
CONTINUOUS
 62
40
 10
1.5199579E+002
 20
1.7990359E+002
 11
1.3199579E+002
 21
1.7990359E+002
  0
LINE
  8
1
  6
CONTINUOUS
 62
40
 10
1.3199579E+002
 20
1.7990359E+002
 11
1.3199579E+002
 21
1.7190359E+002
  0
LINE
  8
1
  6
CONTINUOUS
 62
40
 10
1.3199579E+002
 20
1.7190359E+002
 11
1.5199579E+002
 21
1.7190359E+002
  0
LINE
  8
1
  6
CONTINUOUS
 62
40
 10
1.5499579E+002
 20
1.6840359E+002
 11
1.6099579E+002
 21
1.6840359E+002
  0
LINE
  8
1
  6
CONTINUOUS
 62
40
 10
1.6099579E+002
 20
1.6840359E+002
 11
1.6099579E+002
 21
1.6900359E+002
  0
LINE
  8
1
  6
CONTINUOUS
 62
40
 10
1.5199579E+002
 20
1.8590359E+002
 11
1.5199579E+002
 21
1.6590359E+002
  0
LINE
  8
1
  6
CONTINUOUS
 62
40
 10
1.5499579E+002
 20
1.6590359E+002
 11
1.5499579E+002
 21
1.8590359E+002
  0
LINE
  8
1
  6
CONTINUOUS
 62
40
 10
1.5499579E+002
 20
1.8280359E+002
 11
2.3599579E+002
 21
1.8280359E+002
  0
ARC
  8
1
  6
CONTINUOUS
 62
40
 10
2.3599579E+002
 20
1.8180359E+002
 40
9.9999981E-001
 50
3.5999999E+002
 51
4.5000001E+002
  0
LINE
  8
1
  6
CONTINUOUS
 62
40
 10
2.3699579E+002
 20
1.8180359E+002
 11
2.3699579E+002
 21
1.7000359E+002
  0
ARC
  8
1
  6
CONTINUOUS
 62
40
 10
2.3599579E+002
 20
1.7000359E+002
 40
9.9999984E-001
 50
2.6999999E+002
 51
3.6000001E+002
  0
LINE
  8
1
  6
CONTINUOUS
 62
40
 10
2.3599579E+002
 20
1.6900359E+002
 11
1.5499579E+002
 21
1.6900359E+002
  0
LINE
  8
1
  6
CENTERLINE
 62
1
 10
2.0699579E+002
 20
1.6069538E+002
 11
2.0699579E+002
 21
1.916965E+002
  0
CIRCLE
  8
1
  6
CONTINUOUS
 62
40
 10
3.4258723E+002
 20
4.7786276E+002
 40
2.75
  0
CIRCLE
  8
1
  6
CONTINUOUS
 62
40
 10
3.4258723E+002
 20
4.7786276E+002
 40
4.0
  0
LINE
  8
1
  6
CONTINUOUS
 62
40
 10
3.3258723E+002
 20
2.5586276E+002
 11
3.5258723E+002
 21
2.5586276E+002
  0
LINE
  8
1
  6
CENTERLINE
 62
1
 10
3.2934073E+002
 20
2.6586276E+002
 11
3.5511233E+002
 21
2.6586276E+002
  0
LINE
  8
1
  6
CENTERLINE
 62
1
 10
3.3015269E+002
 20
4.8086276E+002
 11
3.5508351E+002
 21
4.8086276E+002
  0
LINE
  8
1
  6
CONTINUOUS
 62
40
 10
3.3258723E+002
 20
4.9086276E+002
 11
3.5258723E+002
 21
4.9086276E+002
  0
ARC
  8
1
  6
CONTINUOUS
 62
40
 10
3.4258723E+002
 20
3.0660645E+002
 40
1.398311E+001
 50
7.3377816E+001
 51
1.0662218E+002
  0
ARC
  8
1
  6
CONTINUOUS
 62
40
 10
3.4258723E+002
 20
3.7120402E+002
 40
1.3983108E+001
 50
2.5337781E+002
 51
2.8662219E+002
  0
LINE
  8
1
  6
CONTINUOUS
 62
40
 10
3.3858723E+002
 20
3.2000524E+002
 11
3.3858723E+002
 21
3.5780524E+002
  0
LINE
  8
1
  6
CONTINUOUS
 62
40
 10
3.3858723E+002
 20
3.5780524E+002
 11
3.4658723E+002
 21
3.5780524E+002
  0
LINE
  8
1
  6
CONTINUOUS
 62
40
 10
3.4658723E+002
 20
3.5780524E+002
 11
3.4658723E+002
 21
3.2000524E+002
  0
LINE
  8
1
  6
CONTINUOUS
 62
40
 10
3.4658723E+002
 20
3.2000524E+002
 11
3.3858723E+002
 21
3.2000524E+002
  0
LINE
  8
1
  6
CENTERLINE
 62
1
 10
3.3561851E+002
 20
4.7786276E+002
 11
3.4961769E+002
 21
4.7786276E+002
  0
LINE
  8
1
  6
CENTERLINE
 62
1
 10
3.4258723E+002
 20
2.5155241E+002
 11
3.4258723E+002
 21
3.6303221E+002
  0
LINE
  8
1
  6
CENTERLINE
 62
1
 10
3.4258723E+002
 20
4.7149788E+002
 11
3.4258723E+002
 21
4.9564382E+002
  0
LINE
  8
1
  6
CONTINUOUS
 62
1
 10
3.4694552E+002
 20
4.6237096E+002
 11
3.4752805E+002
 21
4.6484677E+002
  0
LINE
  8
1
  6
CONTINUOUS
 62
1
 10
3.4752805E+002
 20
4.6484677E+002
 11
3.4891158E+002
 21
4.6484677E+002
  0
LINE
  8
1
  6
CONTINUOUS
 62
1
 10
3.4891158E+002
 20
4.6484677E+002
 11
3.4949413E+002
 21
4.6237096E+002
  0
LINE
  8
1
  6
CONTINUOUS
 62
1
 10
3.4949413E+002
 20
4.6237096E+002
 11
3.4862032E+002
 21
4.6237096E+002
  0
LINE
  8
1
  6
CONTINUOUS
 62
1
 10
3.4862032E+002
 20
4.6237096E+002
 11
3.4854167E+002
 21
4.6280787E+002
  0
LINE
  8
1
  6
CONTINUOUS
 62
1
 10
3.4854167E+002
 20
4.6280787E+002
 11
3.4789796E+002
 21
4.6280787E+002
  0
LINE
  8
1
  6
CONTINUOUS
 62
1
 10
3.4789796E+002
 20
4.6280787E+002
 11
3.4781932E+002
 21
4.6237096E+002
  0
LINE
  8
1
  6
CONTINUOUS
 62
1
 10
3.4781932E+002
 20
4.6237096E+002
 11
3.4694552E+002
 21
4.6237096E+002
  0
LINE
  8
1
  6
CONTINUOUS
 62
1
 10
3.4797662E+002
 20
4.6324477E+002
 11
3.4846303E+002
 21
4.6324477E+002
  0
LINE
  8
1
  6
CONTINUOUS
 62
1
 10
3.4846303E+002
 20
4.6324477E+002
 11
3.4829264E+002
 21
4.6419141E+002
  0
LINE
  8
1
  6
CONTINUOUS
 62
1
 10
3.4829264E+002
 20
4.6419141E+002
 11
3.48147E+002
 21
4.6419141E+002
  0
LINE
  8
1
  6
CONTINUOUS
 62
1
 10
3.48147E+002
 20
4.6419141E+002
 11
3.4797662E+002
 21
4.6324477E+002
  0
ARC
  8
1
  6
CONTINUOUS
 62
1
 10
3.3755199E+002
 20
4.6302633E+002
 40
1.4564042E-001
 50
2.6999938E+002
 51
3.5999905E+002
  0
LINE
  8
1
  6
CONTINUOUS
 62
1
 10
3.3755199E+002
 20
4.6288069E+002
 11
3.3718791E+002
 21
4.6288069E+002
  0
LINE
  8
1
  6
CONTINUOUS
 62
1
 10
3.3718791E+002
 20
4.6288069E+002
 11
3.3718791E+002
 21
4.6433705E+002
  0
LINE
  8
1
  6
CONTINUOUS
 62
1
 10
3.3718791E+002
 20
4.6433705E+002
 11
3.3755199E+002
 21
4.6433705E+002
  0
ARC
  8
1
  6
CONTINUOUS
 62
1
 10
3.37552E+002
 20
4.6419141E+002
 40
1.4564103E-001
 50
3.5999962E+002
 51
4.5000117E+002
  0
LINE
  8
1
  6
CONTINUOUS
 62
1
 10
3.3769764E+002
 20
4.6419141E+002
 11
3.3769763E+002
 21
4.6302633E+002
  0
ARC
  8
1
  6
CONTINUOUS
 62
1
 10
3.3769763E+002
 20
4.6317195E+002
 40
8.0100178E-001
 50
2.7000056E+002
 51
3.6000045E+002
  0
LINE
  8
1
  6
CONTINUOUS
 62
1
 10
3.3769763E+002
 20
4.6237095E+002
 11
3.3638691E+002
 21
4.6237095E+002
  0
LINE
  8
1
  6
CONTINUOUS
 62
1
 10
3.3638691E+002
 20
4.6237095E+002
 11
3.3638691E+002
 21
4.6484677E+002
  0
LINE
  8
1
  6
CONTINUOUS
 62
1
 10
3.3638691E+002
 20
4.6484677E+002
 11
3.3769763E+002
 21
4.6484677E+002
  0
ARC
  8
1
  6
CONTINUOUS
 62
1
 10
3.3769764E+002
 20
4.6404577E+002
 40
8.0099772E-001
 50
1.233929E-004
 51
9.000002E+001
  0
LINE
  8
1
  6
CONTINUOUS
 62
1
 10
3.3849863E+002
 20
4.6404577E+002
 11
3.3849863E+002
 21
4.6317196E+002
  0
ARC
  8
1
  6
CONTINUOUS
 62
1
 10
3.4010062E+002
 20
4.6324476E+002
 40
8.7380894E-001
 50
2.7000019E+002
 51
3.6000046E+002
  0
LINE
  8
1
  6
CONTINUOUS
 62
1
 10
3.4010062E+002
 20
4.6237095E+002
 11
3.3966372E+002
 21
4.6237095E+002
  0
ARC
  8
1
  6
CONTINUOUS
 62
1
 10
3.3966372E+002
 20
4.6324477E+002
 40
8.7381957E-001
 50
1.8000023E+002
 51
2.7000016E+002
  0
LINE
  8
1
  6
CONTINUOUS
 62
1
 10
3.387899E+002
 20
4.6324477E+002
 11
3.387899E+002
 21
4.6397294E+002
  0
ARC
  8
1
  6
CONTINUOUS
 62
1
 10
3.3966372E+002
 20
4.6397295E+002
 40
8.7382452E-001
 50
9.0000165E+001
 51
1.800001E+002
  0
LINE
  8
1
  6
CONTINUOUS
 62
1
 10
3.3966372E+002
 20
4.6484677E+002
 11
3.4010062E+002
 21
4.6484677E+002
  0
ARC
  8
1
  6
CONTINUOUS
 62
1
 10
3.4010062E+002
 20
4.6397295E+002
 40
8.7382413E-001
 50
3.5999988E+002
 51
4.4999973E+002
  0
LINE
  8
1
  6
CONTINUOUS
 62
1
 10
3.4097445E+002
 20
4.6397294E+002
 11
3.4097443E+002
 21
4.6324477E+002
  0
ARC
  8
1
  6
CONTINUOUS
 62
1
 10
3.3990765E+002
 20
4.6312827E+002
 40
2.4758329E-001
 50
2.7000169E+002
 51
3.6000202E+002
  0
LINE
  8
1
  6
CONTINUOUS
 62
1
 10
3.3990766E+002
 20
4.6288069E+002
 11
3.3985669E+002
 21
4.6288069E+002
  0
ARC
  8
1
  6
CONTINUOUS
 62
1
 10
3.398567E+002
 20
4.6312827E+002
 40
2.4758085E-001
 50
1.7999742E+002
 51
2.6999795E+002
  0
LINE
  8
1
  6
CONTINUOUS
 62
1
 10
3.3960911E+002
 20
4.6312828E+002
 11
3.3960911E+002
 21
4.6408946E+002
  0
ARC
  8
1
  6
CONTINUOUS
 62
1
 10
3.3985669E+002
 20
4.6408947E+002
 40
2.4757646E-001
 50
9.0001031E+001
 51
1.8000128E+002
  0
LINE
  8
1
  6
CONTINUOUS
 62
1
 10
3.3985669E+002
 20
4.6433705E+002
 11
3.3990766E+002
 21
4.6433705E+002
  0
ARC
  8
1
  6
CONTINUOUS
 62
1
 10
3.3990765E+002
 20
4.6408947E+002
 40
2.475789E-001
 50
3.5999928E+002
 51
4.4999887E+002
  0
LINE
  8
1
  6
CONTINUOUS
 62
1
 10
3.4015523E+002
 20
4.6408946E+002
 11
3.4015524E+002
 21
4.6312828E+002
  0
LINE
  8
1
  6
CONTINUOUS
 62
1
 10
3.412657E+002
 20
4.6237096E+002
 11
3.412657E+002
 21
4.6484677E+002
  0
LINE
  8
1
  6
CONTINUOUS
 62
1
 10
3.412657E+002
 20
4.6484677E+002
 11
3.4272207E+002
 21
4.6484677E+002
  0
ARC
  8
1
  6
CONTINUOUS
 62
1
 10
3.4272207E+002
 20
4.641186E+002
 40
7.28174E-001
 50
0.0
 51
9.0E+001
  0
ARC
  8
1
  6
CONTINUOUS
 62
1
 10
3.4265057E+002
 20
4.6411791E+002
 40
7.9967665E-001
 50
3.4224226E+002
 51
3.6004883E+002
  0
ARC
  8
1
  6
CONTINUOUS
 62
1
 10
3.4268475E+002
 20
4.6410646E+002
 40
7.6363285E-001
 50
3.2391577E+002
 51
3.4227867E+002
  0
ARC
  8
1
  6
CONTINUOUS
 62
1
 10
3.4271966E+002
 20
4.6408095E+002
 40
7.2039469E-001
 50
3.0482981E+002
 51
3.2392028E+002
  0
ARC
  8
1
  6
CONTINUOUS
 62
1
 10
3.4273868E+002
 20
4.6405437E+002
 40
6.8771727E-001
 50
2.8510322E+002
 51
3.0479328E+002
  0
LINE
  8
1
  6
CONTINUOUS
 62
1
 10
3.4291787E+002
 20
4.6339041E+002
 11
3.4345025E+002
 21
4.6237096E+002
  0
LINE
  8
1
  6
CONTINUOUS
 62
1
 10
3.4345025E+002
 20
4.6237096E+002
 11
3.4264925E+002
 21
4.6237096E+002
  0
LINE
  8
1
  6
CONTINUOUS
 62
1
 10
3.4264925E+002
 20
4.6237096E+002
 11
3.4224147E+002
 21
4.6339041E+002
  0
LINE
  8
1
  6
CONTINUOUS
 62
1
 10
3.4224147E+002
 20
4.6339041E+002
 11
3.4199389E+002
 21
4.6339041E+002
  0
LINE
  8
1
  6
CONTINUOUS
 62
1
 10
3.4199389E+002
 20
4.6339041E+002
 11
3.4199389E+002
 21
4.6237096E+002
  0
LINE
  8
1
  6
CONTINUOUS
 62
1
 10
3.4199389E+002
 20
4.6237096E+002
 11
3.412657E+002
 21
4.6237096E+002
  0
ARC
  8
1
  6
CONTINUOUS
 62
1
 10
3.4232884E+002
 20
4.640931E+002
 40
2.47581E-001
 50
2.7000116E+002
 51
3.6000023E+002
  0
LINE
  8
1
  6
CONTINUOUS
 62
1
 10
3.4232885E+002
 20
4.6384552E+002
 11
3.4199389E+002
 21
4.6384552E+002
  0
LINE
  8
1
  6
CONTINUOUS
 62
1
 10
3.4199389E+002
 20
4.6384552E+002
 11
3.4199389E+002
 21
4.6439166E+002
  0
LINE
  8
1
  6
CONTINUOUS
 62
1
 10
3.4199389E+002
 20
4.6439166E+002
 11
3.4232885E+002
 21
4.6439166E+002
  0
ARC
  8
1
  6
CONTINUOUS
 62
1
 10
3.4232886E+002
 20
4.6414408E+002
 40
2.475853E-001
 50
3.5999938E+002
 51
4.5000155E+002
  0
LINE
  8
1
  6
CONTINUOUS
 62
1
 10
3.4257644E+002
 20
4.6414407E+002
 11
3.4257642E+002
 21
4.640931E+002
  0
LINE
  8
1
  6
CONTINUOUS
 62
1
 10
3.444697E+002
 20
4.6237096E+002
 11
3.4374152E+002
 21
4.6237096E+002
  0
LINE
  8
1
  6
CONTINUOUS
 62
1
 10
3.4374152E+002
 20
4.6237096E+002
 11
3.4374152E+002
 21
4.6484677E+002
  0
LINE
  8
1
  6
CONTINUOUS
 62
1
 10
3.4374152E+002
 20
4.6484677E+002
 11
3.449066E+002
 21
4.6484677E+002
  0
LINE
  8
1
  6
CONTINUOUS
 62
1
 10
3.449066E+002
 20
4.6484677E+002
 11
3.4522701E+002
 21
4.6339041E+002
  0
LINE
  8
1
  6
CONTINUOUS
 62
1
 10
3.4522701E+002
 20
4.6339041E+002
 11
3.4527069E+002
 21
4.6339041E+002
  0
LINE
  8
1
  6
CONTINUOUS
 62
1
 10
3.4527069E+002
 20
4.6339041E+002
 11
3.4531438E+002
 21
4.6339041E+002
  0
LINE
  8
1
  6
CONTINUOUS
 62
1
 10
3.4531438E+002
 20
4.6339041E+002
 11
3.4563479E+002
 21
4.6484677E+002
  0
LINE
  8
1
  6
CONTINUOUS
 62
1
 10
3.4563479E+002
 20
4.6484677E+002
 11
3.4679987E+002
 21
4.6484677E+002
  0
LINE
  8
1
  6
CONTINUOUS
 62
1
 10
3.4679987E+002
 20
4.6484677E+002
 11
3.4679987E+002
 21
4.6237096E+002
  0
LINE
  8
1
  6
CONTINUOUS
 62
1
 10
3.4679987E+002
 20
4.6237096E+002
 11
3.4607169E+002
 21
4.6237096E+002
  0
LINE
  8
1
  6
CONTINUOUS
 62
1
 10
3.4607169E+002
 20
4.6237096E+002
 11
3.4607169E+002
 21
4.6419141E+002
  0
LINE
  8
1
  6
CONTINUOUS
 62
1
 10
3.4607169E+002
 20
4.6419141E+002
 11
3.4599888E+002
 21
4.6419141E+002
  0
LINE
  8
1
  6
CONTINUOUS
 62
1
 10
3.4599888E+002
 20
4.6419141E+002
 11
3.4559837E+002
 21
4.6237096E+002
  0
LINE
  8
1
  6
CONTINUOUS
 62
1
 10
3.4559837E+002
 20
4.6237096E+002
 11
3.44943E+002
 21
4.6237096E+002
  0
LINE
  8
1
  6
CONTINUOUS
 62
1
 10
3.44943E+002
 20
4.6237096E+002
 11
3.4454251E+002
 21
4.6419141E+002
  0
LINE
  8
1
  6
CONTINUOUS
 62
1
 10
3.4454251E+002
 20
4.6419141E+002
 11
3.444697E+002
 21
4.6419141E+002
  0
LINE
  8
1
  6
CONTINUOUS
 62
1
 10
3.444697E+002
 20
4.6419141E+002
 11
3.444697E+002
 21
4.6237096E+002
  0
ARC
  8
1
  6
CONTINUOUS
 62
1
 10
3.4258721E+002
 20
4.7896455E+002
 40
1.188865E+001
 50
2.3080517E+002
 51
2.6231292E+002
  0
LINE
  8
1
  6
CONTINUOUS
 62
1
 10
3.3507406E+002
 20
4.6975083E+002
 11
3.3634569E+002
 21
4.6529259E+002
  0
LINE
  8
1
  6
CONTINUOUS
 62
1
 10
3.3634569E+002
 20
4.6529259E+002
 11
3.3728003E+002
 21
4.6529259E+002
  0
LINE
  8
1
  6
CONTINUOUS
 62
1
 10
3.3728003E+002
 20
4.6529259E+002
 11
3.3665345E+002
 21
4.6747773E+002
  0
ARC
  8
1
  6
CONTINUOUS
 62
1
 10
3.4258724E+002
 20
4.7896454E+002
 40
1.2928906E+001
 50
2.4268027E+002
 51
2.6043321E+002
  0
ARC
  8
1
  6
CONTINUOUS
 62
1
 10
3.4258715E+002
 20
4.7896455E+002
 40
1.2928905E+001
 50
2.6043361E+002
 51
2.6471382E+002
  0
LINE
  8
1
  6
CONTINUOUS
 62
1
 10
3.4139601E+002
 20
4.6609063E+002
 11
3.4258723E+002
 21
4.6815387E+002
  0
LINE
  8
1
  6
CONTINUOUS
 62
1
 10
3.4258723E+002
 20
4.6815387E+002
 11
3.4377845E+002
 21
4.6609063E+002
  0
ARC
  8
1
  6
CONTINUOUS
 62
1
 10
3.4258723E+002
 20
4.7896454E+002
 40
1.2928903E+001
 50
2.752865E+002
 51
2.9731966E+002
  0
LINE
  8
1
  6
CONTINUOUS
 62
1
 10
3.4852101E+002
 20
4.6747773E+002
 11
3.4789443E+002
 21
4.6529259E+002
  0
LINE
  8
1
  6
CONTINUOUS
 62
1
 10
3.4789443E+002
 20
4.6529259E+002
 11
3.4882877E+002
 21
4.6529259E+002
  0
LINE
  8
1
  6
CONTINUOUS
 62
1
 10
3.4882877E+002
 20
4.6529259E+002
 11
3.5010039E+002
 21
4.6975083E+002
  0
ARC
  8
1
  6
CONTINUOUS
 62
1
 10
3.4258725E+002
 20
4.7896455E+002
 40
1.1888649E+001
 50
2.7768709E+002
 51
3.0919484E+002
  0
LINE
  8
1
  6
CONTINUOUS
 62
1
 10
3.4417751E+002
 20
4.6718274E+002
 11
3.4258723E+002
 21
4.6993717E+002
  0
LINE
  8
1
  6
CONTINUOUS
 62
1
 10
3.4258723E+002
 20
4.6993717E+002
 11
3.4099695E+002
 21
4.6718274E+002
  0
ARC
  8
1
  6
SHORT_DASH
 62
3
 10
3.4258723E+002
 20
2.6586276E+002
 40
1.0E+001
 50
1.8E+002
 51
3.6E+002
  0
ARC
  8
1
  6
SHORT_DASH
 62
3
 10
3.426181E+002
 20
4.8086276E+002
 40
1.0000048E+001
 50
0.0
 51
1.8E+002
  0
DIMENSION
  8
1
  6
CONTINUOUS
 62
4
  2
*D1253
  3
DSTYLE2
 10
3.5268723E+002
 20
2.3986525E+002
 11
3.4258723E+002
 21
2.4519845E+002
 70
128
 13
3.3248723E+002
 23
2.570375E+002
 14
3.5268723E+002
 24
2.5659636E+002
 40
3.0
 50
0.0
1001
ACAD
1000
DSTYLE
1002
{
1070
173
1070
0
1070
5
1000
_AH13
1002
}
  0
LINE
  8
1
  6
CONTINUOUS
 62
40
 10
1.5199579E+002
 20
1.8590359E+002
 11
1.5499579E+002
 21
1.8590359E+002
  0
LINE
  8
1
  6
CONTINUOUS
 62
40
 10
1.5199579E+002
 20
1.6590359E+002
 11
1.5499579E+002
 21
1.6590359E+002
  0
DIMENSION
  8
1
  6
CONTINUOUS
 62
4
  2
*D1273
  3
DSTYLE2
 10
2.5299779E+002
 20
4.3885524E+002
 11
2.4766459E+002
 21
4.158115E+002
 70
128
 13
2.3200024E+002
 23
3.9285524E+002
 14
2.1124579E+002
 24
4.3885524E+002
 40
3.0
 50
9.0E+001
1001
ACAD
1000
DSTYLE
1002
{
1070
173
1070
0
1070
5
1000
_AH13
1002
}
  0
DIMENSION
  8
1
  6
CONTINUOUS
 62
4
  2
*D1274
  3
DSTYLE3
 10
2.5299603E+002
 20
3.9285524E+002
 11
2.4766283E+002
 21
3.8210524E+002
 70
128
 13
2.1124579E+002
 23
3.7135524E+002
 14
2.3200024E+002
 24
3.9285524E+002
 40
3.0
 50
9.0E+001
1001
ACAD
1000
DSTYLE
1002
{
1070
173
1070
0
1070
5
1000
_AH13
1002
}
  0
DIMENSION
  8
1
  6
CONTINUOUS
 62
4
  2
*D1289
  3
DSTYLE4
 10
2.6425732E+002
 20
3.2085524E+002
 11
2.5842432E+002
 21
3.3497004E+002
 70
128
 13
2.3062546E+002
 23
3.1285524E+002
 14
2.1255329E+002
 24
3.2085524E+002
 40
3.0
 50
9.0E+001
1001
ACAD
1000
DSTYLE
1002
{
1070
173
1070
0
1070
5
1000
_AH13
1002
}
  0
DIMENSION
  8
1
  6
CONTINUOUS
 62
4
  2
*D1302
  3
DSTYLE2
 10
2.7435945E+002
 20
3.9285524E+002
 11
2.6902625E+002
 21
3.5231864E+002
 70
128
 13
2.4393437E+002
 23
3.2085524E+002
 14
2.4458819E+002
 24
3.9285524E+002
 40
3.0
 50
9.0E+001
1001
ACAD
1000
DSTYLE
1002
{
1070
173
1070
0
1070
5
1000
_AH13
1002
}
  0
DIMENSION
  8
1
  6
CONTINUOUS
 62
4
  2
*D1312
  3
DSTYLE5
 10
2.9569779E+002
 20
4.5585524E+002
 11
2.9016479E+002
 21
3.7351079E+002
 70
128
 13
2.16801E+002
 23
2.9085524E+002
 14
2.449151E+002
 24
4.5585524E+002
 40
3.0
 50
9.0E+001
1001
ACAD
1000
DSTYLE
1002
{
1070
173
1070
0
1070
5
1000
_AH13
1002
}
  0
DIMENSION
  8
1
  6
CONTINUOUS
 62
4
  2
*D1326
  3
DSTYLE2
 10
1.1799603E+002
 20
3.5770524E+002
 11
1.1266283E+002
 21
3.3940045E+002
 70
128
 13
1.3291955E+002
 23
3.2000524E+002
 14
1.3336443E+002
 24
3.5770524E+002
 40
3.0
 50
9.0E+001
1001
ACAD
1000
DSTYLE
1002
{
1070
173
1070
0
1070
5
1000
_AH13
1002
}
  0
DIMENSION
  8
1
  6
CONTINUOUS
 62
4
  2
*D1347
  3
DSTYLE2
 10
9.470998E+001
 20
4.9086276E+002
 11
8.937678E+001
 21
3.7868815E+002
 70
128
 13
1.5199579E+002
 23
2.5585524E+002
 14
1.5199579E+002
 24
4.9086276E+002
 40
3.0
 50
9.0E+001
1001
ACAD
1000
DSTYLE
1002
{
1070
173
1070
0
1070
5
1000
_AH13
1002
}
  0
DIMENSION
  8
1
  6
CONTINUOUS
 62
4
  2
*D1356
  3
DSTYLE2
 10
1.8799579E+002
 20
2.5909604E+002
 11
2.0673876E+002
 21
2.6442924E+002
 70
128
 13
2.2599579E+002
 23
3.0760343E+002
 14
1.8799579E+002
 24
3.0747849E+002
 40
3.0
 50
0.0
1001
ACAD
1000
DSTYLE
1002
{
1070
173
1070
0
1070
5
1000
_AH13
1002
}
  0
TEXT
  8
1
  6
CONTINUOUS
 62
160
 10
5.4390699E+001
 20
5.6852205E+002
 40
4.5
  1
Empfohlenes Schliessblech Nr. 21
 41
6.6774196E-001
 72
1
 11
1.0246812E+002
 21
5.7077205E+002
 73
2
  0
TEXT
  8
1
  6
CONTINUOUS
 62
221
 10
5.415005E+001
 20
5.6093886E+002
 40
4.5
  1
recommended strike plate number 21
 41
6.6774196E-001
 72
1
 11
1.0523231E+002
 21
5.6318886E+002
 73
2
  0
LINE
  8
1
  6
CONTINUOUS
 62
3
 10
4.6199856E+001
 20
5.6234107E+002
 11
4.6199856E+001
 21
5.703252E+002
  0
LINE
  8
1
  6
CONTINUOUS
 62
3
 10
4.6199856E+001
 20
5.703252E+002
 11
5.0832881E+001
 21
5.6646215E+002
  0
LINE
  8
1
  6
CONTINUOUS
 62
3
 10
5.0832881E+001
 20
5.6646215E+002
 11
4.6199856E+001
 21
5.6234107E+002
  0
DIMENSION
  8
1
  6
CONTINUOUS
 62
4
  2
*D1366
  3
DSTYLE2
 10
2.0699579E+002
 20
2.3111609E+002
 11
2.2210642E+002
 21
2.3644929E+002
 70
128
 13
2.3699579E+002
 23
3.1831526E+002
 14
2.0699579E+002
 24
2.3149359E+002
 40
3.0
 50
0.0
1001
ACAD
1000
DSTYLE
1002
{
1070
173
1070
0
1070
5
1000
_AH13
1002
}
  0
INSERT
  2
*XH62
  8
1
 10
4.8169333E+001
 20
5.6507139E+002
  0
LINE
  8
1
  6
CONTINUOUS
 62
40
 10
1.5199579E+002
 20
3.5770524E+002
 11
1.5199579E+002
 21
3.2000524E+002
  0
DIMENSION
  8
1
  6
CONTINUOUS
 62
4
  1
8
  2
*D1378
  3
DSTYLE6
 10
2.1124579E+002
 20
4.638375E+002
 11
2.2212361E+002
 21
4.703395E+002
 70
129
 13
2.0274579E+002
 23
4.3885524E+002
 14
2.1124579E+002
 24
4.3885524E+002
 40
1.0E+001
1001
ACAD
1000
DSTYLE
1002
{
1070
173
1070
0
1070
5
1000
_AH13
1002
}
  0
DIMENSION
  8
1
  6
CONTINUOUS
 62
4
  2
*D1379
  3
DSTYLE1
 10
2.0699579E+002
 20
2.3114452E+002
 11
1.9608564E+002
 21
2.3734652E+002
 70
128
 13
1.5199579E+002
 23
2.5585524E+002
 14
2.0699579E+002
 24
2.8910064E+002
 40
1.0E+001
 50
0.0
1001
ACAD
1000
DSTYLE
1002
{
1070
173
1070
0
1070
5
1000
_AH13
1002
}
  0
LINE
  8
1
  6
CONTINUOUS
 62
40
 10
1.5499579E+002
 20
4.7511276E+002
 11
1.5499579E+002
 21
4.670819E+002
  0
LINE
  8
1
  6
CONTINUOUS
 62
40
 10
1.5499579E+002
 20
4.670819E+002
 11
1.5499579E+002
 21
2.5585524E+002
  0
INSERT
  2
*XH72
  8
1
 10
1.5349579E+002
 20
4.682917E+002
  0
DIMENSION
  8
1
  6
CONTINUOUS
 62
4
  2
*D1387
  3
DSTYLE7
 10
1.41984E+002
 20
4.9187456E+002
 11
1.3298012E+002
 21
4.7786276E+002
 70
130
 13
1.41984E+002
 23
4.6385097E+002
 14
1.5199579E+002
 24
4.7386276E+002
 15
1.5199579E+002
 25
4.8186276E+002
 16
1.3918012E+002
 26
4.7786276E+002
1001
ACAD
1000
DSTYLE
1002
{
1070
173
1070
0
1070
5
1000
_AH13
1002
}
  0
CIRCLE
  8
1
  6
CONTINUOUS
 62
40
 10
1.7945106E+002
 20
2.3808756E+002
 40
4.8727481
  0
TEXT
  8
1
  6
CONTINUOUS
 62
221
 10
1.7702106E+002
 20
2.3565756E+002
 40
4.86
  1
X
 72
1
 11
1.7945106E+002
 21
2.3808756E+002
 73
2
  0
DIMENSION
  8
1
  6
CONTINUOUS
 62
4
  1
24
  2
*D1399
  3
DSTYLE2
 10
3.3248723E+002
 20
2.270913E+002
 11
3.4258723E+002
 21
2.324245E+002
 70
128
 13
3.5268723E+002
 23
2.3986276E+002
 14
3.3248723E+002
 24
2.3986276E+002
 40
3.0
 50
0.0
1001
ACAD
1000
DSTYLE
1002
{
1070
173
1070
0
1070
5
1000
_AH13
1002
}
  0
DIMENSION
  8
1
  6
CONTINUOUS
 62
4
  2
*D1408
  3
DSTYLE2
 10
1.5199579E+002
 20
2.4233525E+002
 11
1.4118579E+002
 21
2.4766845E+002
 70
128
 13
1.5499579E+002
 23
2.5585524E+002
 14
1.5199579E+002
 24
2.5302316E+002
 40
3.0
 50
0.0
1001
ACAD
1000
DSTYLE
1002
{
1070
173
1070
0
1070
5
1000
_AH13
1002
}
  0
DIMENSION
  8
1
  6
CONTINUOUS
 62
4
  2
*D1420
  3
DSTYLE2
 10
2.6367603E+002
 20
3.9285524E+002
 11
2.5834283E+002
 21
4.234115E+002
 70
128
 13
2.2102109E+002
 23
4.5585524E+002
 14
2.5703402E+002
 24
3.9285524E+002
 40
3.0
 50
9.0E+001
1001
ACAD
1000
DSTYLE
1002
{
1070
173
1070
0
1070
5
1000
_AH13
1002
}
  0
DIMENSION
  8
1
  6
CONTINUOUS
 62
4
  2
*D1429
  3
DSTYLE2
 10
2.7432995E+002
 20
3.9284221E+002
 11
2.6899675E+002
 21
4.3157316E+002
 70
128
 13
1.5876349E+002
 23
4.7786276E+002
 14
2.6368276E+002
 24
3.9284221E+002
 40
3.0
 50
9.0E+001
1001
ACAD
1000
DSTYLE
1002
{
1070
173
1070
0
1070
5
1000
_AH13
1002
}
  0
DIMENSION
  8
1
  6
CONTINUOUS
 62
4
  2
*D1438
  3
DSTYLE2
 10
2.8507603E+002
 20
3.9285524E+002
 11
2.7974283E+002
 21
4.409115E+002
 70
128
 13
1.5499579E+002
 23
4.9086276E+002
 14
2.7437248E+002
 24
3.9285524E+002
 40
3.0
 50
9.0E+001
1001
ACAD
1000
DSTYLE
1002
{
1070
173
1070
0
1070
5
1000
_AH13
1002
}
  0
DIMENSION
  8
1
  6
CONTINUOUS
 62
4
  2
*D1448
  3
DSTYLE2
 10
1.7757954E+002
 20
3.8885524E+002
 11
1.7224634E+002
 21
3.7882909E+002
 70
128
 13
1.8799579E+002
 23
3.9685524E+002
 14
1.8799579E+002
 24
3.8885524E+002
 40
3.0
 50
9.0E+001
1001
ACAD
1000
DSTYLE
1002
{
1070
173
1070
0
1070
5
1000
_AH13
1002
}
  0
DIMENSION
  8
1
  6
CONTINUOUS
 62
4
  2
*D1472
  3
DSTYLE2
 10
1.1799541E+002
 20
3.9285524E+002
 11
1.1266221E+002
 21
3.7414999E+002
 70
128
 13
1.1799579E+002
 23
3.5770524E+002
 14
1.8399579E+002
 24
3.9285524E+002
 40
3.0
 50
9.0E+001
1001
ACAD
1000
DSTYLE
1002
{
1070
173
1070
0
1070
5
1000
_AH13
1002
}
  0
DIMENSION
  8
1
  6
CONTINUOUS
 62
4
  2
*D1487
  3
DSTYLE2
 10
1.0630166E+002
 20
4.7786276E+002
 11
1.0096846E+002
 21
3.6114345E+002
 70
128
 13
1.4837122E+002
 23
2.6876439E+002
 14
1.4809457E+002
 24
4.7786276E+002
 40
3.0
 50
9.0E+001
1001
ACAD
1000
DSTYLE
1002
{
1070
173
1070
0
1070
5
1000
_AH13
1002
}
  0
DIMENSION
  8
1
  6
CONTINUOUS
 62
4
  2
*D1505
  3
DSTYLE2
 10
1.8799579E+002
 20
4.207697E+002
 11
2.0756935E+002
 21
4.261029E+002
 70
128
 13
2.2599579E+002
 23
3.9685524E+002
 14
1.8799579E+002
 24
3.9685524E+002
 40
3.0
 50
0.0
1001
ACAD
1000
DSTYLE
1002
{
1070
173
1070
0
1070
5
1000
_AH13
1002
}
  0
DIMENSION
  8
1
  6
CONTINUOUS
 62
4
  2
*D1515
  3
DSTYLE3
 10
1.680417E+002
 20
4.8061276E+002
 11
1.627085E+002
 21
4.9786023E+002
 70
128
 13
1.5395405E+002
 23
4.7511276E+002
 14
1.5395405E+002
 24
4.8061276E+002
 40
3.0
 50
9.0E+001
1001
ACAD
1000
DSTYLE
1002
{
1070
173
1070
0
1070
5
1000
_AH13
1002
}
  0
DIMENSION
  8
1
  6
CONTINUOUS
 62
4
  2
*D1517
  3
DSTYLE1
 10
3.4658723E+002
 20
3.6674212E+002
 11
3.4258723E+002
 21
3.7294412E+002
 70
128
 13
3.3858723E+002
 23
3.5780524E+002
 14
3.4658723E+002
 24
3.5780524E+002
 40
1.0E+001
 50
0.0
1001
ACAD
1000
DSTYLE
1002
{
1070
173
1070
0
1070
5
1000
_AH13
1002
}
  0
LINE
  8
1
  6
CENTERLINE
 62
1
 10
3.4258723E+002
 20
3.8093251E+002
 11
3.4258723E+002
 21
4.5806465E+002
  0
LINE
  8
1
  6
CONTINUOUS
 62
150
 10
2.03199E+002
 20
3.2349549E+002
 11
1.8966769E+002
 21
3.2936757E+002
  0
TEXT
  8
1
  6
CONTINUOUS
 62
150
 10
1.7937181E+002
 20
3.2644235E+002
 40
7.0
  1
PZ
 41
8.0E-001
  0
DIMENSION
  8
1
  6
CONTINUOUS
 62
4
  2
*D1527
  3
DSTYLE2
 10
1.2629885E+002
 20
4.817552E+002
 11
1.2096565E+002
 21
4.7780898E+002
 70
128
 13
1.5199579E+002
 23
4.7386276E+002
 14
1.5199579E+002
 24
4.817552E+002
 40
3.0
 50
9.0E+001
1001
ACAD
1000
DSTYLE
1002
{
1070
173
1070
0
1070
5
1000
_AH13
1002
}
  0
LINE
  8
1
  6
CONTINUOUS
 62
4
 10
1.5499716E+002
 20
2.423351E+002
 11
1.5199516E+002
 21
2.423351E+002
  0
LINE
  8
1
  6
CONTINUOUS
 62
4
 10
1.6804602E+002
 20
4.8059997E+002
 11
1.6804602E+002
 21
4.7510674E+002
  0
DIMENSION
  8
1
  6
CONTINUOUS
 62
4
  2
*D1546
  3
DSTYLE2
 10
1.8399579E+002
 20
2.9775135E+002
 11
1.7369661E+002
 21
3.0308455E+002
 70
128
 13
1.9199579E+002
 23
3.1335524E+002
 14
1.8399579E+002
 24
3.1335524E+002
 40
3.0
 50
0.0
1001
ACAD
1000
DSTYLE
1002
{
1070
173
1070
0
1070
5
1000
_AH13
1002
}
  0
LINE
  8
1
  6
CENTERLINE
 62
1
 10
1.9329231E+002
 20
3.1335397E+002
 11
1.8176158E+002
 21
3.1335397E+002
  0
LINE
  8
1
  6
CENTERLINE
 62
1
 10
1.931872E+002
 20
3.1235668E+002
 11
1.8202632E+002
 21
3.1235668E+002
  0
LINE
  8
1
  6
CONTINUOUS
 62
4
 10
1.83981E+002
 20
2.9775083E+002
 11
1.9199412E+002
 21
2.9775083E+002
  0
LINE
  8
1
  6
CONTINUOUS
 62
4
 10
1.7757953E+002
 20
3.9684886E+002
 11
1.7757953E+002
 21
3.8884878E+002
  0
DIMENSION
  8
1
  6
CONTINUOUS
 62
4
  2
*D1558
  3
DSTYLE2
 10
1.6906808E+002
 20
3.1335397E+002
 11
1.6373488E+002
 21
3.2488255E+002
 70
128
 13
1.8202632E+002
 23
3.1235668E+002
 14
1.8176158E+002
 24
3.1335397E+002
 40
3.0
 50
9.0E+001
1001
ACAD
1000
DSTYLE
1002
{
1070
173
1070
0
1070
5
1000
_AH13
1002
}
  0
LINE
  8
1
  6
CENTERLINE
 62
1
 10
2.1385363E+002
 20
3.2085524E+002
 11
2.0001434E+002
 21
3.2085524E+002
  0
DIMENSION
  8
1
  6
CONTINUOUS
 62
4
  2
*D2213
  3
DSTYLE11
 10
2.1559595E+002
 20
3.3773074E+002
 11
2.0657537E+002
 21
3.4318274E+002
 70
129
 13
1.9839563E+002
 23
3.2085524E+002
 14
2.1559595E+002
 24
3.2085524E+002
 40
7.5
1001
ACAD
1000
DSTYLE
1002
{
1070
173
1070
0
1070
5
1000
_AH13
1002
}
  0
DIMENSION
  8
1
  6
CONTINUOUS
 62
4
  1
33,7
  2
*D2215
  3
DSTYLE11
 10
2.5384048E+002
 20
2.9575476E+002
 11
2.4838848E+002
 21
3.1060244E+002
 70
128
 13
2.0699579E+002
 23
3.294554E+002
 14
2.0699579E+002
 24
2.9575476E+002
 40
7.5
 50
9.0E+001
1001
ACAD
1000
DSTYLE
1002
{
1070
173
1070
0
1070
5
1000
_AH13
1002
}
  0
DIMENSION
  8
1
  6
CONTINUOUS
 62
4
  2
*D2216
  3
DSTYLE12
 10
1.475832E+002
 20
3.107965E+002
 11
1.4060656E+002
 21
3.0135487E+002
 70
130
 13
1.4758319E+002
 23
2.9191324E+002
 14
1.5193762E+002
 24
2.9626767E+002
 15
1.518823E+002
 25
3.0649739E+002
 16
1.4517234E+002
 26
3.0135487E+002
1001
ACAD
1000
DSTYLE
1002
{
1070
173
1070
0
1070
5
1000
_AH13
1002
}
  0
DIMENSION
  8
1
  6
CONTINUOUS
 62
4
  2
*D2217
  3
DSTYLE13
 10
1.3452875E+002
 20
2.9635477E+002
 11
1.2996096E+002
 21
3.0135487E+002
 70
128
 13
1.5338693E+002
 23
3.0635496E+002
 14
1.5319562E+002
 24
2.9635477E+002
 40
3.0
 50
9.0E+001
1001
ACAD
1000
DSTYLE
1002
{
1070
173
1070
0
1070
5
1000
_AH13
1002
}
  0
LINE
  8
1
  6
CENTERLINE
 62
1
 10
1.4991294E+002
 20
3.0135487E+002
 11
1.5666044E+002
 21
3.0135487E+002
  0
LINE
  8
1
  6
CONTINUOUS
 62
40
 10
1.539906E+002
 20
3.0435493E+002
 11
1.5199056E+002
 21
3.0635496E+002
  0
LINE
  8
1
  6
CONTINUOUS
 62
40
 10
1.539906E+002
 20
2.9835481E+002
 11
1.539906E+002
 21
3.0435493E+002
  0
LINE
  8
1
  6
CONTINUOUS
 62
40
 10
1.539906E+002
 20
2.9835481E+002
 11
1.5199056E+002
 21
2.9635477E+002
  0
LINE
  8
1
  6
CONTINUOUS
 62
1
 10
1.5199056E+002
 20
2.9271859E+002
 11
1.5199056E+002
 21
2.9635477E+002
  0
ARC
  8
1
  6
CONTINUOUS
 62
1
 10
1.5278814E+002
 20
2.9284592E+002
 40
8.0768059E-001
 50
1.8907037E+002
 51
2.8234439E+002
  0
ARC
  8
1
  6
CONTINUOUS
 62
1
 10
1.5278814E+002
 20
2.9284592E+002
 40
8.0767278E-001
 50
2.8234427E+002
 51
3.1425728E+002
  0
ARC
  8
1
  6
CONTINUOUS
 62
1
 10
1.5421402E+002
 20
2.9139033E+002
 40
1.2299438
 50
1.2781063E+002
 51
1.345089E+002
  0
ARC
  8
1
  6
CONTINUOUS
 62
1
 10
1.5398767E+002
 20
2.91678E+002
 40
8.6391368E-001
 50
1.2341442E+002
 51
1.2764734E+002
  0
ARC
  8
1
  6
CONTINUOUS
 62
1
 10
1.5387995E+002
 20
2.9184174E+002
 40
6.6791334E-001
 50
1.1841107E+002
 51
1.2343643E+002
  0
ARC
  8
1
  6
CONTINUOUS
 62
1
 10
1.5380558E+002
 20
2.919797E+002
 40
5.1118193E-001
 50
1.1242957E+002
 51
1.1843593E+002
  0
ARC
  8
1
  6
CONTINUOUS
 62
1
 10
1.5375979E+002
 20
2.9209105E+002
 40
3.9078283E-001
 50
1.0526913E+002
 51
1.1245305E+002
  0
ARC
  8
1
  6
CONTINUOUS
 62
1
 10
1.5373673E+002
 20
2.9217574E+002
 40
3.0301168E-001
 50
9.6770697E+001
 51
1.0528134E+002
  0
ARC
  8
1
  6
CONTINUOUS
 62
1
 10
1.537297E+002
 20
2.9223448E+002
 40
2.4385306E-001
 50
8.6920967E+001
 51
9.6755677E+001
  0
ARC
  8
1
  6
CONTINUOUS
 62
1
 10
1.5372566E+002
 20
2.9218204E+002
 40
2.9643721E-001
 50
7.990278E+001
 51
8.6687341E+001
  0
ARC
  8
1
  6
CONTINUOUS
 62
1
 10
1.5371723E+002
 20
2.9213476E+002
 40
3.4446245E-001
 50
7.3762019E+001
 51
7.9900654E+001
  0
ARC
  8
1
  6
CONTINUOUS
 62
1
 10
1.5368841E+002
 20
2.9204173E+002
 40
4.4184437E-001
 50
6.3138307E+001
 51
7.3546821E+001
  0
ARC
  8
1
  6
CONTINUOUS
 62
1
 10
1.5360781E+002
 20
2.9188105E+002
 40
6.2160875E-001
 50
5.4913499E+001
 51
6.3203194E+001
  0
ARC
  8
1
  6
CONTINUOUS
 62
1
 10
1.5347298E+002
 20
2.9168749E+002
 40
8.5749476E-001
 50
4.8287083E+001
 51
5.4975385E+001
  0
ARC
  8
1
  6
CONTINUOUS
 62
1
 10
1.54475E+002
 20
2.9281453E+002
 40
6.5057221E-001
 50
2.2845771E+002
 51
2.5841228E+002
  0
ARC
  8
1
  6
CONTINUOUS
 62
1
 10
1.5447499E+002
 20
2.9281452E+002
 40
6.5056144E-001
 50
2.5841245E+002
 51
3.2242708E+002
  0
LINE
  8
1
  6
CONTINUOUS
 62
1
 10
1.5499061E+002
 20
2.9835481E+002
 11
1.5499061E+002
 21
2.9241783E+002
  0
LINE
  8
1
  6
CONTINUOUS
 62
1
 10
1.539906E+002
 20
2.9835481E+002
 11
1.5499061E+002
 21
2.9835481E+002
  0
LINE
  8
1
  6
CONTINUOUS
 62
1
 10
1.5199056E+002
 20
2.9635477E+002
 11
1.539906E+002
 21
2.9835481E+002
  0
LINE
  8
1
  6
CONTINUOUS
 62
40
 10
1.5199056E+002
 20
2.9633742E+002
 11
1.5199056E+002
 21
3.0644188E+002
  0
LINE
  8
1
  6
CONTINUOUS
 62
40
 10
1.5199056E+002
 20
3.0644188E+002
 11
1.5199056E+002
 21
3.1530614E+002
  0
LINE
  8
1
  6
CONTINUOUS
 62
40
 10
1.5499061E+002
 20
3.0435493E+002
 11
1.539906E+002
 21
3.0435493E+002
  0
LINE
  8
1
  6
CONTINUOUS
 62
40
 10
1.5499061E+002
 20
2.9835481E+002
 11
1.539906E+002
 21
2.9835481E+002
  0
ARC
  8
1
  6
CONTINUOUS
 62
1
 10
1.542567E+002
 20
3.1498614E+002
 40
7.4198816E-001
 50
8.4621845
 51
1.0669435E+002
  0
ARC
  8
1
  6
CONTINUOUS
 62
1
 10
1.5425671E+002
 20
3.1498614E+002
 40
7.4199499E-001
 50
1.0669457E+002
 51
1.4068565E+002
  0
ARC
  8
1
  6
CONTINUOUS
 62
1
 10
1.5286749E+002
 20
3.1611839E+002
 40
1.0501901
 50
3.1354087E+002
 51
3.2091317E+002
  0
ARC
  8
1
  6
CONTINUOUS
 62
1
 10
1.5310459E+002
 20
3.1586689E+002
 40
7.045549E-001
 50
3.0402988E+002
 51
3.1365369E+002
  0
ARC
  8
1
  6
CONTINUOUS
 62
1
 10
1.5321546E+002
 20
3.1570634E+002
 40
5.0946266E-001
 50
2.9783452E+002
 51
3.0380013E+002
  0
ARC
  8
1
  6
CONTINUOUS
 62
1
 10
1.5326232E+002
 20
3.1561737E+002
 40
4.0890537E-001
 50
2.9094172E+002
 51
2.9784897E+002
  0
ARC
  8
1
  6
CONTINUOUS
 62
1
 10
1.5328972E+002
 20
3.1554568E+002
 40
3.3215874E-001
 50
2.8301409E+002
 51
2.9094745E+002
  0
ARC
  8
1
  6
CONTINUOUS
 62
1
 10
1.5330206E+002
 20
3.1549255E+002
 40
2.7760976E-001
 50
2.7406229E+002
 51
2.8300241E+002
  0
ARC
  8
1
  6
CONTINUOUS
 62
1
 10
1.5329509E+002
 20
3.156134E+002
 40
3.986511E-001
 50
2.5643789E+002
 51
2.7383182E+002
  0
ARC
  8
1
  6
CONTINUOUS
 62
1
 10
1.5330499E+002
 20
3.1565317E+002
 40
4.396422E-001
 50
2.4010186E+002
 51
2.5639813E+002
  0
ARC
  8
1
  6
CONTINUOUS
 62
1
 10
1.5333139E+002
 20
3.1569932E+002
 40
4.9280368E-001
 50
2.250134E+002
 51
2.4011552E+002
  0
ARC
  8
1
  6
CONTINUOUS
 62
1
 10
1.5336657E+002
 20
3.1573512E+002
 40
5.4299455E-001
 50
2.1090315E+002
 51
2.250589E+002
  0
ARC
  8
1
  6
CONTINUOUS
 62
1
 10
1.5247537E+002
 20
3.1520074E+002
 40
4.9613826E-001
 50
3.099727E+001
 51
8.9512888E+001
  0
ARC
  8
1
  6
CONTINUOUS
 62
1
 10
1.5247537E+002
 20
3.1520073E+002
 40
4.9613974E-001
 50
8.9512834E+001
 51
1.9226583E+002
  0
INSERT
  2
*XH120
  8
1
 10
1.5481475E+002
 20
2.9236081E+002
  0
INSERT
  2
*XH121
  8
1
 10
1.5444991E+002
 20
3.0497703E+002
  0
ARC
  8
1
  6
CONTINUOUS
 62
40
 10
2.0699579E+002
 20
3.0085486E+002
 40
5.1000957
 50
1.8E+002
 51
3.6E+002
  0
LINE
  8
1
  6
CONTINUOUS
 62
40
 10
2.1209588E+002
 20
3.0085486E+002
 11
2.1209588E+002
 21
3.1393051E+002
  0
ARC
  8
1
  6
CONTINUOUS
 62
40
 10
2.0699579E+002
 20
3.2085524E+002
 40
8.6001621
 50
3.0637184E+002
 51
5.9362816E+002
  0
LINE
  8
1
  6
CONTINUOUS
 62
40
 10
2.0189569E+002
 20
3.1393051E+002
 11
2.0189569E+002
 21
3.0085486E+002
  0
LINE
  8
1
  6
CENTERLINE
 62
1
 10
1.9889569E+002
 20
3.0085486E+002
 11
2.0189569E+002
 21
3.0085486E+002
  0
LINE
  8
1
  6
CENTERLINE
 62
1
 10
2.0189569E+002
 20
3.0085486E+002
 11
2.1209588E+002
 21
3.0085486E+002
  0
LINE
  8
1
  6
CENTERLINE
 62
1
 10
2.1209588E+002
 20
3.0085486E+002
 11
2.1509588E+002
 21
3.0085486E+002
  0
LINE
  8
1
  6
CENTERLINE
 62
1
 10
2.1711364E+002
 20
3.2085524E+002
 11
1.9426025E+002
 21
3.2085524E+002
  0
LINE
  8
1
  6
CENTERLINE
 62
1
 10
2.0699579E+002
 20
3.3228262E+002
 11
2.0699579E+002
 21
2.8785462E+002
  0
DIMENSION
  8
1
  6
CONTINUOUS
 62
4
  2
*D2271
  3
DSTYLE1
 10
2.1209588E+002
 20
2.7179269E+002
 11
2.2268935E+002
 21
2.7799469E+002
 70
128
 13
2.0189569E+002
 23
3.0085486E+002
 14
2.1209588E+002
 24
3.0085486E+002
 40
1.0E+001
 50
0.0
1001
ACAD
1000
DSTYLE
1002
{
1070
173
1070
0
1070
5
1000
_AH13
1002
}
  0
INSERT
  2
HHKL
  8
1
 10
3.4258723E+002
 20
2.6886276E+002
  0
INSERT
  2
HHKLNEW00
  8
1
 10
3.4258723E+002
 20
3.0135487E+002
  0
TEXT
  8
1
  6
CONTINUOUS
 62
1
 10
2.773844E+002
 20
1.470157E+002
 40
6.5
  1
für Profilzylinder DIN 18252
 41
6.6696431E-001
 72
1
 11
3.3807815E+002
 21
1.502657E+002
 73
2
  0
TEXT
  8
1
  6
CONTINUOUS
 62
1
 10
2.7728981E+002
 20
1.3575893E+002
 40
6.5
  1
for Euro-profile cylinder
 41
6.6600002E-001
 72
1
 11
3.3140231E+002
 21
1.3900893E+002
 73
2
  0
DIMENSION
  8
1
  6
CONTINUOUS
 62
4
  1
20
  2
*D2397
  3
DSTYLE1
 10
1.5199579E+002
 20
3.6814717E+002
 11
1.4199579E+002
 21
3.7434917E+002
 70
128
 13
1.3199579E+002
 23
3.5717091E+002
 14
1.5199579E+002
 24
3.5770524E+002
 40
1.0E+001
 50
0.0
1001
ACAD
1000
DSTYLE
1002
{
1070
173
1070
0
1070
5
1000
_AH13
1002
}
  0
CIRCLE
  8
1
  6
CONTINUOUS
 62
40
 10
1.4016383E+002
 20
3.4740524E+002
 40
2.3
  0
CIRCLE
  8
1
  6
CONTINUOUS
 62
40
 10
1.4918595E+002
 20
3.3870524E+002
 40
2.3
  0
CIRCLE
  8
1
  6
CONTINUOUS
 62
40
 10
1.4016383E+002
 20
3.3030524E+002
 40
2.3
  0
INSERT
  2
XBXN
  8
1
 10
1.5499579E+002
 20
4.7786276E+002
  0
LINE
  8
1
  6
SHORT_DASH
 62
150
 10
1.519386E+002
 20
2.7276439E+002
 11
1.531886E+002
 21
2.7151439E+002
  0
LINE
  8
1
  6
SHORT_DASH
 62
150
 10
1.531886E+002
 20
2.7151439E+002
 11
1.531886E+002
 21
2.6601439E+002
  0
LINE
  8
1
  6
SHORT_DASH
 62
150
 10
1.531886E+002
 20
2.6601439E+002
 11
1.519386E+002
 21
2.6476439E+002
  0
VIEWPORT
 67
1
  8
0
  6
CONTINUOUS
 62
3
100
AcDbViewport
 10
1.05E+002
 20
1.485E+002
 30
0.0
 40
2.97E+002
 41
2.97E+002
 68
1
 69
1
1001
ACAD
1000
MVIEW
1002
{
1070
16
1010
0.0
1020
0.0
1030
0.0
1010
0.0
1020
0.0
1030
1.0
1040
0.0
1040
2.97E+002
1040
5.775E+001
1040
1.485E+002
1040
5.0E+001
1040
0.0
1040
0.0
1070
0
1070
1000
1070
1
1070
0
1070
0
1070
0
1070
0
1070
0
1040
0.0
1040
0.0
1040
0.0
1040
5.0E-001
1040
5.0E-001
1040
5.0E-001
1040
5.0E-001
1070
0
1002
{
1002
}
1002
}
  0
VIEWPORT
 67
1
  8
0
  6
CONTINUOUS
 62
3
100
AcDbViewport
 10
1.05E+002
 20
1.485E+002
 30
0.0
 40
2.1E+002
 41
2.97E+002
 68
2
 69
2
1001
ACAD
1000
MVIEW
1002
{
1070
16
1010
0.0
1020
0.0
1030
0.0
1010
0.0
1020
0.0
1030
1.0
1040
0.0
1040
5.94E+002
1040
2.1E+002
1040
2.97E+002
1040
5.0E+001
1040
0.0
1040
0.0
1070
0
1070
1000
1070
1
1070
0
1070
0
1070
0
1070
0
1070
0
1040
0.0
1040
0.0
1040
0.0
1040
5.0E-001
1040
5.0E-001
1040
5.0E-001
1040
5.0E-001
1070
0
1002
{
1002
}
1002
}
  0
ENDSEC
  0
EOF
