  0
SECTION
  2
HEADER
  9
$ACADVER
  1
AC1009
999
I-DEAS 11 NX Not Encoded
  9
$EXTMIN
 10
0.0
 20
0.0
  9
$EXTMAX
 10
2.1E+002
 20
2.97E+002
  9
$TEXTSIZE
 40
1.25E-001
  9
$LTSCALE
 40
1.0
  9
$CLAYER
  8
104
  9
$CECOLOR
 62
40
  9
$DIMASZ
 40
1.25E-001
  9
$DIMEXO
 40
6.25E-002
  9
$DIMDLI
 40
2.5E-001
  9
$DIMEXE
 40
1.25E-001
  9
$DIMTP
 40
5.0E-003
  9
$DIMTM
 40
-5.0E-003
  9
$DIMTXT
 40
3.0
  9
$DIMLIM
 70
0
  9
$DIMTIH
 70
1
  9
$DIMTOH
 70
1
  9
$DIMSE1
 70
0
  9
$DIMSE2
 70
0
  9
$DIMTAD
 70
0
  9
$DIMASO
 70
1
  9
$DIMALT
 70
0
  9
$DIMALTD
 70
0
  9
$DIMTOFL
 70
1
  9
$DIMTIX
 70
0
  9
$DIMSAH
 70
0
  9
$DIMTFAC
 40
1.0
  9
$DIMGAP
 40
6.25E-002
  9
$LUNITS
 70
2
  9
$LUPREC
 70
3
  9
$FILLETRAD
 40
2.0
  9
$AUNITS
 70
0
  9
$AUPREC
 70
1
  9
$CHAMFERA
 40
1.0E+001
  9
$CHAMFERB
 40
1.0E+001
  9
$ANGBASE
 50
0.0
  9
$ANGDIR
 70
0
  9
$PEXTMIN
 10
0.0
 20
0.0
 30
0.0
  9
$PEXTMAX
 10
2.1E+002
 20
2.97E+002
 30
0.0
  9
$PLIMMIN
 10
0.0
 20
0.0
  9
$PLIMMAX
 10
2.1E+002
 20
2.97E+002
  9
$PDMODE
 70
2
  9
$PDSIZE
 40
-1.0E-002
  9
$SPLINETYPE
 70
6
  9
$TILEMODE
 70
0
  0
ENDSEC
  0
SECTION
  2
TABLES
  0
TABLE
  2
VPORT
 70
2
  0
VPORT
  2
*Active
 70
0
 10
0.0
 20
0.0
 11
2.1E+002
 21
2.97E+002
 12
1.05E+002
 22
1.485E+002
 13
0.0
 23
0.0
 14
1.0
 24
1.0
 15
0.0
 25
0.0
 16
0.0
 26
0.0
 36
1.0
 17
0.0
 27
0.0
 37
0.0
 40
2.97E+002
 41
7.0707071E-001
 42
5.0E+001
 43
0.0
 44
0.0
 50
0.0
 51
0.0
 71
0
 72
1000
 73
1
 74
3
 75
0
 76
0
 77
0
 78
0
  0
ENDTAB
  0
TABLE
  2
LTYPE
 70
7
  0
LTYPE
  2
HIDDENNEW0
  3
_ 
 70
64
 72
65
 73
3
 40
4.5
 49
1.5
 49
-1.5
 49
1.5
  0
LTYPE
  2
HIDDENNEW1
  3
_ 
 70
64
 72
65
 73
3
 40
4.5
 49
1.5
 49
-1.5
 49
1.5
  0
LTYPE
  2
HIDDEN
  3
_ 
 70
64
 72
65
 73
3
 40
4.5
 49
1.5
 49
-1.5
 49
1.5
  0
LTYPE
  2
CENTERLINE
  3
_ 
 70
64
 72
65
 73
5
 40
3.0E+001
 49
1.2E+001
 49
-1.5
 49
3.0
 49
-1.5
 49
1.2E+001
  0
LTYPE
  2
PHANTOM
  3
_ 
 70
64
 72
65
 73
7
 40
2.95E+001
 49
9.5
 49
-1.5
 49
3.0
 49
-1.5
 49
3.0
 49
-1.5
 49
9.5
  0
LTYPE
  2
SHORT_DASH
  3
_ 
 70
64
 72
65
 73
3
 40
3.0
 49
7.5E-001
 49
-1.5
 49
7.5E-001
  0
LTYPE
  2
LONG_DASH
  3
_ 
 70
64
 72
65
 73
3
 40
9.0
 49
2.25
 49
-4.5
 49
2.25
  0
ENDTAB
  0
TABLE
  2
LAYER
 70
258
  0
LAYER
  2
0
 70
0
 62
7
  6
CONTINUOUS
  0
LAYER
  2
1
 70
0
 62
7
  6
CONTINUOUS
  0
LAYER
  2
Drafting_Hidden_Entities
 70
1
 62
7
  6
CONTINUOUS
  0
ENDTAB
  0
TABLE
  2
STYLE
 70
1
  0
STYLE
  2
STANDARD
 70
64
 40
0.0
 41
1.0
 50
0.0
 71
0
 42
1.0
  3
monotxt.shx
  4

  0
ENDTAB
  0
TABLE
  2
VIEW
 70
0
  0
ENDTAB
  0
TABLE
  2
DIMSTYLE
 70
10
  0
DIMSTYLE
  2
DSTYLE1
 70
0
  3

  4

  5

  6

  7

 40
1.0
 41
7.0
 42
1.0
 43
3.8E-001
 44
1.0
 45
0.0
 46
0.0
 47
1.0E-001
 48
1.0E-001
 71
0
 72
0
 73
0
 74
0
 75
0
 76
0
 77
1
 78
11
140
6.66
141
9.0E-002
142
0.0
143
1.0
144
1.0
145
0.0
146
1.0
147
1.10889
170
0
171
2
172
0
173
0
174
0
175
0
176
0
177
0
178
0
  0
DIMSTYLE
  2
DSTYLE2
 70
0
  3

  4

  5

  6

  7

 40
1.0
 41
7.0
 42
1.0
 43
3.8E-001
 44
1.0
 45
1.0E-001
 46
0.0
 47
1.0E-001
 48
1.0E-001
 71
0
 72
0
 73
0
 74
0
 75
0
 76
0
 77
1
 78
11
140
6.66
141
9.0E-002
142
0.0
143
1.0
144
1.0
145
0.0
146
1.0
147
1.10889
170
0
171
2
172
0
173
0
174
0
175
0
176
0
177
0
178
0
  0
DIMSTYLE
  2
DSTYLE3
 70
0
  3

  4

  5

  6

  7

 40
1.0
 41
8.0
 42
0.0
 43
3.8E-001
 44
1.5
 45
1.0E-003
 46
0.0
 47
1.0E-001
 48
1.0E-001
 71
0
 72
0
 73
0
 74
0
 75
0
 76
0
 77
1
 78
11
140
6.66
141
9.0E-002
142
0.0
143
3.9370079E-002
144
1.0
145
0.0
146
1.0
147
1.5
170
0
171
2
172
0
173
0
174
0
175
0
176
0
177
0
178
0
  0
DIMSTYLE
  2
DSTYLE4
 70
0
  3

  4

  5

  6

  7

 40
1.0
 41
8.0
 42
0.0
 43
3.8E-001
 44
1.5
 45
1.0E-003
 46
0.0
 47
1.0E-001
 48
1.0E-001
 71
0
 72
0
 73
0
 74
0
 75
0
 76
0
 77
1
 78
11
140
6.66
141
9.0E-002
142
0.0
143
1.0
144
1.0
145
0.0
146
1.0
147
1.5
170
0
171
2
172
0
173
0
174
0
175
0
176
0
177
0
178
0
  0
DIMSTYLE
  2
DSTYLE5
 70
0
  3

  4

  5

  6

  7

 40
1.0
 41
8.0
 42
0.0
 43
3.8E-001
 44
1.5
 45
1.0E-003
 46
0.0
 47
1.0E-001
 48
1.0E-001
 71
0
 72
0
 73
0
 74
0
 75
0
 76
0
 77
1
 78
11
140
6.0
141
9.0E-002
142
0.0
143
3.9370079E-002
144
1.0
145
0.0
146
1.0
147
1.5
170
0
171
2
172
0
173
0
174
0
175
0
176
0
177
0
178
0
  0
DIMSTYLE
  2
DSTYLE6
 70
0
  3

  4

  5

  6

  7

 40
1.0
 41
8.0
 42
0.0
 43
3.8E-001
 44
1.5
 45
1.0E-003
 46
0.0
 47
1.0E-001
 48
1.0E-001
 71
0
 72
0
 73
0
 74
0
 75
0
 76
0
 77
1
 78
11
140
7.0
141
9.0E-002
142
0.0
143
3.9370079E-002
144
1.0
145
0.0
146
1.0
147
1.5
170
0
171
2
172
0
173
0
174
0
175
0
176
0
177
0
178
0
  0
DIMSTYLE
  2
DSTYLE7
 70
0
  3

  4

  5

  6

  7

 40
1.0
 41
7.0
 42
1.0
 43
3.8E-001
 44
1.0
 45
0.0
 46
0.0
 47
1.0E-001
 48
1.0E-001
 71
0
 72
0
 73
0
 74
0
 75
0
 76
0
 77
1
 78
11
140
9.3333333
141
9.0E-002
142
0.0
143
1.0
144
1.0
145
0.0
146
1.0
147
1.554
170
0
171
2
172
0
173
0
174
0
175
0
176
0
177
0
178
0
  0
DIMSTYLE
  2
DSTYLE8
 70
0
  3

  4

  5

  6

  7

 40
1.0
 41
7.0
 42
1.0
 43
3.8E-001
 44
1.0
 45
1.0E-001
 46
0.0
 47
1.0E-001
 48
1.0E-001
 71
0
 72
0
 73
0
 74
0
 75
0
 76
0
 77
1
 78
11
140
9.3333333
141
9.0E-002
142
0.0
143
1.0
144
1.0
145
0.0
146
1.0
147
1.554
170
0
171
2
172
0
173
0
174
0
175
0
176
0
177
0
178
0
  0
DIMSTYLE
  2
DSTYLE9
 70
0
  3

  4

  5

  6

  7

 40
1.0
 41
7.0
 42
1.0
 43
3.8E-001
 44
1.0
 45
0.0
 46
0.0
 47
1.0E-001
 48
1.0E-001
 71
0
 72
0
 73
0
 74
0
 75
0
 76
0
 77
1
 78
11
140
1.0666667E+001
141
9.0E-002
142
0.0
143
1.0
144
1.0
145
0.0
146
1.0
147
1.776
170
0
171
2
172
0
173
0
174
0
175
0
176
0
177
0
178
0
  0
DIMSTYLE
  2
DSTYLE10
 70
0
  3

  4

  5

  6

  7

 40
1.0
 41
7.0
 42
1.0
 43
3.8E-001
 44
1.0
 45
1.0E-002
 46
0.0
 47
1.0E-001
 48
1.0E-001
 71
0
 72
0
 73
0
 74
0
 75
0
 76
0
 77
1
 78
11
140
6.66
141
9.0E-002
142
0.0
143
1.0
144
1.0
145
0.0
146
1.0
147
1.10889
170
0
171
2
172
0
173
0
174
0
175
0
176
0
177
0
178
0
  0
ENDTAB
  0
ENDSEC
  0
SECTION
  2
BLOCKS
  0
BLOCK
  2
_AH12
  3
_AH
 10
0.0
 20
0.0
 70
64
  0
LINE
  8
0
  6
CONTINUOUS
 62
0
 10
0.0
 20
0.0
 11
1.0
 21
0.0
  0
LINE
  8
0
  6
CONTINUOUS
 62
0
 10
0.0
 20
0.0
 11
-1.0
 21
0.0
  0
ENDBLK
  0
BLOCK
  2
_AH13
  3
_AH
 10
0.0
 20
0.0
 70
64
  0
SOLID
  8
0
  6
CONTINUOUS
 62
0
 10
0.0
 20
0.0
 11
1.0
 21
-1.66667E-001
 12
1.0
 22
1.66667E-001
 13
0.0
 23
0.0
  0
ENDBLK
  0
BLOCK
  2
_AH14
  3
_AH
 10
0.0
 20
0.0
 70
64
  0
ENDBLK
  0
BLOCK
  2
_AH15
  3
_AH
 10
0.0
 20
0.0
 70
64
  0
CIRCLE
  8
0
  6
CONTINUOUS
 62
0
 10
0.0
 20
0.0
 40
1.66667E-001
  0
LINE
  8
0
  6
CONTINUOUS
 62
0
 10
0.0
 20
0.0
 11
-1.0
 21
0.0
  0
ENDBLK
  0
BLOCK
  2
_AH16
  3
_AH
 10
0.0
 20
0.0
 70
64
  0
POLYLINE
  8
0
  6
CONTINUOUS
 62
0
 66
1
 40
1.66667E-001
 41
1.66667E-001
 70
0
  0
VERTEX
  8
0
 42
1.0
 10
8.3335E-002
 20
0.0
 70
0
  0
VERTEX
  8
0
 42
1.0
 10
-8.3335E-002
 20
0.0
 70
0
  0
VERTEX
  8
0
 42
0.0
 10
8.3335E-002
 20
0.0
 70
0
  0
SEQEND
  0
LINE
  8
0
  6
CONTINUOUS
 62
0
 10
0.0
 20
0.0
 11
-1.0
 21
0.0
  0
ENDBLK
  0
BLOCK
  2
_AH17
  3
_AH
 10
0.0
 20
0.0
 70
64
  0
LINE
  8
0
  6
CONTINUOUS
 62
0
 10
-1.66667E-001
 20
-1.66667E-001
 11
1.66667E-001
 21
-1.66667E-001
  0
LINE
  8
0
  6
CONTINUOUS
 62
0
 10
1.66667E-001
 20
-1.66667E-001
 11
1.66667E-001
 21
1.66667E-001
  0
LINE
  8
0
  6
CONTINUOUS
 62
0
 10
1.66667E-001
 20
1.66667E-001
 11
-1.66667E-001
 21
1.66667E-001
  0
LINE
  8
0
  6
CONTINUOUS
 62
0
 10
-1.66667E-001
 20
1.66667E-001
 11
-1.66667E-001
 21
-1.66667E-001
  0
LINE
  8
0
  6
CONTINUOUS
 62
0
 10
0.0
 20
0.0
 11
-1.0
 21
0.0
  0
ENDBLK
  0
BLOCK
  2
_AH18
  3
_AH
 10
0.0
 20
0.0
 70
64
  0
SOLID
  8
0
  6
CONTINUOUS
 62
0
 10
-1.66667E-001
 20
-1.66667E-001
 11
1.66667E-001
 21
-1.66667E-001
 12
-1.66667E-001
 22
1.66667E-001
 13
1.66667E-001
 23
1.66667E-001
  0
LINE
  8
0
  6
CONTINUOUS
 62
0
 10
0.0
 20
0.0
 11
-1.0
 21
0.0
  0
ENDBLK
  0
BLOCK
  2
_AH19
  3
_AH
 10
0.0
 20
0.0
 70
64
  0
LINE
  8
0
  6
CONTINUOUS
 62
0
 10
-5.0E-001
 20
-5.0E-001
 11
5.0E-001
 21
5.0E-001
  0
LINE
  8
0
  6
CONTINUOUS
 62
0
 10
0.0
 20
0.0
 11
-1.0
 21
0.0
  0
ENDBLK
  0
BLOCK
  2
_AH20
  3
_AH
 10
0.0
 20
0.0
 70
64
  0
POLYLINE
  8
0
  6
CONTINUOUS
 62
0
 66
1
 40
5.0E-001
 41
5.0E-001
 70
0
  0
VERTEX
  8
0
 42
4.1421356E-001
 10
-1.66667E-001
 20
-1.66667E-001
 70
0
  0
VERTEX
  8
0
 42
0.0
 10
0.0
 20
0.0
 70
0
  0
SEQEND
  0
POLYLINE
  8
0
  6
CONTINUOUS
 62
0
 66
1
 40
5.0E-001
 41
5.0E-001
 70
0
  0
VERTEX
  8
0
 42
4.1421356E-001
 10
1.66667E-001
 20
1.66667E-001
 70
0
  0
VERTEX
  8
0
 42
0.0
 10
0.0
 20
0.0
 70
0
  0
SEQEND
  0
LINE
  8
0
  6
CONTINUOUS
 62
0
 10
0.0
 20
0.0
 11
-1.0
 21
0.0
  0
ENDBLK
  0
BLOCK
  2
_AH21
  3
_AH
 10
0.0
 20
0.0
 70
64
  0
LINE
  8
0
  6
CONTINUOUS
 62
0
 10
0.0
 20
0.0
 11
-1.0
 21
-1.66667E-001
  0
LINE
  8
0
  6
CONTINUOUS
 62
0
 10
-1.0
 20
-1.66667E-001
 11
-1.0
 21
1.66667E-001
  0
LINE
  8
0
  6
CONTINUOUS
 62
0
 10
-1.0
 20
1.66667E-001
 11
0.0
 21
0.0
  0
ENDBLK
  0
BLOCK
  2
M_PFN_6
 10
0.0
 20
0.0
 70
0
  0
ENDBLK
  0
BLOCK
  2
M_PFN_7
 10
0.0
 20
0.0
 70
0
  0
ENDBLK
  0
BLOCK
  2
_D1
 10
0.0
 20
0.0
 70
0
  0
LINE
  8
4
  6
CONTINUOUS
 62
2
 10
-4.64686
 20
3.136834
 11
-4.64686
 21
-1.1476044E+001
  0
LINE
  8
4
  6
CONTINUOUS
 62
2
 10
-4.64686
 20
-1.1476044E+001
 11
-4.64686
 21
-1.3476044E+001
  0
TEXT
  8
103
  6
CONTINUOUS
 62
1
 10
2.21778
 20
2.21778
 40
6.66
  1
22
 41
5.6250002E-001
  0
LINE
  8
4
  6
CONTINUOUS
 62
2
 10
-4.64686
 20
-3.2307E-001
 11
1.735314E+001
 21
-3.2307E-001
  0
INSERT
  2
M_PFN_6
  8
4
 10
-4.64686
 20
-3.2307E-001
 41
2.0
 43
2.0
 42
2.0
  0
INSERT
  2
M_PFN_7
  8
4
 10
1.735314E+001
 20
-3.2307E-001
 41
2.0
 43
2.0
 42
2.0
 50
3.6E+002
  0
ENDBLK
  0
BLOCK
  2
_D3
 10
0.0
 20
0.0
 70
0
  0
LINE
  8
4
  6
CONTINUOUS
 62
2
 10
3.6366515E+002
 20
3.5180683E+002
 11
3.6366515E+002
 21
3.5206944E+002
  0
LINE
  8
4
  6
CONTINUOUS
 62
2
 10
3.5566518E+002
 20
3.5180683E+002
 11
3.5566518E+002
 21
3.5206944E+002
  0
ENDBLK
  0
BLOCK
  2
_D5
 10
0.0
 20
0.0
 70
0
  0
LINE
  8
4
  6
CONTINUOUS
 62
2
 10
1.5110314E+002
 20
2.6280683E+002
 11
2.0610314E+002
 21
2.6280683E+002
  0
INSERT
  2
M_PFN_6
  8
4
 10
1.5110314E+002
 20
2.6280683E+002
 41
2.0
 43
2.0
 42
2.0
  0
INSERT
  2
M_PFN_7
  8
4
 10
2.0610314E+002
 20
2.6280683E+002
 41
2.0
 43
2.0
 42
2.0
 50
3.6E+002
  0
ENDBLK
  0
BLOCK
  2
_D8
 10
0.0
 20
0.0
 70
0
  0
LINE
  8
4
  6
CONTINUOUS
 62
2
 10
2.9210314E+002
 20
5.2180683E+002
 11
2.9010314E+002
 21
5.2180683E+002
  0
LINE
  8
4
  6
CONTINUOUS
 62
2
 10
2.9010314E+002
 20
5.2180683E+002
 11
1.7265542E+002
 21
5.2180683E+002
  0
LINE
  8
4
  6
CONTINUOUS
 62
2
 10
1.5826126E+002
 20
5.2180683E+002
 11
1.5610314E+002
 21
5.2180683E+002
  0
LINE
  8
4
  6
CONTINUOUS
 62
2
 10
2.9428839E+002
 20
4.8680683E+002
 11
3.0253658E+002
 21
4.8680683E+002
  0
LINE
  8
4
  6
CONTINUOUS
 62
2
 10
3.0253658E+002
 20
4.8680683E+002
 11
3.0453658E+002
 21
4.8680683E+002
  0
ENDBLK
  0
BLOCK
  2
_D9
 10
0.0
 20
0.0
 70
0
  0
LINE
  8
4
  6
CONTINUOUS
 62
2
 10
1.4910314E+002
 20
5.2180683E+002
 11
1.4614952E+002
 21
5.2180683E+002
  0
LINE
  8
4
  6
CONTINUOUS
 62
2
 10
1.3714502E+002
 20
5.2180683E+002
 11
1.2890035E+002
 21
5.2180683E+002
  0
LINE
  8
4
  6
CONTINUOUS
 62
2
 10
1.1894578E+002
 20
5.2180683E+002
 11
1.0510314E+002
 21
5.2180683E+002
  0
LINE
  8
4
  6
CONTINUOUS
 62
2
 10
1.0510314E+002
 20
5.2180683E+002
 11
1.0310314E+002
 21
5.2180683E+002
  0
ENDBLK
  0
BLOCK
  2
_D10
 10
0.0
 20
0.0
 70
0
  0
TEXT
  8
103
  6
CONTINUOUS
 62
1
 10
-2.21778
 20
2.21778
 40
6.66
  1
32
 41
5.6250002E-001
 50
9.0E+001
  0
LINE
  8
4
  6
CONTINUOUS
 62
2
 10
3.1400146E-003
 20
2.2266834E+001
 11
3.1400146E-003
 21
-9.733166
  0
INSERT
  2
M_PFN_6
  8
4
 10
3.1400146E-003
 20
2.2266834E+001
 41
2.0
 43
2.0
 42
2.0
 50
2.7E+002
  0
INSERT
  2
M_PFN_7
  8
4
 10
3.1400146E-003
 20
-9.733166
 41
2.0
 43
2.0
 42
2.0
 50
2.7E+002
  0
LINE
  8
4
  6
CONTINUOUS
 62
2
 10
2.170314E+001
 20
2.2266834E+001
 11
-1.2669363E+001
 21
2.2266834E+001
  0
LINE
  8
4
  6
CONTINUOUS
 62
2
 10
-1.2669363E+001
 20
2.2266834E+001
 11
-1.4669363E+001
 21
2.2266834E+001
  0
ENDBLK
  0
BLOCK
  2
_D11
 10
0.0
 20
0.0
 70
0
  0
LINE
  8
4
  6
CONTINUOUS
 62
2
 10
1.3710314E+002
 20
4.3680683E+002
 11
1.1480518E+002
 21
4.3680683E+002
  0
LINE
  8
4
  6
CONTINUOUS
 62
2
 10
1.1480518E+002
 20
4.3680683E+002
 11
1.1280518E+002
 21
4.3680683E+002
  0
ENDBLK
  0
BLOCK
  2
*XH41
  3
*XH
 10
0.0
 20
0.0
 70
65
  0
LINE
  8
1
  6
CONTINUOUS
 62
1
 10
-1.5
 20
-1.5
 11
1.5
 21
1.5
  0
LINE
  8
1
  6
CONTINUOUS
 62
1
 10
-1.5
 20
1.3284271
 11
1.5
 21
4.3284271
  0
LINE
  8
1
  6
CONTINUOUS
 62
1
 10
-1.5
 20
4.1568542
 11
1.300073
 21
6.9569273
  0
ENDBLK
  0
BLOCK
  2
_D13
 10
0.0
 20
0.0
 70
0
  0
LINE
  8
4
  6
CONTINUOUS
 62
2
 10
1.2060403E+002
 20
5.2180683E+002
 11
9.310314E+001
 21
5.2180683E+002
  0
LINE
  8
4
  6
CONTINUOUS
 62
2
 10
9.310314E+001
 20
5.2180683E+002
 11
9.110314E+001
 21
5.2180683E+002
  0
LINE
  8
4
  6
CONTINUOUS
 62
2
 10
1.4910314E+002
 20
2.8680683E+002
 11
9.310314E+001
 21
2.8680683E+002
  0
LINE
  8
4
  6
CONTINUOUS
 62
2
 10
9.310314E+001
 20
2.8680683E+002
 11
9.110314E+001
 21
2.8680683E+002
  0
ENDBLK
  0
BLOCK
  2
_D16
 10
0.0
 20
0.0
 70
0
  0
TEXT
  8
103
  6
CONTINUOUS
 62
1
 10
-2.21778
 20
2.21778
 40
6.66
  1
8
 50
9.0E+001
  0
LINE
  8
4
  6
CONTINUOUS
 62
2
 10
-3.7096334E-001
 20
-2.6003044E+001
 11
-3.7096334E-001
 21
-1.5623348E+001
  0
LINE
  8
4
  6
CONTINUOUS
 62
2
 10
-3.7096334E-001
 20
-1.5623348E+001
 11
-3.7096334E-001
 21
-7.6233481
  0
LINE
  8
4
  6
CONTINUOUS
 62
2
 10
-3.7096334E-001
 20
-7.6233481
 11
-3.7096334E-001
 21
6.3766519
  0
INSERT
  2
M_PFN_7
  8
4
 10
-3.7096334E-001
 20
-1.5623348E+001
 41
2.0
 43
2.0
 42
2.0
 50
9.0E+001
  0
INSERT
  2
M_PFN_6
  8
4
 10
-3.7096334E-001
 20
-7.6233481
 41
2.0
 43
2.0
 42
2.0
 50
9.0E+001
  0
LINE
  8
4
  6
CONTINUOUS
 62
2
 10
-3.4365563E+001
 20
-1.5623348E+001
 11
-2.5321525E+001
 21
-1.5623348E+001
  0
LINE
  8
4
  6
CONTINUOUS
 62
2
 10
-8.2534653
 20
-1.5623348E+001
 11
-3.7096334E-001
 21
-1.5623348E+001
  0
LINE
  8
4
  6
CONTINUOUS
 62
2
 10
-3.7096334E-001
 20
-1.5623348E+001
 11
1.6290367
 21
-1.5623348E+001
  0
ENDBLK
  0
BLOCK
  2
_D20
 10
0.0
 20
0.0
 70
0
  0
TEXT
  8
103
  6
CONTINUOUS
 62
1
 10
2.21778
 20
2.21778
 40
6.66
  1
12
 41
5.6250002E-001
  0
ENDBLK
  0
BLOCK
  2
_D24
 10
0.0
 20
0.0
 70
0
  0
TEXT
  8
103
  6
CONTINUOUS
 62
1
 10
2.21778
 20
2.21778
 40
6.66
  1
20
 41
5.6250002E-001
  0
LINE
  8
4
  6
CONTINUOUS
 62
2
 10
1.7515184E+001
 20
1.4420008E-003
 11
-6.484816
 21
1.4420008E-003
  0
INSERT
  2
M_PFN_7
  8
4
 10
1.7515184E+001
 20
1.4420008E-003
 41
2.0
 43
2.0
 42
2.0
 50
3.6E+002
  0
INSERT
  2
M_PFN_6
  8
4
 10
-6.484816
 20
1.4420008E-003
 41
2.0
 43
2.0
 42
2.0
  0
ENDBLK
  0
BLOCK
  2
*XH64
  3
*XH
 10
0.0
 20
0.0
 70
65
  0
LINE
  8
1
  6
CONTINUOUS
 62
1
 10
1.5125313E+002
 20
3.2328596E+002
 11
1.5410327E+002
 21
3.261361E+002
  0
LINE
  8
1
  6
CONTINUOUS
 62
1
 10
1.5110314E+002
 20
3.2504745E+002
 11
1.5410327E+002
 21
3.2804758E+002
  0
LINE
  8
1
  6
CONTINUOUS
 62
1
 10
1.5110314E+002
 20
3.2695892E+002
 11
1.5395092E+002
 21
3.2980671E+002
  0
LINE
  8
1
  6
CONTINUOUS
 62
1
 10
1.5363759E+002
 20
3.2375895E+002
 11
1.5410327E+002
 21
3.2422462E+002
  0
ENDBLK
  0
BLOCK
  2
*XH98
  3
*XH
 10
0.0
 20
0.0
 70
65
  0
LINE
  8
1
  6
CONTINUOUS
 62
1
 10
1.5110314E+002
 20
3.3842778E+002
 11
1.5408157E+002
 21
3.4140621E+002
  0
LINE
  8
1
  6
CONTINUOUS
 62
1
 10
1.5110314E+002
 20
3.4033925E+002
 11
1.5407419E+002
 21
3.4331031E+002
  0
LINE
  8
1
  6
CONTINUOUS
 62
1
 10
1.5110314E+002
 20
3.4225073E+002
 11
1.5406681E+002
 21
3.452144E+002
  0
LINE
  8
1
  6
CONTINUOUS
 62
1
 10
1.5110314E+002
 20
3.4416221E+002
 11
1.5405944E+002
 21
3.471185E+002
  0
LINE
  8
1
  6
CONTINUOUS
 62
1
 10
1.5110314E+002
 20
3.4607368E+002
 11
1.5266828E+002
 21
3.4763883E+002
  0
LINE
  8
1
  6
CONTINUOUS
 62
1
 10
1.514985E+002
 20
3.3691166E+002
 11
1.5408895E+002
 21
3.3950211E+002
  0
LINE
  8
1
  6
CONTINUOUS
 62
1
 10
1.5245424E+002
 20
3.3595593E+002
 11
1.5409633E+002
 21
3.3759801E+002
  0
ENDBLK
  0
BLOCK
  2
*XH130
  3
*XH
 10
0.0
 20
0.0
 70
65
  0
LINE
  8
1
  6
CONTINUOUS
 62
1
 10
1.5143565E+002
 20
5.1347432E+002
 11
1.5410314E+002
 21
5.1614181E+002
  0
LINE
  8
1
  6
CONTINUOUS
 62
1
 10
1.5110314E+002
 20
5.1597024E+002
 11
1.5410314E+002
 21
5.1897024E+002
  0
LINE
  8
1
  6
CONTINUOUS
 62
1
 10
1.5110314E+002
 20
5.1879867E+002
 11
1.5410314E+002
 21
5.2179867E+002
  0
LINE
  8
1
  6
CONTINUOUS
 62
1
 10
1.5110314E+002
 20
5.2162709E+002
 11
1.5128288E+002
 21
5.2180683E+002
  0
LINE
  8
1
  6
CONTINUOUS
 62
1
 10
1.5284986E+002
 20
5.1206011E+002
 11
1.5410314E+002
 21
5.1331338E+002
  0
ENDBLK
  0
BLOCK
  2
*XH148
  3
*XH
 10
0.0
 20
0.0
 70
65
  0
LINE
  8
1
  6
CONTINUOUS
 62
1
 10
-2.0202811E+001
 20
-3.5510921
 11
-1.5426978E+001
 21
-3.5510921
  0
LINE
  8
1
  6
CONTINUOUS
 62
1
 10
-1.0930308E+001
 20
-3.5510921
 11
-8.016095
 21
-3.5510921
  0
LINE
  8
1
  6
CONTINUOUS
 62
1
 10
-5.2260628
 20
-3.5510921
 11
-2.9906812
 21
-3.5510921
  0
LINE
  8
1
  6
CONTINUOUS
 62
1
 10
-1.0260592
 20
-3.5510921
 11
1.418396
 21
-3.5510921
  0
LINE
  8
1
  6
CONTINUOUS
 62
1
 10
2.37412
 20
-3.5510921
 11
4.6094526
 21
-3.5510921
  0
LINE
  8
1
  6
CONTINUOUS
 62
1
 10
6.0364902
 20
-3.5510921
 11
8.100171
 21
-3.5510921
  0
LINE
  8
1
  6
CONTINUOUS
 62
1
 10
9.5272084
 20
-3.5510921
 11
1.1762541E+001
 21
-3.5510921
  0
LINE
  8
1
  6
CONTINUOUS
 62
1
 10
1.2237336E+001
 20
-3.5510921
 11
1.4913234E+001
 21
-3.5510921
  0
LINE
  8
1
  6
CONTINUOUS
 62
1
 10
1.7329697E+001
 20
-3.5510921
 11
2.0005595E+001
 21
-3.5510921
  0
LINE
  8
1
  6
CONTINUOUS
 62
1
 10
1.9962625E+001
 20
-3.3686393
 11
1.7296826E+001
 21
-3.3686393
  0
LINE
  8
1
  6
CONTINUOUS
 62
1
 10
1.4946105E+001
 20
-3.3686393
 11
1.2280306E+001
 21
-3.3686393
  0
LINE
  8
1
  6
CONTINUOUS
 62
1
 10
1.1762541E+001
 20
-3.3686393
 11
9.5272084
 21
-3.3686393
  0
LINE
  8
1
  6
CONTINUOUS
 62
1
 10
8.140293
 20
-3.3686393
 11
5.9963228
 21
-3.3686393
  0
LINE
  8
1
  6
CONTINUOUS
 62
1
 10
4.6094526
 20
-3.3686393
 11
2.37412
 21
-3.3686393
  0
LINE
  8
1
  6
CONTINUOUS
 62
1
 10
1.3231136
 20
-3.3686393
 11
-1.0990524
 21
-3.3686393
  0
LINE
  8
1
  6
CONTINUOUS
 62
1
 10
-2.9906812
 20
-3.3686393
 11
-5.2260628
 21
-3.3686393
  0
LINE
  8
1
  6
CONTINUOUS
 62
1
 10
-7.5692386
 20
-3.3686393
 11
-1.1377164E+001
 21
-3.3686393
  0
LINE
  8
1
  6
CONTINUOUS
 62
1
 10
-1.5001539E+001
 20
-3.3686393
 11
-2.0202811E+001
 21
-3.3686393
  0
LINE
  8
1
  6
CONTINUOUS
 62
1
 10
-2.0202811E+001
 20
-3.1861565
 11
-1.471585E+001
 21
-3.1861565
  0
LINE
  8
1
  6
CONTINUOUS
 62
1
 10
-1.1679141E+001
 20
-3.1861565
 11
-7.2672618
 21
-3.1861565
  0
LINE
  8
1
  6
CONTINUOUS
 62
1
 10
-5.2260628
 20
-3.1861565
 11
-2.9906812
 21
-3.1861565
  0
LINE
  8
1
  6
CONTINUOUS
 62
1
 10
-1.1720456
 20
-3.1861565
 11
1.2278388
 21
-3.1861565
  0
LINE
  8
1
  6
CONTINUOUS
 62
1
 10
2.37412
 20
-3.1861565
 11
4.6094526
 21
-3.1861565
  0
LINE
  8
1
  6
CONTINUOUS
 62
1
 10
5.9562006
 20
-3.1861565
 11
8.1804604
 21
-3.1861565
  0
LINE
  8
1
  6
CONTINUOUS
 62
1
 10
9.5272084
 20
-3.1861565
 11
1.1762541E+001
 21
-3.1861565
  0
LINE
  8
1
  6
CONTINUOUS
 62
1
 10
1.2323238E+001
 20
-3.1861565
 11
1.4978931E+001
 21
-3.1861565
  0
LINE
  8
1
  6
CONTINUOUS
 62
1
 10
1.7264E+001
 20
-3.1861565
 11
1.9919693E+001
 21
-3.1861565
  0
LINE
  8
1
  6
CONTINUOUS
 62
1
 10
1.9876769E+001
 20
-3.0036735
 11
1.7231129E+001
 21
-3.0036735
  0
LINE
  8
1
  6
CONTINUOUS
 62
1
 10
1.5011802E+001
 20
-3.0036735
 11
1.2366162E+001
 21
-3.0036735
  0
LINE
  8
1
  6
CONTINUOUS
 62
1
 10
1.1762541E+001
 20
-3.0036735
 11
9.5272084
 21
-3.0036735
  0
LINE
  8
1
  6
CONTINUOUS
 62
1
 10
8.2206354
 20
-3.0036735
 11
5.9160332
 21
-3.0036735
  0
LINE
  8
1
  6
CONTINUOUS
 62
1
 10
4.6094526
 20
-3.0036735
 11
2.37412
 21
-3.0036735
  0
LINE
  8
1
  6
CONTINUOUS
 62
1
 10
1.1325112
 20
-3.0036735
 11
-1.2450388
 21
-3.0036735
  0
LINE
  8
1
  6
CONTINUOUS
 62
1
 10
-2.9906812
 20
-3.0036735
 11
-5.2260628
 21
-3.0036735
  0
LINE
  8
1
  6
CONTINUOUS
 62
1
 10
-7.0343582
 20
-3.0036735
 11
-1.1912045E+001
 21
-3.0036735
  0
LINE
  8
1
  6
CONTINUOUS
 62
1
 10
-1.4497161E+001
 20
-3.0036735
 11
-2.0202811E+001
 21
-3.0036735
  0
LINE
  8
1
  6
CONTINUOUS
 62
1
 10
-2.0202811E+001
 20
-2.8211907
 11
-1.4321639E+001
 21
-2.8211907
  0
LINE
  8
1
  6
CONTINUOUS
 62
1
 10
-1.2100714E+001
 20
-2.8211907
 11
-6.8456892
 21
-2.8211907
  0
LINE
  8
1
  6
CONTINUOUS
 62
1
 10
-5.2260628
 20
-2.8211907
 11
-2.9906812
 21
-2.8211907
  0
LINE
  8
1
  6
CONTINUOUS
 62
1
 10
-1.3180318
 20
-2.8211907
 11
1.0372364
 21
-2.8211907
  0
LINE
  8
1
  6
CONTINUOUS
 62
1
 10
2.37412
 20
-2.8211907
 11
4.6094526
 21
-2.8211907
  0
LINE
  8
1
  6
CONTINUOUS
 62
1
 10
5.8759112
 20
-2.8211907
 11
8.2607574
 21
-2.8211907
  0
LINE
  8
1
  6
CONTINUOUS
 62
1
 10
9.5272084
 20
-2.8211907
 11
1.1762541E+001
 21
-2.8211907
  0
LINE
  8
1
  6
CONTINUOUS
 62
1
 10
1.2409086E+001
 20
-2.8211907
 11
1.504462E+001
 21
-2.8211907
  0
LINE
  8
1
  6
CONTINUOUS
 62
1
 10
1.7198311E+001
 20
-2.8211907
 11
1.9833845E+001
 21
-2.8211907
  0
LINE
  8
1
  6
CONTINUOUS
 62
1
 10
1.9790868E+001
 20
-2.6387379
 11
1.716544E+001
 21
-2.6387379
  0
LINE
  8
1
  6
CONTINUOUS
 62
1
 10
1.5077491E+001
 20
-2.6387379
 11
1.2452064E+001
 21
-2.6387379
  0
LINE
  8
1
  6
CONTINUOUS
 62
1
 10
1.1762541E+001
 20
-2.6387379
 11
9.5272084
 21
-2.6387379
  0
LINE
  8
1
  6
CONTINUOUS
 62
1
 10
8.3008794
 20
-2.6387379
 11
5.8357892
 21
-2.6387379
  0
LINE
  8
1
  6
CONTINUOUS
 62
1
 10
4.6094526
 20
-2.6387379
 11
2.37412
 21
-2.6387379
  0
LINE
  8
1
  6
CONTINUOUS
 62
1
 10
9.4195404E-001
 20
-2.6387379
 11
-1.391025
 21
-2.6387379
  0
LINE
  8
1
  6
CONTINUOUS
 62
1
 10
-2.9906812
 20
-2.6387379
 11
-5.2260628
 21
-2.6387379
  0
LINE
  8
1
  6
CONTINUOUS
 62
1
 10
-6.689359
 20
-2.6387379
 11
-1.2257044E+001
 21
-2.6387379
  0
LINE
  8
1
  6
CONTINUOUS
 62
1
 10
-1.4177926E+001
 20
-2.6387379
 11
-2.0202811E+001
 21
-2.6387379
  0
LINE
  8
1
  6
CONTINUOUS
 62
1
 10
-2.0202811E+001
 20
-2.4562551
 11
-1.4059493E+001
 21
-2.4562551
  0
LINE
  8
1
  6
CONTINUOUS
 62
1
 10
-1.2387754E+001
 20
-2.4562551
 11
-6.5585996
 21
-2.4562551
  0
LINE
  8
1
  6
CONTINUOUS
 62
1
 10
-5.2260628
 20
-2.4562551
 11
-2.9906812
 21
-2.4562551
  0
LINE
  8
1
  6
CONTINUOUS
 62
1
 10
-1.4640182
 20
-2.4562551
 11
8.4663384E-001
 21
-2.4562551
  0
LINE
  8
1
  6
CONTINUOUS
 62
1
 10
2.37412
 20
-2.4562551
 11
4.6094526
 21
-2.4562551
  0
LINE
  8
1
  6
CONTINUOUS
 62
1
 10
5.7956142
 20
-2.4562551
 11
8.3410468
 21
-2.4562551
  0
LINE
  8
1
  6
CONTINUOUS
 62
1
 10
9.5272084
 20
-2.4562551
 11
1.1762541E+001
 21
-2.4562551
  0
LINE
  8
1
  6
CONTINUOUS
 62
1
 10
1.2494988E+001
 20
-2.4562551
 11
1.5110317E+001
 21
-2.4562551
  0
LINE
  8
1
  6
CONTINUOUS
 62
1
 10
1.7132614E+001
 20
-2.4562551
 11
1.9747943E+001
 21
-2.4562551
  0
LINE
  8
1
  6
CONTINUOUS
 62
1
 10
1.9705019E+001
 20
-2.2737721
 11
1.2537912E+001
 21
-2.2737721
  0
LINE
  8
1
  6
CONTINUOUS
 62
1
 10
1.1762541E+001
 20
-2.2737721
 11
9.5272084
 21
-2.2737721
  0
LINE
  8
1
  6
CONTINUOUS
 62
1
 10
8.381169
 20
-2.2737721
 11
5.7554922
 21
-2.2737721
  0
LINE
  8
1
  6
CONTINUOUS
 62
1
 10
4.6094526
 20
-2.2737721
 11
2.37412
 21
-2.2737721
  0
LINE
  8
1
  6
CONTINUOUS
 62
1
 10
7.5135164E-001
 20
-2.2737721
 11
-1.5370114
 21
-2.2737721
  0
LINE
  8
1
  6
CONTINUOUS
 62
1
 10
-2.9906812
 20
-2.2737721
 11
-5.2260628
 21
-2.2737721
  0
LINE
  8
1
  6
CONTINUOUS
 62
1
 10
-6.4492044
 20
-2.2737721
 11
-1.2497199E+001
 21
-2.2737721
  0
LINE
  8
1
  6
CONTINUOUS
 62
1
 10
-1.3962281E+001
 20
-2.2737721
 11
-2.0202811E+001
 21
-2.2737721
  0
LINE
  8
1
  6
CONTINUOUS
 62
1
 10
-2.0202811E+001
 20
-2.0912893
 11
-1.7743956E+001
 21
-2.0912893
  0
LINE
  8
1
  6
CONTINUOUS
 62
1
 10
-1.6519361E+001
 20
-2.0912893
 11
-1.3883631E+001
 21
-2.0912893
  0
LINE
  8
1
  6
CONTINUOUS
 62
1
 10
-1.2588172E+001
 20
-2.0912893
 11
-9.6912632
 21
-2.0912893
  0
LINE
  8
1
  6
CONTINUOUS
 62
1
 10
-9.2551396
 20
-2.0912893
 11
-6.358231
 21
-2.0912893
  0
LINE
  8
1
  6
CONTINUOUS
 62
1
 10
-5.2260628
 20
-2.0912893
 11
-2.9906812
 21
-2.0912893
  0
LINE
  8
1
  6
CONTINUOUS
 62
1
 10
-1.6100046
 20
-2.0912893
 11
6.5607664E-001
 21
-2.0912893
  0
LINE
  8
1
  6
CONTINUOUS
 62
1
 10
2.37412
 20
-2.0912893
 11
4.6094526
 21
-2.0912893
  0
LINE
  8
1
  6
CONTINUOUS
 62
1
 10
5.7153248
 20
-2.0912893
 11
8.4213364
 21
-2.0912893
  0
LINE
  8
1
  6
CONTINUOUS
 62
1
 10
9.5272084
 20
-2.0912893
 11
1.1762541E+001
 21
-2.0912893
  0
LINE
  8
1
  6
CONTINUOUS
 62
1
 10
1.2580836E+001
 20
-2.0912893
 11
1.9662095E+001
 21
-2.0912893
  0
LINE
  8
1
  6
CONTINUOUS
 62
1
 10
1.961917E+001
 20
-1.9088063
 11
1.2623761E+001
 21
-1.9088063
  0
LINE
  8
1
  6
CONTINUOUS
 62
1
 10
1.1762541E+001
 20
-1.9088063
 11
9.5272084
 21
-1.9088063
  0
LINE
  8
1
  6
CONTINUOUS
 62
1
 10
8.4614584
 20
-1.9088063
 11
5.6752026
 21
-1.9088063
  0
LINE
  8
1
  6
CONTINUOUS
 62
1
 10
4.6094526
 20
-1.9088063
 11
2.37412
 21
-1.9088063
  0
LINE
  8
1
  6
CONTINUOUS
 62
1
 10
5.6074904E-001
 20
-1.9088063
 11
-1.6829978
 21
-1.9088063
  0
LINE
  8
1
  6
CONTINUOUS
 62
1
 10
-2.9906812
 20
-1.9088063
 11
-5.2260628
 21
-1.9088063
  0
LINE
  8
1
  6
CONTINUOUS
 62
1
 10
-6.2836894
 20
-1.9088063
 11
-8.8861632
 21
-1.9088063
  0
LINE
  8
1
  6
CONTINUOUS
 62
1
 10
-1.006024E+001
 20
-1.9088063
 11
-1.2662713E+001
 21
-1.9088063
  0
LINE
  8
1
  6
CONTINUOUS
 62
1
 10
-1.382171E+001
 20
-1.9088063
 11
-1.6256732E+001
 21
-1.9088063
  0
LINE
  8
1
  6
CONTINUOUS
 62
1
 10
-1.7743956E+001
 20
-1.9088063
 11
-2.0202811E+001
 21
-1.9088063
  0
LINE
  8
1
  6
CONTINUOUS
 62
1
 10
-2.0202811E+001
 20
-1.7263233
 11
-1.7743956E+001
 21
-1.7263233
  0
LINE
  8
1
  6
CONTINUOUS
 62
1
 10
-1.6184607E+001
 20
-1.7263233
 11
-1.3775157E+001
 21
-1.7263233
  0
LINE
  8
1
  6
CONTINUOUS
 62
1
 10
-1.2722171E+001
 20
-1.7263233
 11
-1.0208401E+001
 21
-1.7263233
  0
LINE
  8
1
  6
CONTINUOUS
 62
1
 10
-8.7379524
 20
-1.7263233
 11
-6.2241824
 21
-1.7263233
  0
LINE
  8
1
  6
CONTINUOUS
 62
1
 10
-5.2260628
 20
-1.7263233
 11
-2.9906812
 21
-1.7263233
  0
LINE
  8
1
  6
CONTINUOUS
 62
1
 10
-1.7559908
 20
-1.7263233
 11
4.6547424E-001
 21
-1.7263233
  0
LINE
  8
1
  6
CONTINUOUS
 62
1
 10
2.37412
 20
-1.7263233
 11
4.6094526
 21
-1.7263233
  0
LINE
  8
1
  6
CONTINUOUS
 62
1
 10
5.6350278
 20
-1.7263233
 11
8.5016334
 21
-1.7263233
  0
LINE
  8
1
  6
CONTINUOUS
 62
1
 10
9.5272084
 20
-1.7263233
 11
1.1762541E+001
 21
-1.7263233
  0
LINE
  8
1
  6
CONTINUOUS
 62
1
 10
1.2666692E+001
 20
-1.7263233
 11
1.9576193E+001
 21
-1.7263233
  0
LINE
  8
1
  6
CONTINUOUS
 62
1
 10
1.9533269E+001
 20
-1.5438405
 11
1.2709662E+001
 21
-1.5438405
  0
LINE
  8
1
  6
CONTINUOUS
 62
1
 10
1.1762541E+001
 20
-1.5438405
 11
9.5272084
 21
-1.5438405
  0
LINE
  8
1
  6
CONTINUOUS
 62
1
 10
8.5417554
 20
-1.5438405
 11
5.5949056
 21
-1.5438405
  0
LINE
  8
1
  6
CONTINUOUS
 62
1
 10
4.6094526
 20
-1.5438405
 11
2.37412
 21
-1.5438405
  0
LINE
  8
1
  6
CONTINUOUS
 62
1
 10
3.7019184E-001
 20
-1.5438405
 11
-1.8289312
 21
-1.5438405
  0
LINE
  8
1
  6
CONTINUOUS
 62
1
 10
-2.9906812
 20
-1.5438405
 11
-5.2260628
 21
-1.5438405
  0
LINE
  8
1
  6
CONTINUOUS
 62
1
 10
-6.1786976
 20
-1.5438405
 11
-8.6616246
 21
-1.5438405
  0
LINE
  8
1
  6
CONTINUOUS
 62
1
 10
-1.0284778E+001
 20
-1.5438405
 11
-1.276766E+001
 21
-1.5438405
  0
LINE
  8
1
  6
CONTINUOUS
 62
1
 10
-1.3743109E+001
 20
-1.5438405
 11
-1.6179195E+001
 21
-1.5438405
  0
LINE
  8
1
  6
CONTINUOUS
 62
1
 10
-1.7743956E+001
 20
-1.5438405
 11
-2.0202811E+001
 21
-1.5438405
  0
LINE
  8
1
  6
CONTINUOUS
 62
1
 10
-2.0202811E+001
 20
-1.3613575
 11
-1.7743956E+001
 21
-1.3613575
  0
LINE
  8
1
  6
CONTINUOUS
 62
1
 10
-1.6179195E+001
 20
-1.3613575
 11
-1.3724982E+001
 21
-1.3613575
  0
LINE
  8
1
  6
CONTINUOUS
 62
1
 10
-1.27999E+001
 20
-1.3613575
 11
-1.0311271E+001
 21
-1.3613575
  0
LINE
  8
1
  6
CONTINUOUS
 62
1
 10
-8.635132
 20
-1.3613575
 11
-6.1465024
 21
-1.3613575
  0
LINE
  8
1
  6
CONTINUOUS
 62
1
 10
-5.2260628
 20
-1.3613575
 11
-2.9906812
 21
-1.3613575
  0
LINE
  8
1
  6
CONTINUOUS
 62
1
 10
-1.9019244
 20
-1.3613575
 11
2.7487184E-001
 21
-1.3613575
  0
LINE
  8
1
  6
CONTINUOUS
 62
1
 10
2.37412
 20
-1.3613575
 11
4.6094526
 21
-1.3613575
  0
LINE
  8
1
  6
CONTINUOUS
 62
1
 10
5.5547382
 20
-1.3613575
 11
8.5819228
 21
-1.3613575
  0
LINE
  8
1
  6
CONTINUOUS
 62
1
 10
9.5272084
 20
-1.3613575
 11
1.1762541E+001
 21
-1.3613575
  0
LINE
  8
1
  6
CONTINUOUS
 62
1
 10
1.2752586E+001
 20
-1.3613575
 11
1.9490345E+001
 21
-1.3613575
  0
LINE
  8
1
  6
CONTINUOUS
 62
1
 10
1.9447413E+001
 20
-1.1789049
 11
1.2795518E+001
 21
-1.1789049
  0
LINE
  8
1
  6
CONTINUOUS
 62
1
 10
1.1762541E+001
 20
-1.1789049
 11
9.5272084
 21
-1.1789049
  0
LINE
  8
1
  6
CONTINUOUS
 62
1
 10
8.6220448
 20
-1.1789049
 11
5.5146162
 21
-1.1789049
  0
LINE
  8
1
  6
CONTINUOUS
 62
1
 10
4.6094526
 20
-1.1789049
 11
2.37412
 21
-1.1789049
  0
LINE
  8
1
  6
CONTINUOUS
 62
1
 10
1.7958944E-001
 20
-1.1789049
 11
-1.9749174
 21
-1.1789049
  0
LINE
  8
1
  6
CONTINUOUS
 62
1
 10
-2.9906812
 20
-1.1789049
 11
-5.2260628
 21
-1.1789049
  0
LINE
  8
1
  6
CONTINUOUS
 62
1
 10
-6.1270684
 20
-1.1789049
 11
-8.6349394
 21
-1.1789049
  0
LINE
  8
1
  6
CONTINUOUS
 62
1
 10
-1.0311463E+001
 20
-1.1789049
 11
-1.2819285E+001
 21
-1.1789049
  0
LINE
  8
1
  6
CONTINUOUS
 62
1
 10
-1.372034E+001
 20
-1.1789049
 11
-1.6179195E+001
 21
-1.1789049
  0
LINE
  8
1
  6
CONTINUOUS
 62
1
 10
-1.7743956E+001
 20
-1.1789049
 11
-2.0202811E+001
 21
-1.1789049
  0
LINE
  8
1
  6
CONTINUOUS
 62
1
 10
-2.0202811E+001
 20
-9.9642188E-001
 11
-1.7743956E+001
 21
-9.9642188E-001
  0
LINE
  8
1
  6
CONTINUOUS
 62
1
 10
-1.6179195E+001
 20
-9.9642188E-001
 11
-1.372034E+001
 21
-9.9642188E-001
  0
LINE
  8
1
  6
CONTINUOUS
 62
1
 10
-1.2826197E+001
 20
-9.9642188E-001
 11
-1.0311463E+001
 21
-9.9642188E-001
  0
LINE
  8
1
  6
CONTINUOUS
 62
1
 10
-8.6349394
 20
-9.9642188E-001
 11
-6.1202064
 21
-9.9642188E-001
  0
LINE
  8
1
  6
CONTINUOUS
 62
1
 10
-5.2260628
 20
-9.9642188E-001
 11
-2.9906812
 21
-9.9642188E-001
  0
LINE
  8
1
  6
CONTINUOUS
 62
1
 10
-2.0479106
 20
-9.9642188E-001
 11
8.4307038E-002
 21
-9.9642188E-001
  0
LINE
  8
1
  6
CONTINUOUS
 62
1
 10
2.37412
 20
-9.9642188E-001
 11
4.6094526
 21
-9.9642188E-001
  0
LINE
  8
1
  6
CONTINUOUS
 62
1
 10
5.4744488
 20
-9.9642188E-001
 11
8.6622198
 21
-9.9642188E-001
  0
LINE
  8
1
  6
CONTINUOUS
 62
1
 10
9.5272084
 20
-9.9642188E-001
 11
1.1762541E+001
 21
-9.9642188E-001
  0
LINE
  8
1
  6
CONTINUOUS
 62
1
 10
1.2838442E+001
 20
-9.9642188E-001
 11
1.9404489E+001
 21
-9.9642188E-001
  0
LINE
  8
1
  6
CONTINUOUS
 62
1
 10
1.9361519E+001
 20
-8.1393908E-001
 11
1.6836971E+001
 21
-8.1393908E-001
  0
LINE
  8
1
  6
CONTINUOUS
 62
1
 10
1.5405915E+001
 20
-8.1393908E-001
 11
1.2881412E+001
 21
-8.1393908E-001
  0
LINE
  8
1
  6
CONTINUOUS
 62
1
 10
1.1762541E+001
 20
-8.1393908E-001
 11
9.5272084
 21
-8.1393908E-001
  0
LINE
  8
1
  6
CONTINUOUS
 62
1
 10
8.7023418
 20
-8.1393908E-001
 11
5.4343268
 21
-8.1393908E-001
  0
LINE
  8
1
  6
CONTINUOUS
 62
1
 10
4.6094526
 20
-8.1393908E-001
 11
2.37412
 21
-8.1393908E-001
  0
LINE
  8
1
  6
CONTINUOUS
 62
1
 10
-1.1013162E-002
 20
-8.1393908E-001
 11
-2.1209038
 21
-8.1393908E-001
  0
LINE
  8
1
  6
CONTINUOUS
 62
1
 10
-2.9906812
 20
-8.1393908E-001
 11
-5.2260628
 21
-8.1393908E-001
  0
LINE
  8
1
  6
CONTINUOUS
 62
1
 10
-6.1202064
 20
-8.1393908E-001
 11
-8.6349394
 21
-8.1393908E-001
  0
LINE
  8
1
  6
CONTINUOUS
 62
1
 10
-1.0311463E+001
 20
-8.1393908E-001
 11
-1.2826197E+001
 21
-8.1393908E-001
  0
LINE
  8
1
  6
CONTINUOUS
 62
1
 10
-1.372034E+001
 20
-8.1393908E-001
 11
-1.6179195E+001
 21
-8.1393908E-001
  0
LINE
  8
1
  6
CONTINUOUS
 62
1
 10
-1.7743956E+001
 20
-8.1393908E-001
 11
-2.0202811E+001
 21
-8.1393908E-001
  0
LINE
  8
1
  6
CONTINUOUS
 62
1
 10
-2.0202811E+001
 20
-6.3145608E-001
 11
-1.7743956E+001
 21
-6.3145608E-001
  0
LINE
  8
1
  6
CONTINUOUS
 62
1
 10
-1.6179195E+001
 20
-6.3145608E-001
 11
-1.372034E+001
 21
-6.3145608E-001
  0
LINE
  8
1
  6
CONTINUOUS
 62
1
 10
-1.2826197E+001
 20
-6.3145608E-001
 11
-1.0311463E+001
 21
-6.3145608E-001
  0
LINE
  8
1
  6
CONTINUOUS
 62
1
 10
-8.6349394
 20
-6.3145608E-001
 11
-6.1202064
 21
-6.3145608E-001
  0
LINE
  8
1
  6
CONTINUOUS
 62
1
 10
-5.2260628
 20
-6.3145608E-001
 11
-2.9906812
 21
-6.3145608E-001
  0
LINE
  8
1
  6
CONTINUOUS
 62
1
 10
-2.193897
 20
-6.3145608E-001
 11
-1.0628796E-001
 21
-6.3145608E-001
  0
LINE
  8
1
  6
CONTINUOUS
 62
1
 10
2.37412
 20
-6.3145608E-001
 11
4.6094526
 21
-6.3145608E-001
  0
LINE
  8
1
  6
CONTINUOUS
 62
1
 10
5.3941518
 20
-6.3145608E-001
 11
8.7425092
 21
-6.3145608E-001
  0
LINE
  8
1
  6
CONTINUOUS
 62
1
 10
9.5272084
 20
-6.3145608E-001
 11
1.1762541E+001
 21
-6.3145608E-001
  0
LINE
  8
1
  6
CONTINUOUS
 62
1
 10
1.2924344E+001
 20
-6.3145608E-001
 11
1.5438786E+001
 21
-6.3145608E-001
  0
LINE
  8
1
  6
CONTINUOUS
 62
1
 10
1.6804145E+001
 20
-6.3145608E-001
 11
1.9318587E+001
 21
-6.3145608E-001
  0
LINE
  8
1
  6
CONTINUOUS
 62
1
 10
1.9275663E+001
 20
-4.4900348E-001
 11
1.6771319E+001
 21
-4.4900348E-001
  0
LINE
  8
1
  6
CONTINUOUS
 62
1
 10
1.5471612E+001
 20
-4.4900348E-001
 11
1.2967268E+001
 21
-4.4900348E-001
  0
LINE
  8
1
  6
CONTINUOUS
 62
1
 10
1.1762541E+001
 20
-4.4900348E-001
 11
9.5272084
 21
-4.4900348E-001
  0
LINE
  8
1
  6
CONTINUOUS
 62
1
 10
8.7826314
 20
-4.4900348E-001
 11
7.2223646
 21
-4.4900348E-001
  0
LINE
  8
1
  6
CONTINUOUS
 62
1
 10
6.9142964
 20
-4.4900348E-001
 11
5.3540298
 21
-4.4900348E-001
  0
LINE
  8
1
  6
CONTINUOUS
 62
1
 10
4.6094526
 20
-4.4900348E-001
 11
2.37412
 21
-4.4900348E-001
  0
LINE
  8
1
  6
CONTINUOUS
 62
1
 10
1.1027464E-001
 20
-4.4900348E-001
 11
-5.2260628
 21
-4.4900348E-001
  0
LINE
  8
1
  6
CONTINUOUS
 62
1
 10
-6.1202064
 20
-4.4900348E-001
 11
-8.6349394
 21
-4.4900348E-001
  0
LINE
  8
1
  6
CONTINUOUS
 62
1
 10
-1.0311463E+001
 20
-4.4900348E-001
 11
-1.2826197E+001
 21
-4.4900348E-001
  0
LINE
  8
1
  6
CONTINUOUS
 62
1
 10
-1.372034E+001
 20
-4.4900348E-001
 11
-1.6179195E+001
 21
-4.4900348E-001
  0
LINE
  8
1
  6
CONTINUOUS
 62
1
 10
-1.7743956E+001
 20
-4.4900348E-001
 11
-2.0202811E+001
 21
-4.4900348E-001
  0
LINE
  8
1
  6
CONTINUOUS
 62
1
 10
-2.0202811E+001
 20
-2.6652048E-001
 11
-1.7743956E+001
 21
-2.6652048E-001
  0
LINE
  8
1
  6
CONTINUOUS
 62
1
 10
-1.6179195E+001
 20
-2.6652048E-001
 11
-1.372034E+001
 21
-2.6652048E-001
  0
LINE
  8
1
  6
CONTINUOUS
 62
1
 10
-1.2826197E+001
 20
-2.6652048E-001
 11
-1.0311463E+001
 21
-2.6652048E-001
  0
LINE
  8
1
  6
CONTINUOUS
 62
1
 10
-8.6349394
 20
-2.6652048E-001
 11
-6.1202064
 21
-2.6652048E-001
  0
LINE
  8
1
  6
CONTINUOUS
 62
1
 10
-5.2260628
 20
-2.6652048E-001
 11
4.5353284E-001
 21
-2.6652048E-001
  0
LINE
  8
1
  6
CONTINUOUS
 62
1
 10
2.37412
 20
-2.6652048E-001
 11
4.6094526
 21
-2.6652048E-001
  0
LINE
  8
1
  6
CONTINUOUS
 62
1
 10
5.3138624
 20
-2.6652048E-001
 11
6.874129
 21
-2.6652048E-001
  0
LINE
  8
1
  6
CONTINUOUS
 62
1
 10
7.2624868
 20
-2.6652048E-001
 11
8.8227988
 21
-2.6652048E-001
  0
LINE
  8
1
  6
CONTINUOUS
 62
1
 10
9.5272084
 20
-2.6652048E-001
 11
1.1762541E+001
 21
-2.6652048E-001
  0
LINE
  8
1
  6
CONTINUOUS
 62
1
 10
1.3010192E+001
 20
-2.6652048E-001
 11
1.5504483E+001
 21
-2.6652048E-001
  0
LINE
  8
1
  6
CONTINUOUS
 62
1
 10
1.6738448E+001
 20
-2.6652048E-001
 11
1.9232739E+001
 21
-2.6652048E-001
  0
LINE
  8
1
  6
CONTINUOUS
 62
1
 10
1.9189814E+001
 20
-8.4037682E-002
 11
1.6705577E+001
 21
-8.4037682E-002
  0
LINE
  8
1
  6
CONTINUOUS
 62
1
 10
1.5537301E+001
 20
-8.4037682E-002
 11
1.3053117E+001
 21
-8.4037682E-002
  0
LINE
  8
1
  6
CONTINUOUS
 62
1
 10
1.1762541E+001
 20
-8.4037682E-002
 11
9.5272084
 21
-8.4037682E-002
  0
LINE
  8
1
  6
CONTINUOUS
 62
1
 10
8.8629208
 20
-8.4037682E-002
 11
7.3026618
 21
-8.4037682E-002
  0
LINE
  8
1
  6
CONTINUOUS
 62
1
 10
6.834007
 20
-8.4037682E-002
 11
5.2737402
 21
-8.4037682E-002
  0
LINE
  8
1
  6
CONTINUOUS
 62
1
 10
4.6094526
 20
-8.4037682E-002
 11
2.37412
 21
-8.4037682E-002
  0
LINE
  8
1
  6
CONTINUOUS
 62
1
 10
6.9358544E-001
 20
-8.4037682E-002
 11
-5.2260628
 21
-8.4037682E-002
  0
LINE
  8
1
  6
CONTINUOUS
 62
1
 10
-6.1202064
 20
-8.4037682E-002
 11
-8.6349394
 21
-8.4037682E-002
  0
LINE
  8
1
  6
CONTINUOUS
 62
1
 10
-1.0311463E+001
 20
-8.4037682E-002
 11
-1.2826197E+001
 21
-8.4037682E-002
  0
LINE
  8
1
  6
CONTINUOUS
 62
1
 10
-1.372034E+001
 20
-8.4037682E-002
 11
-1.6179195E+001
 21
-8.4037682E-002
  0
LINE
  8
1
  6
CONTINUOUS
 62
1
 10
-1.7743956E+001
 20
-8.4037682E-002
 11
-2.0202811E+001
 21
-8.4037682E-002
  0
LINE
  8
1
  6
CONTINUOUS
 62
1
 10
-2.0202811E+001
 20
9.8445318E-002
 11
-1.7743956E+001
 21
9.8445318E-002
  0
LINE
  8
1
  6
CONTINUOUS
 62
1
 10
-1.6179195E+001
 20
9.8445318E-002
 11
-1.372034E+001
 21
9.8445318E-002
  0
LINE
  8
1
  6
CONTINUOUS
 62
1
 10
-1.2826197E+001
 20
9.8445318E-002
 11
-1.0311463E+001
 21
9.8445318E-002
  0
LINE
  8
1
  6
CONTINUOUS
 62
1
 10
-8.6349394
 20
9.8445318E-002
 11
-6.1202064
 21
9.8445318E-002
  0
LINE
  8
1
  6
CONTINUOUS
 62
1
 10
-5.2260628
 20
9.8445318E-002
 11
8.7868164E-001
 21
9.8445318E-002
  0
LINE
  8
1
  6
CONTINUOUS
 62
1
 10
2.37412
 20
9.8445318E-002
 11
4.6094526
 21
9.8445318E-002
  0
LINE
  8
1
  6
CONTINUOUS
 62
1
 10
5.2336182
 20
9.8445318E-002
 11
6.793832
 21
9.8445318E-002
  0
LINE
  8
1
  6
CONTINUOUS
 62
1
 10
7.342829
 20
9.8445318E-002
 11
8.9030428
 21
9.8445318E-002
  0
LINE
  8
1
  6
CONTINUOUS
 62
1
 10
9.5272084
 20
9.8445318E-002
 11
1.1762541E+001
 21
9.8445318E-002
  0
LINE
  8
1
  6
CONTINUOUS
 62
1
 10
1.3096094E+001
 20
9.8445318E-002
 11
1.5570172E+001
 21
9.8445318E-002
  0
LINE
  8
1
  6
CONTINUOUS
 62
1
 10
1.6672759E+001
 20
9.8445318E-002
 11
1.9146837E+001
 21
9.8445318E-002
  0
LINE
  8
1
  6
CONTINUOUS
 62
1
 10
1.9103913E+001
 20
2.8089792E-001
 11
1.6639933E+001
 21
2.8089792E-001
  0
LINE
  8
1
  6
CONTINUOUS
 62
1
 10
1.5602998E+001
 20
2.8089792E-001
 11
1.3139018E+001
 21
2.8089792E-001
  0
LINE
  8
1
  6
CONTINUOUS
 62
1
 10
1.1762541E+001
 20
2.8089792E-001
 11
9.5272084
 21
2.8089792E-001
  0
LINE
  8
1
  6
CONTINUOUS
 62
1
 10
8.9432178
 20
2.8089792E-001
 11
7.3829512
 21
2.8089792E-001
  0
LINE
  8
1
  6
CONTINUOUS
 62
1
 10
6.75371
 20
2.8089792E-001
 11
5.1934432
 21
2.8089792E-001
  0
LINE
  8
1
  6
CONTINUOUS
 62
1
 10
4.6094526
 20
2.8089792E-001
 11
2.37412
 21
2.8089792E-001
  0
LINE
  8
1
  6
CONTINUOUS
 62
1
 10
1.0266998
 20
2.8089792E-001
 11
-5.2260628
 21
2.8089792E-001
  0
LINE
  8
1
  6
CONTINUOUS
 62
1
 10
-6.1202064
 20
2.8089792E-001
 11
-8.6349394
 21
2.8089792E-001
  0
LINE
  8
1
  6
CONTINUOUS
 62
1
 10
-1.0311463E+001
 20
2.8089792E-001
 11
-1.2826197E+001
 21
2.8089792E-001
  0
LINE
  8
1
  6
CONTINUOUS
 62
1
 10
-1.372034E+001
 20
2.8089792E-001
 11
-1.6179195E+001
 21
2.8089792E-001
  0
LINE
  8
1
  6
CONTINUOUS
 62
1
 10
-1.7743956E+001
 20
2.8089792E-001
 11
-2.0202811E+001
 21
2.8089792E-001
  0
LINE
  8
1
  6
CONTINUOUS
 62
1
 10
-2.0202811E+001
 20
4.6338092E-001
 11
-1.7743956E+001
 21
4.6338092E-001
  0
LINE
  8
1
  6
CONTINUOUS
 62
1
 10
-1.6179195E+001
 20
4.6338092E-001
 11
-1.372034E+001
 21
4.6338092E-001
  0
LINE
  8
1
  6
CONTINUOUS
 62
1
 10
-1.2826197E+001
 20
4.6338092E-001
 11
-1.0311463E+001
 21
4.6338092E-001
  0
LINE
  8
1
  6
CONTINUOUS
 62
1
 10
-8.6349394
 20
4.6338092E-001
 11
-6.1202064
 21
4.6338092E-001
  0
LINE
  8
1
  6
CONTINUOUS
 62
1
 10
-5.2260628
 20
4.6338092E-001
 11
1.1467714
 21
4.6338092E-001
  0
LINE
  8
1
  6
CONTINUOUS
 62
1
 10
2.37412
 20
4.6338092E-001
 11
4.6094526
 21
4.6338092E-001
  0
LINE
  8
1
  6
CONTINUOUS
 62
1
 10
5.1533212
 20
4.6338092E-001
 11
6.7135878
 21
4.6338092E-001
  0
LINE
  8
1
  6
CONTINUOUS
 62
1
 10
7.4230732
 20
4.6338092E-001
 11
8.9833398
 21
4.6338092E-001
  0
LINE
  8
1
  6
CONTINUOUS
 62
1
 10
9.5272084
 20
4.6338092E-001
 11
1.1762541E+001
 21
4.6338092E-001
  0
LINE
  8
1
  6
CONTINUOUS
 62
1
 10
1.3181942E+001
 20
4.6338092E-001
 11
1.5635869E+001
 21
4.6338092E-001
  0
LINE
  8
1
  6
CONTINUOUS
 62
1
 10
1.6607062E+001
 20
4.6338092E-001
 11
1.9060989E+001
 21
4.6338092E-001
  0
LINE
  8
1
  6
CONTINUOUS
 62
1
 10
1.9018065E+001
 20
6.4586392E-001
 11
1.6574244E+001
 21
6.4586392E-001
  0
LINE
  8
1
  6
CONTINUOUS
 62
1
 10
1.5668687E+001
 20
6.4586392E-001
 11
1.3224867E+001
 21
6.4586392E-001
  0
LINE
  8
1
  6
CONTINUOUS
 62
1
 10
1.1762541E+001
 20
6.4586392E-001
 11
9.5272084
 21
6.4586392E-001
  0
LINE
  8
1
  6
CONTINUOUS
 62
1
 10
9.0235072
 20
6.4586392E-001
 11
7.4632406
 21
6.4586392E-001
  0
LINE
  8
1
  6
CONTINUOUS
 62
1
 10
6.6734204
 20
6.4586392E-001
 11
5.1131538
 21
6.4586392E-001
  0
LINE
  8
1
  6
CONTINUOUS
 62
1
 10
4.6094526
 20
6.4586392E-001
 11
2.37412
 21
6.4586392E-001
  0
LINE
  8
1
  6
CONTINUOUS
 62
1
 10
1.2441762
 20
6.4586392E-001
 11
-5.2260628
 21
6.4586392E-001
  0
LINE
  8
1
  6
CONTINUOUS
 62
1
 10
-6.1202064
 20
6.4586392E-001
 11
-8.6349394
 21
6.4586392E-001
  0
LINE
  8
1
  6
CONTINUOUS
 62
1
 10
-1.0311463E+001
 20
6.4586392E-001
 11
-1.2826197E+001
 21
6.4586392E-001
  0
LINE
  8
1
  6
CONTINUOUS
 62
1
 10
-1.372034E+001
 20
6.4586392E-001
 11
-1.6179195E+001
 21
6.4586392E-001
  0
LINE
  8
1
  6
CONTINUOUS
 62
1
 10
-1.7743956E+001
 20
6.4586392E-001
 11
-2.0202811E+001
 21
6.4586392E-001
  0
LINE
  8
1
  6
CONTINUOUS
 62
1
 10
-2.0202811E+001
 20
8.2834672E-001
 11
-1.7743956E+001
 21
8.2834672E-001
  0
LINE
  8
1
  6
CONTINUOUS
 62
1
 10
-1.6179195E+001
 20
8.2834672E-001
 11
-1.372034E+001
 21
8.2834672E-001
  0
LINE
  8
1
  6
CONTINUOUS
 62
1
 10
-1.2826197E+001
 20
8.2834672E-001
 11
-1.0311463E+001
 21
8.2834672E-001
  0
LINE
  8
1
  6
CONTINUOUS
 62
1
 10
-8.6349394
 20
8.2834672E-001
 11
-6.1202064
 21
8.2834672E-001
  0
LINE
  8
1
  6
CONTINUOUS
 62
1
 10
-5.2260628
 20
8.2834672E-001
 11
1.3221998
 21
8.2834672E-001
  0
LINE
  8
1
  6
CONTINUOUS
 62
1
 10
2.37412
 20
8.2834672E-001
 11
4.6094526
 21
8.2834672E-001
  0
LINE
  8
1
  6
CONTINUOUS
 62
1
 10
5.0730318
 20
8.2834672E-001
 11
6.6332984
 21
8.2834672E-001
  0
LINE
  8
1
  6
CONTINUOUS
 62
1
 10
7.5033626
 20
8.2834672E-001
 11
9.0636294
 21
8.2834672E-001
  0
LINE
  8
1
  6
CONTINUOUS
 62
1
 10
9.5272084
 20
8.2834672E-001
 11
1.1762541E+001
 21
8.2834672E-001
  0
LINE
  8
1
  6
CONTINUOUS
 62
1
 10
1.3267798E+001
 20
8.2834672E-001
 11
1.5701558E+001
 21
8.2834672E-001
  0
LINE
  8
1
  6
CONTINUOUS
 62
1
 10
1.6541373E+001
 20
8.2834672E-001
 11
1.8975087E+001
 21
8.2834672E-001
  0
LINE
  8
1
  6
CONTINUOUS
 62
1
 10
1.8932163E+001
 20
1.0107995
 11
1.6508547E+001
 21
1.0107995
  0
LINE
  8
1
  6
CONTINUOUS
 62
1
 10
1.5734384E+001
 20
1.0107995
 11
1.3310723E+001
 21
1.0107995
  0
LINE
  8
1
  6
CONTINUOUS
 62
1
 10
1.1762541E+001
 20
1.0107995
 11
9.5272084
 21
1.0107995
  0
LINE
  8
1
  6
CONTINUOUS
 62
1
 10
9.1038042
 20
1.0107995
 11
7.5435376
 21
1.0107995
  0
LINE
  8
1
  6
CONTINUOUS
 62
1
 10
6.5931234
 20
1.0107995
 11
5.0328644
 21
1.0107995
  0
LINE
  8
1
  6
CONTINUOUS
 62
1
 10
4.6094526
 20
1.0107995
 11
2.37412
 21
1.0107995
  0
LINE
  8
1
  6
CONTINUOUS
 62
1
 10
1.383108
 20
1.0107995
 11
-1.5047596
 21
1.0107995
  0
LINE
  8
1
  6
CONTINUOUS
 62
1
 10
-2.9906812
 20
1.0107995
 11
-5.2260628
 21
1.0107995
  0
LINE
  8
1
  6
CONTINUOUS
 62
1
 10
-6.1202064
 20
1.0107995
 11
-8.6349394
 21
1.0107995
  0
LINE
  8
1
  6
CONTINUOUS
 62
1
 10
-1.0311463E+001
 20
1.0107995
 11
-1.2826197E+001
 21
1.0107995
  0
LINE
  8
1
  6
CONTINUOUS
 62
1
 10
-1.372034E+001
 20
1.0107995
 11
-1.6179195E+001
 21
1.0107995
  0
LINE
  8
1
  6
CONTINUOUS
 62
1
 10
-1.7743956E+001
 20
1.0107995
 11
-2.0202811E+001
 21
1.0107995
  0
LINE
  8
1
  6
CONTINUOUS
 62
1
 10
-2.0202811E+001
 20
1.1932823
 11
-1.7743956E+001
 21
1.1932823
  0
LINE
  8
1
  6
CONTINUOUS
 62
1
 10
-1.6179195E+001
 20
1.1932823
 11
-1.372034E+001
 21
1.1932823
  0
LINE
  8
1
  6
CONTINUOUS
 62
1
 10
-1.2826197E+001
 20
1.1932823
 11
-1.0311463E+001
 21
1.1932823
  0
LINE
  8
1
  6
CONTINUOUS
 62
1
 10
-8.6349394
 20
1.1932823
 11
-6.1202064
 21
1.1932823
  0
LINE
  8
1
  6
CONTINUOUS
 62
1
 10
-5.2260628
 20
1.1932823
 11
-2.9906812
 21
1.1932823
  0
LINE
  8
1
  6
CONTINUOUS
 62
1
 10
-1.3318994
 20
1.1932823
 11
1.4284492
 21
1.1932823
  0
LINE
  8
1
  6
CONTINUOUS
 62
1
 10
2.37412
 20
1.1932823
 11
4.6094526
 21
1.1932823
  0
LINE
  8
1
  6
CONTINUOUS
 62
1
 10
4.9927422
 20
1.1932823
 11
6.5530014
 21
1.1932823
  0
LINE
  8
1
  6
CONTINUOUS
 62
1
 10
7.5836598
 20
1.1932823
 11
9.1439264
 21
1.1932823
  0
LINE
  8
1
  6
CONTINUOUS
 62
1
 10
9.5272084
 20
1.1932823
 11
1.1762541E+001
 21
1.1932823
  0
LINE
  8
1
  6
CONTINUOUS
 62
1
 10
1.3353692E+001
 20
1.1932823
 11
1.5767255E+001
 21
1.1932823
  0
LINE
  8
1
  6
CONTINUOUS
 62
1
 10
1.6475676E+001
 20
1.1932823
 11
1.8889239E+001
 21
1.1932823
  0
LINE
  8
1
  6
CONTINUOUS
 62
1
 10
1.8846307E+001
 20
1.3757653
 11
1.644285E+001
 21
1.3757653
  0
LINE
  8
1
  6
CONTINUOUS
 62
1
 10
1.5800081E+001
 20
1.3757653
 11
1.3396624E+001
 21
1.3757653
  0
LINE
  8
1
  6
CONTINUOUS
 62
1
 10
1.1762541E+001
 20
1.3757653
 11
9.5272084
 21
1.3757653
  0
LINE
  8
1
  6
CONTINUOUS
 62
1
 10
9.1840938
 20
1.3757653
 11
7.623827
 21
1.3757653
  0
LINE
  8
1
  6
CONTINUOUS
 62
1
 10
6.512834
 20
1.3757653
 11
4.9525674
 21
1.3757653
  0
LINE
  8
1
  6
CONTINUOUS
 62
1
 10
4.6094526
 20
1.3757653
 11
2.37412
 21
1.3757653
  0
LINE
  8
1
  6
CONTINUOUS
 62
1
 10
1.4592432
 20
1.3757653
 11
-1.241942
 21
1.3757653
  0
LINE
  8
1
  6
CONTINUOUS
 62
1
 10
-2.9906812
 20
1.3757653
 11
-5.2260628
 21
1.3757653
  0
LINE
  8
1
  6
CONTINUOUS
 62
1
 10
-6.1232012
 20
1.3757653
 11
-8.6349394
 21
1.3757653
  0
LINE
  8
1
  6
CONTINUOUS
 62
1
 10
-1.0311463E+001
 20
1.3757653
 11
-1.2823202E+001
 21
1.3757653
  0
LINE
  8
1
  6
CONTINUOUS
 62
1
 10
-1.372034E+001
 20
1.3757653
 11
-1.6179195E+001
 21
1.3757653
  0
LINE
  8
1
  6
CONTINUOUS
 62
1
 10
-1.7743956E+001
 20
1.3757653
 11
-2.0202811E+001
 21
1.3757653
  0
LINE
  8
1
  6
CONTINUOUS
 62
1
 10
-2.0202811E+001
 20
1.5582481
 11
-1.7743956E+001
 21
1.5582481
  0
LINE
  8
1
  6
CONTINUOUS
 62
1
 10
-1.6179195E+001
 20
1.5582481
 11
-1.3721839E+001
 21
1.5582481
  0
LINE
  8
1
  6
CONTINUOUS
 62
1
 10
-1.2808311E+001
 20
1.5582481
 11
-1.0311463E+001
 21
1.5582481
  0
LINE
  8
1
  6
CONTINUOUS
 62
1
 10
-8.6349394
 20
1.5582481
 11
-6.1380922
 21
1.5582481
  0
LINE
  8
1
  6
CONTINUOUS
 62
1
 10
-5.2260628
 20
1.5582481
 11
-2.9906812
 21
1.5582481
  0
LINE
  8
1
  6
CONTINUOUS
 62
1
 10
-1.2047656
 20
1.5582481
 11
1.4761622
 21
1.5582481
  0
LINE
  8
1
  6
CONTINUOUS
 62
1
 10
2.37412
 20
1.5582481
 11
4.6094526
 21
1.5582481
  0
LINE
  8
1
  6
CONTINUOUS
 62
1
 10
4.9124452
 20
1.5582481
 11
6.472712
 21
1.5582481
  0
LINE
  8
1
  6
CONTINUOUS
 62
1
 10
7.6639492
 20
1.5582481
 11
9.2242158
 21
1.5582481
  0
LINE
  8
1
  6
CONTINUOUS
 62
1
 10
9.5272084
 20
1.5582481
 11
1.1762541E+001
 21
1.5582481
  0
LINE
  8
1
  6
CONTINUOUS
 62
1
 10
1.3439548E+001
 20
1.5582481
 11
1.5832899E+001
 21
1.5582481
  0
LINE
  8
1
  6
CONTINUOUS
 62
1
 10
1.6409979E+001
 20
1.5582481
 11
1.8803383E+001
 21
1.5582481
  0
LINE
  8
1
  6
CONTINUOUS
 62
1
 10
1.8760413E+001
 20
1.7407311
 11
1.6377161E+001
 21
1.7407311
  0
LINE
  8
1
  6
CONTINUOUS
 62
1
 10
1.586577E+001
 20
1.7407311
 11
1.3482473E+001
 21
1.7407311
  0
LINE
  8
1
  6
CONTINUOUS
 62
1
 10
1.1762541E+001
 20
1.7407311
 11
9.5272084
 21
1.7407311
  0
LINE
  8
1
  6
CONTINUOUS
 62
1
 10
9.2643832
 20
1.7407311
 11
7.7041242
 21
1.7407311
  0
LINE
  8
1
  6
CONTINUOUS
 62
1
 10
6.4325446
 20
1.7407311
 11
4.8722778
 21
1.7407311
  0
LINE
  8
1
  6
CONTINUOUS
 62
1
 10
4.6094526
 20
1.7407311
 11
2.37412
 21
1.7407311
  0
LINE
  8
1
  6
CONTINUOUS
 62
1
 10
1.479546
 20
1.7407311
 11
-1.2024468
 21
1.7407311
  0
LINE
  8
1
  6
CONTINUOUS
 62
1
 10
-2.9906812
 20
1.7407311
 11
-5.2260628
 21
1.7407311
  0
LINE
  8
1
  6
CONTINUOUS
 62
1
 10
-6.1656912
 20
1.7407311
 11
-8.64693
 21
1.7407311
  0
LINE
  8
1
  6
CONTINUOUS
 62
1
 10
-1.0299473E+001
 20
1.7407311
 11
-1.2780712E+001
 21
1.7407311
  0
LINE
  8
1
  6
CONTINUOUS
 62
1
 10
-1.3735035E+001
 20
1.7407311
 11
-1.6179195E+001
 21
1.7407311
  0
LINE
  8
1
  6
CONTINUOUS
 62
1
 10
-1.7743956E+001
 20
1.7407311
 11
-2.0202811E+001
 21
1.7407311
  0
LINE
  8
1
  6
CONTINUOUS
 62
1
 10
-2.0202811E+001
 20
1.9232139
 11
-1.7743956E+001
 21
1.9232139
  0
LINE
  8
1
  6
CONTINUOUS
 62
1
 10
-1.6179244E+001
 20
1.9232139
 11
-1.3762056E+001
 21
1.9232139
  0
LINE
  8
1
  6
CONTINUOUS
 62
1
 10
-1.2740008E+001
 20
1.9232139
 11
-1.0242288E+001
 21
1.9232139
  0
LINE
  8
1
  6
CONTINUOUS
 62
1
 10
-8.7041146
 20
1.9232139
 11
-6.2063458
 21
1.9232139
  0
LINE
  8
1
  6
CONTINUOUS
 62
1
 10
-5.2260628
 20
1.9232139
 11
-2.9906812
 21
1.9232139
  0
LINE
  8
1
  6
CONTINUOUS
 62
1
 10
-1.2171904
 20
1.9232139
 11
1.4683748
 21
1.9232139
  0
LINE
  8
1
  6
CONTINUOUS
 62
1
 10
2.37412
 20
1.9232139
 11
6.3924224
 21
1.9232139
  0
LINE
  8
1
  6
CONTINUOUS
 62
1
 10
7.7442462
 20
1.9232139
 11
1.1762541E+001
 21
1.9232139
  0
LINE
  8
1
  6
CONTINUOUS
 62
1
 10
1.352545E+001
 20
1.9232139
 11
1.8717481E+001
 21
1.9232139
  0
LINE
  8
1
  6
CONTINUOUS
 62
1
 10
1.8674557E+001
 20
2.1056969
 11
1.3568374E+001
 21
2.1056969
  0
LINE
  8
1
  6
CONTINUOUS
 62
1
 10
1.1762541E+001
 20
2.1056969
 11
7.7844136
 21
2.1056969
  0
LINE
  8
1
  6
CONTINUOUS
 62
1
 10
6.3522476
 20
2.1056969
 11
2.37412
 21
2.1056969
  0
LINE
  8
1
  6
CONTINUOUS
 62
1
 10
1.4420826
 20
2.1056969
 11
-1.278582
 21
2.1056969
  0
LINE
  8
1
  6
CONTINUOUS
 62
1
 10
-2.9906812
 20
2.1056969
 11
-5.2260628
 21
2.1056969
  0
LINE
  8
1
  6
CONTINUOUS
 62
1
 10
-6.260728
 20
2.1056969
 11
-8.8219202
 21
2.1056969
  0
LINE
  8
1
  6
CONTINUOUS
 62
1
 10
-1.0124437E+001
 20
2.1056969
 11
-1.2685626E+001
 21
2.1056969
  0
LINE
  8
1
  6
CONTINUOUS
 62
1
 10
-1.3803341E+001
 20
2.1056969
 11
-1.6219895E+001
 21
2.1056969
  0
LINE
  8
1
  6
CONTINUOUS
 62
1
 10
-1.7743956E+001
 20
2.1056969
 11
-2.0202811E+001
 21
2.1056969
  0
LINE
  8
1
  6
CONTINUOUS
 62
1
 10
-2.0202811E+001
 20
2.2881797
 11
-1.7743956E+001
 21
2.2881797
  0
LINE
  8
1
  6
CONTINUOUS
 62
1
 10
-1.6373571E+001
 20
2.2881797
 11
-1.3859657E+001
 21
2.2881797
  0
LINE
  8
1
  6
CONTINUOUS
 62
1
 10
-1.2616643E+001
 20
2.2881797
 11
-9.8873304
 21
2.2881797
  0
LINE
  8
1
  6
CONTINUOUS
 62
1
 10
-9.0590272
 20
2.2881797
 11
-6.3297596
 21
2.2881797
  0
LINE
  8
1
  6
CONTINUOUS
 62
1
 10
-5.2260628
 20
2.2881797
 11
-2.9906812
 21
2.2881797
  0
LINE
  8
1
  6
CONTINUOUS
 62
1
 10
-1.402672
 20
2.2881797
 11
1.4000722
 21
2.2881797
  0
LINE
  8
1
  6
CONTINUOUS
 62
1
 10
2.37412
 20
2.2881797
 11
6.3121254
 21
2.2881797
  0
LINE
  8
1
  6
CONTINUOUS
 62
1
 10
7.8245356
 20
2.2881797
 11
1.1762541E+001
 21
2.2881797
  0
LINE
  8
1
  6
CONTINUOUS
 62
1
 10
1.3611298E+001
 20
2.2881797
 11
1.8631633E+001
 21
2.2881797
  0
LINE
  8
1
  6
CONTINUOUS
 62
1
 10
1.8588709E+001
 20
2.4706325
 11
1.3654223E+001
 21
2.4706325
  0
LINE
  8
1
  6
CONTINUOUS
 62
1
 10
1.1762541E+001
 20
2.4706325
 11
7.8646578
 21
2.4706325
  0
LINE
  8
1
  6
CONTINUOUS
 62
1
 10
6.271958
 20
2.4706325
 11
2.37412
 21
2.4706325
  0
LINE
  8
1
  6
CONTINUOUS
 62
1
 10
1.3413922
 20
2.4706325
 11
-1.6584804
 21
2.4706325
  0
LINE
  8
1
  6
CONTINUOUS
 62
1
 10
-2.9906812
 20
2.4706325
 11
-5.2260628
 21
2.4706325
  0
LINE
  8
1
  6
CONTINUOUS
 62
1
 10
-6.4146414
 20
2.4706325
 11
-1.2531762E+001
 21
2.4706325
  0
LINE
  8
1
  6
CONTINUOUS
 62
1
 10
-1.3932118E+001
 20
2.4706325
 11
-2.0202811E+001
 21
2.4706325
  0
LINE
  8
1
  6
CONTINUOUS
 62
1
 10
-2.0202811E+001
 20
2.6531153
 11
-1.4022415E+001
 21
2.6531153
  0
LINE
  8
1
  6
CONTINUOUS
 62
1
 10
-1.2429183E+001
 20
2.6531153
 11
-6.517171
 21
2.6531153
  0
LINE
  8
1
  6
CONTINUOUS
 62
1
 10
-5.2260628
 20
2.6531153
 11
1.2646224
 21
2.6531153
  0
LINE
  8
1
  6
CONTINUOUS
 62
1
 10
2.37412
 20
2.6531153
 11
6.231836
 21
2.6531153
  0
LINE
  8
1
  6
CONTINUOUS
 62
1
 10
7.904825
 20
2.6531153
 11
1.1762541E+001
 21
2.6531153
  0
LINE
  8
1
  6
CONTINUOUS
 62
1
 10
1.3697147E+001
 20
2.6531153
 11
1.8545731E+001
 21
2.6531153
  0
LINE
  8
1
  6
CONTINUOUS
 62
1
 10
1.8502807E+001
 20
2.8355983
 11
1.3740124E+001
 21
2.8355983
  0
LINE
  8
1
  6
CONTINUOUS
 62
1
 10
1.1762541E+001
 20
2.8355983
 11
7.945
 21
2.8355983
  0
LINE
  8
1
  6
CONTINUOUS
 62
1
 10
6.191661
 20
2.8355983
 11
2.37412
 21
2.8355983
  0
LINE
  8
1
  6
CONTINUOUS
 62
1
 10
1.1675576
 20
2.8355983
 11
-5.2260628
 21
2.8355983
  0
LINE
  8
1
  6
CONTINUOUS
 62
1
 10
-6.639905
 20
2.8355983
 11
-1.2306498E+001
 21
2.8355983
  0
LINE
  8
1
  6
CONTINUOUS
 62
1
 10
-1.4132872E+001
 20
2.8355983
 11
-2.0202811E+001
 21
2.8355983
  0
LINE
  8
1
  6
CONTINUOUS
 62
1
 10
-2.0202811E+001
 20
3.0180813
 11
-1.4266966E+001
 21
3.0180813
  0
LINE
  8
1
  6
CONTINUOUS
 62
1
 10
-1.215993E+001
 20
3.0180813
 11
-6.7864238
 21
3.0180813
  0
LINE
  8
1
  6
CONTINUOUS
 62
1
 10
-5.2260628
 20
3.0180813
 11
1.0469496
 21
3.0180813
  0
LINE
  8
1
  6
CONTINUOUS
 62
1
 10
2.37412
 20
3.0180813
 11
6.151539
 21
3.0180813
  0
LINE
  8
1
  6
CONTINUOUS
 62
1
 10
7.9851222
 20
3.0180813
 11
1.1762541E+001
 21
3.0180813
  0
LINE
  8
1
  6
CONTINUOUS
 62
1
 10
1.3783048E+001
 20
3.0180813
 11
1.8459883E+001
 21
3.0180813
  0
LINE
  8
1
  6
CONTINUOUS
 62
1
 10
1.8416959E+001
 20
3.2005339
 11
1.3825973E+001
 21
3.2005339
  0
LINE
  8
1
  6
CONTINUOUS
 62
1
 10
1.1762541E+001
 20
3.2005339
 11
8.0252442
 21
3.2005339
  0
LINE
  8
1
  6
CONTINUOUS
 62
1
 10
6.1113716
 20
3.2005339
 11
2.37412
 21
3.2005339
  0
LINE
  8
1
  6
CONTINUOUS
 62
1
 10
8.9767784E-001
 20
3.2005339
 11
-5.2260628
 21
3.2005339
  0
LINE
  8
1
  6
CONTINUOUS
 62
1
 10
-6.9625282
 20
3.2005339
 11
-1.1983875E+001
 21
3.2005339
  0
LINE
  8
1
  6
CONTINUOUS
 62
1
 10
-1.4430162E+001
 20
3.2005339
 11
-2.0202811E+001
 21
3.2005339
  0
LINE
  8
1
  6
CONTINUOUS
 62
1
 10
-2.0202811E+001
 20
3.3830169
 11
-1.4631595E+001
 21
3.3830169
  0
LINE
  8
1
  6
CONTINUOUS
 62
1
 10
-1.1768668E+001
 20
3.3830169
 11
-7.1777348
 21
3.3830169
  0
LINE
  8
1
  6
CONTINUOUS
 62
1
 10
-5.2260628
 20
3.3830169
 11
7.1098784E-001
 21
3.3830169
  0
LINE
  8
1
  6
CONTINUOUS
 62
1
 10
2.37412
 20
3.3830169
 11
6.0712496
 21
3.3830169
  0
LINE
  8
1
  6
CONTINUOUS
 62
1
 10
8.0654116
 20
3.3830169
 11
1.1762541E+001
 21
3.3830169
  0
LINE
  8
1
  6
CONTINUOUS
 62
1
 10
1.3868904E+001
 20
3.3830169
 11
1.8374027E+001
 21
3.3830169
  0
LINE
  8
1
  6
CONTINUOUS
 62
1
 10
1.8331057E+001
 20
3.5654997
 11
1.3911829E+001
 21
3.5654997
  0
LINE
  8
1
  6
CONTINUOUS
 62
1
 10
1.1762541E+001
 20
3.5654997
 11
8.1055336
 21
3.5654997
  0
LINE
  8
1
  6
CONTINUOUS
 62
1
 10
6.0311274
 20
3.5654997
 11
2.37412
 21
3.5654997
  0
LINE
  8
1
  6
CONTINUOUS
 62
1
 10
4.6982484E-001
 20
3.5654997
 11
-5.2260628
 21
3.5654997
  0
LINE
  8
1
  6
CONTINUOUS
 62
1
 10
-7.4505642
 20
3.5654997
 11
-1.1495839E+001
 21
3.5654997
  0
LINE
  8
1
  6
CONTINUOUS
 62
1
 10
-1.4889054E+001
 20
3.5654997
 11
-2.0202811E+001
 21
3.5654997
  0
LINE
  8
1
  6
CONTINUOUS
 62
1
 10
-2.0202811E+001
 20
3.7479525
 11
-1.5247928E+001
 21
3.7479525
  0
LINE
  8
1
  6
CONTINUOUS
 62
1
 10
-1.1118063E+001
 20
3.7479525
 11
-7.82834
 21
3.7479525
  0
LINE
  8
1
  6
CONTINUOUS
 62
1
 10
-5.2260628
 20
3.7479525
 11
1.3086424E-001
 21
3.7479525
  0
LINE
  8
1
  6
CONTINUOUS
 62
1
 10
2.37412
 20
3.7479525
 11
5.99096
 21
3.7479525
  0
LINE
  8
1
  6
CONTINUOUS
 62
1
 10
8.1457086
 20
3.7479525
 11
1.1762541E+001
 21
3.7479525
  0
LINE
  8
1
  6
CONTINUOUS
 62
1
 10
1.3954798E+001
 20
3.7479525
 11
1.8288133E+001
 21
3.7479525
  0
LINE
  8
1
  6
CONTINUOUS
 62
1
 10
1.8245201E+001
 20
3.9304353
 11
1.399773E+001
 21
3.9304353
  0
LINE
  8
1
  6
CONTINUOUS
 62
1
 10
1.1762541E+001
 20
3.9304353
 11
8.1858306
 21
3.9304353
  0
LINE
  8
1
  6
CONTINUOUS
 62
1
 10
5.950838
 20
3.9304353
 11
2.37412
 21
3.9304353
  0
LINE
  8
1
  6
CONTINUOUS
 62
1
 10
-6.9888916E-001
 20
3.9304353
 11
-5.2260628
 21
3.9304353
  0
LINE
  8
1
  6
CONTINUOUS
 62
1
 10
-8.740902
 20
3.9304353
 11
-1.0205452E+001
 21
3.9304353
  0
LINE
  8
1
  6
CONTINUOUS
 62
1
 10
-1.6120028E+001
 20
3.9304353
 11
-2.0202811E+001
 21
3.9304353
  0
ENDBLK
  0
BLOCK
  2
*XH149
  3
*XH
 10
0.0
 20
0.0
 70
65
  0
LINE
  8
1
  6
CONTINUOUS
 62
1
 10
-1.918589E+001
 20
-6.9235838
 11
-1.6317838E+001
 21
-6.9235838
  0
LINE
  8
1
  6
CONTINUOUS
 62
1
 10
1.6317837E+001
 20
-6.9235838
 11
1.9185893E+001
 21
-6.9235838
  0
LINE
  8
1
  6
CONTINUOUS
 62
1
 10
1.9237957E+001
 20
-6.741101
 11
1.6370143E+001
 21
-6.741101
  0
LINE
  8
1
  6
CONTINUOUS
 62
1
 10
-1.6370143E+001
 20
-6.741101
 11
-1.9237953E+001
 21
-6.741101
  0
LINE
  8
1
  6
CONTINUOUS
 62
1
 10
-1.9289968E+001
 20
-6.558618
 11
-1.6422493E+001
 21
-6.558618
  0
LINE
  8
1
  6
CONTINUOUS
 62
1
 10
1.6422493E+001
 20
-6.558618
 11
1.9289967E+001
 21
-6.558618
  0
LINE
  8
1
  6
CONTINUOUS
 62
1
 10
1.9342031E+001
 20
-6.3761654
 11
1.6474798E+001
 21
-6.3761654
  0
LINE
  8
1
  6
CONTINUOUS
 62
1
 10
-1.6474799E+001
 20
-6.3761654
 11
-1.9342027E+001
 21
-6.3761654
  0
LINE
  8
1
  6
CONTINUOUS
 62
1
 10
-1.9394091E+001
 20
-6.1936824
 11
-1.6527104E+001
 21
-6.1936824
  0
LINE
  8
1
  6
CONTINUOUS
 62
1
 10
1.6527103E+001
 20
-6.1936824
 11
1.9394094E+001
 21
-6.1936824
  0
LINE
  8
1
  6
CONTINUOUS
 62
1
 10
1.9446105E+001
 20
-6.0111996
 11
1.6579454E+001
 21
-6.0111996
  0
LINE
  8
1
  6
CONTINUOUS
 62
1
 10
-1.6579454E+001
 20
-6.0111996
 11
-1.9446105E+001
 21
-6.0111996
  0
LINE
  8
1
  6
CONTINUOUS
 62
1
 10
-1.9498165E+001
 20
-5.8287166
 11
-1.663176E+001
 21
-5.8287166
  0
LINE
  8
1
  6
CONTINUOUS
 62
1
 10
1.6631759E+001
 20
-5.8287166
 11
1.9498168E+001
 21
-5.8287166
  0
LINE
  8
1
  6
CONTINUOUS
 62
1
 10
1.9550232E+001
 20
-5.6462338
 11
1.668411E+001
 21
-5.6462338
  0
LINE
  8
1
  6
CONTINUOUS
 62
1
 10
-1.668411E+001
 20
-5.6462338
 11
-1.9550229E+001
 21
-5.6462338
  0
LINE
  8
1
  6
CONTINUOUS
 62
1
 10
-1.9602288E+001
 20
-5.463781
 11
-1.6736415E+001
 21
-5.463781
  0
LINE
  8
1
  6
CONTINUOUS
 62
1
 10
1.6736415E+001
 20
-5.463781
 11
1.9602243E+001
 21
-5.463781
  0
LINE
  8
1
  6
CONTINUOUS
 62
1
 10
1.9654306E+001
 20
-5.2812982
 11
1.6788766E+001
 21
-5.2812982
  0
LINE
  8
1
  6
CONTINUOUS
 62
1
 10
-1.6788766E+001
 20
-5.2812982
 11
-1.9654303E+001
 21
-5.2812982
  0
LINE
  8
1
  6
CONTINUOUS
 62
1
 10
-1.9706366E+001
 20
-5.0988152
 11
-1.6841071E+001
 21
-5.0988152
  0
LINE
  8
1
  6
CONTINUOUS
 62
1
 10
1.6841071E+001
 20
-5.0988152
 11
1.970637E+001
 21
-5.0988152
  0
LINE
  8
1
  6
CONTINUOUS
 62
1
 10
1.9758426E+001
 20
-4.9163626
 11
1.6893376E+001
 21
-4.9163626
  0
LINE
  8
1
  6
CONTINUOUS
 62
1
 10
-1.6893373E+001
 20
-4.9163626
 11
-1.9758426E+001
 21
-4.9163626
  0
LINE
  8
1
  6
CONTINUOUS
 62
1
 10
-1.981044E+001
 20
-4.7338796
 11
-1.6945727E+001
 21
-4.7338796
  0
LINE
  8
1
  6
CONTINUOUS
 62
1
 10
1.6945727E+001
 20
-4.7338796
 11
1.9810444E+001
 21
-4.7338796
  0
LINE
  8
1
  6
CONTINUOUS
 62
1
 10
1.9862507E+001
 20
-4.5513966
 11
1.6998032E+001
 21
-4.5513966
  0
LINE
  8
1
  6
CONTINUOUS
 62
1
 10
3.7941015
 20
-4.5513966
 11
3.6492709
 21
-4.5513966
  0
LINE
  8
1
  6
CONTINUOUS
 62
1
 10
-3.6492713
 20
-4.5513966
 11
-3.7940983
 21
-4.5513966
  0
LINE
  8
1
  6
CONTINUOUS
 62
1
 10
-1.6998028E+001
 20
-4.5513966
 11
-1.9862504E+001
 21
-4.5513966
  0
LINE
  8
1
  6
CONTINUOUS
 62
1
 10
-1.9914564E+001
 20
-4.3689138
 11
-1.7050383E+001
 21
-4.3689138
  0
LINE
  8
1
  6
CONTINUOUS
 62
1
 10
-5.3646599
 20
-4.3689138
 11
-3.5439397
 21
-4.3689138
  0
LINE
  8
1
  6
CONTINUOUS
 62
1
 10
3.5439429
 20
-4.3689138
 11
5.3647083
 21
-4.3689138
  0
LINE
  8
1
  6
CONTINUOUS
 62
1
 10
1.7050382E+001
 20
-4.3689138
 11
1.9914563E+001
 21
-4.3689138
  0
LINE
  8
1
  6
CONTINUOUS
 62
1
 10
1.9966582E+001
 20
-4.186461
 11
1.7102688E+001
 21
-4.186461
  0
LINE
  8
1
  6
CONTINUOUS
 62
1
 10
6.5649413
 20
-4.186461
 11
3.4385619
 21
-4.186461
  0
LINE
  8
1
  6
CONTINUOUS
 62
1
 10
-3.4385587
 20
-4.186461
 11
-6.5648891
 21
-4.186461
  0
LINE
  8
1
  6
CONTINUOUS
 62
1
 10
-1.7102684E+001
 20
-4.186461
 11
-1.9966627E+001
 21
-4.186461
  0
LINE
  8
1
  6
CONTINUOUS
 62
1
 10
-2.0018642E+001
 20
-4.0039782
 11
-1.7155038E+001
 21
-4.0039782
  0
LINE
  8
1
  6
CONTINUOUS
 62
1
 10
-7.5729675
 20
-4.0039782
 11
-3.3332271
 21
-4.0039782
  0
LINE
  8
1
  6
CONTINUOUS
 62
1
 10
3.3332265
 20
-4.0039782
 11
7.5729707
 21
-4.0039782
  0
LINE
  8
1
  6
CONTINUOUS
 62
1
 10
1.7155038E+001
 20
-4.0039782
 11
2.0018645E+001
 21
-4.0039782
  0
LINE
  8
1
  6
CONTINUOUS
 62
1
 10
2.0070701E+001
 20
-3.8214952
 11
1.7207343E+001
 21
-3.8214952
  0
LINE
  8
1
  6
CONTINUOUS
 62
1
 10
8.4578315
 20
-3.8214952
 11
3.2278909
 21
-3.8214952
  0
LINE
  8
1
  6
CONTINUOUS
 62
1
 10
-3.2278877
 20
-3.8214952
 11
-8.4578283
 21
-3.8214952
  0
LINE
  8
1
  6
CONTINUOUS
 62
1
 10
-1.720734E+001
 20
-3.8214952
 11
-2.0070701E+001
 21
-3.8214952
  0
LINE
  8
1
  6
CONTINUOUS
 62
1
 10
-2.0122765E+001
 20
-3.6390124
 11
-1.7259645E+001
 21
-3.6390124
  0
LINE
  8
1
  6
CONTINUOUS
 62
1
 10
-9.2549031
 20
-3.6390124
 11
-3.1225069
 21
-3.6390124
  0
LINE
  8
1
  6
CONTINUOUS
 62
1
 10
3.1225101
 20
-3.6390124
 11
9.2549027
 21
-3.6390124
  0
LINE
  8
1
  6
CONTINUOUS
 62
1
 10
1.7259648E+001
 20
-3.6390124
 11
2.0122765E+001
 21
-3.6390124
  0
LINE
  8
1
  6
CONTINUOUS
 62
1
 10
2.0174783E+001
 20
-3.4565294
 11
1.7311999E+001
 21
-3.4565294
  0
LINE
  8
1
  6
CONTINUOUS
 62
1
 10
9.9852723
 20
-3.4565294
 11
3.0171821
 21
-3.4565294
  0
LINE
  8
1
  6
CONTINUOUS
 62
1
 10
-3.0171789
 20
-3.4565294
 11
-9.9852729
 21
-3.4565294
  0
LINE
  8
1
  6
CONTINUOUS
 62
1
 10
-1.7311996E+001
 20
-3.4565294
 11
-2.0174779E+001
 21
-3.4565294
  0
LINE
  8
1
  6
CONTINUOUS
 62
1
 10
-2.0226839E+001
 20
-3.2740466
 11
-1.7364301E+001
 21
-3.2740466
  0
LINE
  8
1
  6
CONTINUOUS
 62
1
 10
-1.0662559E+001
 20
-3.2740466
 11
-2.9117979
 21
-3.2740466
  0
LINE
  8
1
  6
CONTINUOUS
 62
1
 10
2.9118011
 20
-3.2740466
 11
1.0662612E+001
 21
-3.2740466
  0
LINE
  8
1
  6
CONTINUOUS
 62
1
 10
1.7364304E+001
 20
-3.2740466
 11
2.0226839E+001
 21
-3.2740466
  0
LINE
  8
1
  6
CONTINUOUS
 62
1
 10
2.0278902E+001
 20
-3.0915636
 11
1.7416655E+001
 21
-3.0915636
  0
LINE
  8
1
  6
CONTINUOUS
 62
1
 10
1.1296445E+001
 20
-3.0915636
 11
2.8064657
 21
-3.0915636
  0
LINE
  8
1
  6
CONTINUOUS
 62
1
 10
-2.8064699
 20
-3.0915636
 11
-1.1296442E+001
 21
-3.0915636
  0
LINE
  8
1
  6
CONTINUOUS
 62
1
 10
-1.7416651E+001
 20
-3.0915636
 11
-2.0278903E+001
 21
-3.0915636
  0
LINE
  8
1
  6
CONTINUOUS
 62
1
 10
-2.0330917E+001
 20
-2.9090808
 11
-1.7468957E+001
 21
-2.9090808
  0
LINE
  8
1
  6
CONTINUOUS
 62
1
 10
-1.1893775E+001
 20
-2.9090808
 11
-2.7010891
 21
-2.9090808
  0
LINE
  8
1
  6
CONTINUOUS
 62
1
 10
2.7010847
 20
-2.9090808
 11
1.1893775E+001
 21
-2.9090808
  0
LINE
  8
1
  6
CONTINUOUS
 62
1
 10
1.746896E+001
 20
-2.9090808
 11
2.033092E+001
 21
-2.9090808
  0
LINE
  8
1
  6
CONTINUOUS
 62
1
 10
2.0382976E+001
 20
-2.726628
 11
1.7521311E+001
 21
-2.726628
  0
LINE
  8
1
  6
CONTINUOUS
 62
1
 10
1.2459834E+001
 20
-2.726628
 11
2.5957567
 21
-2.726628
  0
LINE
  8
1
  6
CONTINUOUS
 62
1
 10
-2.5957535
 20
-2.726628
 11
-1.2459835E+001
 21
-2.726628
  0
LINE
  8
1
  6
CONTINUOUS
 62
1
 10
-1.7521307E+001
 20
-2.726628
 11
-2.0382977E+001
 21
-2.726628
  0
LINE
  8
1
  6
CONTINUOUS
 62
1
 10
-2.043504E+001
 20
-2.5441452
 11
-1.7573612E+001
 21
-2.5441452
  0
LINE
  8
1
  6
CONTINUOUS
 62
1
 10
-1.299868E+001
 20
-2.5441452
 11
-2.4903727
 21
-2.5441452
  0
LINE
  8
1
  6
CONTINUOUS
 62
1
 10
2.4903759
 20
-2.5441452
 11
1.299868E+001
 21
-2.5441452
  0
LINE
  8
1
  6
CONTINUOUS
 62
1
 10
1.7573616E+001
 20
-2.5441452
 11
2.043504E+001
 21
-2.5441452
  0
LINE
  8
1
  6
CONTINUOUS
 62
1
 10
2.0487058E+001
 20
-2.3616622
 11
1.7625913E+001
 21
-2.3616622
  0
LINE
  8
1
  6
CONTINUOUS
 62
1
 10
1.3513643E+001
 20
-2.3616622
 11
2.3850403
 21
-2.3616622
  0
LINE
  8
1
  6
CONTINUOUS
 62
1
 10
-2.3850371
 20
-2.3616622
 11
-1.3513643E+001
 21
-2.3616622
  0
LINE
  8
1
  6
CONTINUOUS
 62
1
 10
-1.7625914E+001
 20
-2.3616622
 11
-2.0487104E+001
 21
-2.3616622
  0
LINE
  8
1
  6
CONTINUOUS
 62
1
 10
-2.0539115E+001
 20
-2.1791792
 11
-1.7678268E+001
 21
-2.1791792
  0
LINE
  8
1
  6
CONTINUOUS
 62
1
 10
-1.4007291E+001
 20
-2.1791792
 11
-2.2797017
 21
-2.1791792
  0
LINE
  8
1
  6
CONTINUOUS
 62
1
 10
2.2797049
 20
-2.1791792
 11
1.4007291E+001
 21
-2.1791792
  0
LINE
  8
1
  6
CONTINUOUS
 62
1
 10
1.7678272E+001
 20
-2.1791792
 11
2.0539114E+001
 21
-2.1791792
  0
LINE
  8
1
  6
CONTINUOUS
 62
1
 10
2.0591178E+001
 20
-1.9966964
 11
1.7730569E+001
 21
-1.9966964
  0
LINE
  8
1
  6
CONTINUOUS
 62
1
 10
1.4481845E+001
 20
-1.9966964
 11
2.1743239
 21
-1.9966964
  0
LINE
  8
1
  6
CONTINUOUS
 62
1
 10
-2.1743207
 20
-1.9966964
 11
-1.4481845E+001
 21
-1.9966964
  0
LINE
  8
1
  6
CONTINUOUS
 62
1
 10
-1.773057E+001
 20
-1.9966964
 11
-2.0591178E+001
 21
-1.9966964
  0
LINE
  8
1
  6
CONTINUOUS
 62
1
 10
-2.0643242E+001
 20
-1.8142436
 11
-1.7782924E+001
 21
-1.8142436
  0
LINE
  8
1
  6
CONTINUOUS
 62
1
 10
-1.4939091E+001
 20
-1.8142436
 11
-2.0689929
 21
-1.8142436
  0
LINE
  8
1
  6
CONTINUOUS
 62
1
 10
2.0689961
 20
-1.8142436
 11
1.4939094E+001
 21
-1.8142436
  0
LINE
  8
1
  6
CONTINUOUS
 62
1
 10
1.7782927E+001
 20
-1.8142436
 11
2.0643241E+001
 21
-1.8142436
  0
LINE
  8
1
  6
CONTINUOUS
 62
1
 10
2.0695252E+001
 20
-1.6317608
 11
1.7835225E+001
 21
-1.6317608
  0
LINE
  8
1
  6
CONTINUOUS
 62
1
 10
1.5380581E+001
 20
-1.6317608
 11
1.9636151
 21
-1.6317608
  0
LINE
  8
1
  6
CONTINUOUS
 62
1
 10
-1.9636119
 20
-1.6317608
 11
-1.5380577E+001
 21
-1.6317608
  0
LINE
  8
1
  6
CONTINUOUS
 62
1
 10
-1.7835225E+001
 20
-1.6317608
 11
-2.0695252E+001
 21
-1.6317608
  0
LINE
  8
1
  6
CONTINUOUS
 62
1
 10
-2.0747316E+001
 20
-1.4492778
 11
-1.788758E+001
 21
-1.4492778
  0
LINE
  8
1
  6
CONTINUOUS
 62
1
 10
-1.5807611E+001
 20
-1.4492778
 11
-1.8582839
 21
-1.4492778
  0
LINE
  8
1
  6
CONTINUOUS
 62
1
 10
1.8582797
 20
-1.4492778
 11
1.5807663E+001
 21
-1.4492778
  0
LINE
  8
1
  6
CONTINUOUS
 62
1
 10
1.7887583E+001
 20
-1.4492778
 11
2.0747315E+001
 21
-1.4492778
  0
LINE
  8
1
  6
CONTINUOUS
 62
1
 10
2.0799379E+001
 20
-1.2668252
 11
1.7939881E+001
 21
-1.2668252
  0
LINE
  8
1
  6
CONTINUOUS
 62
1
 10
1.6221399E+001
 20
-1.2668252
 11
1.7529517
 21
-1.2668252
  0
LINE
  8
1
  6
CONTINUOUS
 62
1
 10
-1.7529485
 20
-1.2668252
 11
-1.62214E+001
 21
-1.2668252
  0
LINE
  8
1
  6
CONTINUOUS
 62
1
 10
-1.7939881E+001
 20
-1.2668252
 11
-2.0799379E+001
 21
-1.2668252
  0
LINE
  8
1
  6
CONTINUOUS
 62
1
 10
-2.085139E+001
 20
-1.0843422
 11
-1.7992186E+001
 21
-1.0843422
  0
LINE
  8
1
  6
CONTINUOUS
 62
1
 10
-1.6622862E+001
 20
-1.0843422
 11
-5.7478967
 21
-1.0843422
  0
LINE
  8
1
  6
CONTINUOUS
 62
1
 10
-4.8081701
 20
-1.0843422
 11
-1.6475675
 21
-1.0843422
  0
LINE
  8
1
  6
CONTINUOUS
 62
1
 10
1.6475707
 20
-1.0843422
 11
4.8081733
 21
-1.0843422
  0
LINE
  8
1
  6
CONTINUOUS
 62
1
 10
5.7478999
 20
-1.0843422
 11
1.6622915E+001
 21
-1.0843422
  0
LINE
  8
1
  6
CONTINUOUS
 62
1
 10
1.7992186E+001
 20
-1.0843422
 11
2.085139E+001
 21
-1.0843422
  0
LINE
  8
1
  6
CONTINUOUS
 62
1
 10
2.0903453E+001
 20
-9.0185944E-001
 11
1.8044536E+001
 21
-9.0185944E-001
  0
LINE
  8
1
  6
CONTINUOUS
 62
1
 10
1.7012919E+001
 20
-9.0185944E-001
 11
6.7939741
 21
-9.0185944E-001
  0
LINE
  8
1
  6
CONTINUOUS
 62
1
 10
4.7027923
 20
-9.0185944E-001
 11
1.5422353
 21
-9.0185944E-001
  0
LINE
  8
1
  6
CONTINUOUS
 62
1
 10
-1.5422321
 20
-9.0185944E-001
 11
-4.7027891
 21
-9.0185944E-001
  0
LINE
  8
1
  6
CONTINUOUS
 62
1
 10
-6.7939709
 20
-9.0185944E-001
 11
-1.7012919E+001
 21
-9.0185944E-001
  0
LINE
  8
1
  6
CONTINUOUS
 62
1
 10
-1.8044537E+001
 20
-9.0185944E-001
 11
-2.0903453E+001
 21
-9.0185944E-001
  0
LINE
  8
1
  6
CONTINUOUS
 62
1
 10
-2.0955517E+001
 20
-7.1937644E-001
 11
-1.8096842E+001
 21
-7.1937644E-001
  0
LINE
  8
1
  6
CONTINUOUS
 62
1
 10
-1.7392289E+001
 20
-7.1937644E-001
 11
-7.6948329
 21
-7.1937644E-001
  0
LINE
  8
1
  6
CONTINUOUS
 62
1
 10
-4.5974575
 20
-7.1937644E-001
 11
-1.4368511
 21
-7.1937644E-001
  0
LINE
  8
1
  6
CONTINUOUS
 62
1
 10
1.4368543
 20
-7.1937644E-001
 11
4.5974569
 21
-7.1937644E-001
  0
LINE
  8
1
  6
CONTINUOUS
 62
1
 10
7.6948323
 20
-7.1937644E-001
 11
1.7392341E+001
 21
-7.1937644E-001
  0
LINE
  8
1
  6
CONTINUOUS
 62
1
 10
1.8096842E+001
 20
-7.1937644E-001
 11
2.0955517E+001
 21
-7.1937644E-001
  0
LINE
  8
1
  6
CONTINUOUS
 62
1
 10
2.100758E+001
 20
-5.3692384E-001
 11
1.8149192E+001
 21
-5.3692384E-001
  0
LINE
  8
1
  6
CONTINUOUS
 62
1
 10
1.7761748E+001
 20
-5.3692384E-001
 11
8.4968885
 21
-5.3692384E-001
  0
LINE
  8
1
  6
CONTINUOUS
 62
1
 10
4.4921289
 20
-5.3692384E-001
 11
1.3315263
 21
-5.3692384E-001
  0
LINE
  8
1
  6
CONTINUOUS
 62
1
 10
-1.3315157
 20
-5.3692384E-001
 11
-4.4921257
 21
-5.3692384E-001
  0
LINE
  8
1
  6
CONTINUOUS
 62
1
 10
-8.4968891
 20
-5.3692384E-001
 11
-1.7761749E+001
 21
-5.3692384E-001
  0
LINE
  8
1
  6
CONTINUOUS
 62
1
 10
-1.8149193E+001
 20
-5.3692384E-001
 11
-2.1007577E+001
 21
-5.3692384E-001
  0
LINE
  8
1
  6
CONTINUOUS
 62
1
 10
-2.1059591E+001
 20
-3.5444084E-001
 11
-1.8201498E+001
 21
-3.5444084E-001
  0
LINE
  8
1
  6
CONTINUOUS
 62
1
 10
-1.8121786E+001
 20
-3.5444084E-001
 11
-9.2258993
 21
-3.5444084E-001
  0
LINE
  8
1
  6
CONTINUOUS
 62
1
 10
-4.3867449
 20
-3.5444084E-001
 11
-1.2261347
 21
-3.5444084E-001
  0
LINE
  8
1
  6
CONTINUOUS
 62
1
 10
1.2261455
 20
-3.5444084E-001
 11
4.3867481
 21
-3.5444084E-001
  0
LINE
  8
1
  6
CONTINUOUS
 62
1
 10
9.2258987
 20
-3.5444084E-001
 11
1.812179E+001
 21
-3.5444084E-001
  0
LINE
  8
1
  6
CONTINUOUS
 62
1
 10
1.8201497E+001
 20
-3.5444084E-001
 11
2.1059591E+001
 21
-3.5444084E-001
  0
LINE
  8
1
  6
CONTINUOUS
 62
1
 10
2.1111654E+001
 20
-1.7195804E-001
 11
9.8979735
 21
-1.7195804E-001
  0
LINE
  8
1
  6
CONTINUOUS
 62
1
 10
4.2814125
 20
-1.7195804E-001
 11
1.1208099
 21
-1.7195804E-001
  0
LINE
  8
1
  6
CONTINUOUS
 62
1
 10
-1.1208067
 20
-1.7195804E-001
 11
-4.2814131
 21
-1.7195804E-001
  0
LINE
  8
1
  6
CONTINUOUS
 62
1
 10
-9.8979703
 20
-1.7195804E-001
 11
-2.1111655E+001
 21
-1.7195804E-001
  0
LINE
  8
1
  6
CONTINUOUS
 62
1
 10
-2.1163714E+001
 20
1.0524958E-002
 11
-1.0524115E+001
 21
1.0524958E-002
  0
LINE
  8
1
  6
CONTINUOUS
 62
1
 10
-4.1760321
 20
1.0524958E-002
 11
-1.0154787
 21
1.0524958E-002
  0
LINE
  8
1
  6
CONTINUOUS
 62
1
 10
1.0154745
 20
1.0524958E-002
 11
4.1760317
 21
1.0524958E-002
  0
LINE
  8
1
  6
CONTINUOUS
 62
1
 10
1.0524118E+001
 20
1.0524958E-002
 11
2.1163718E+001
 21
1.0524958E-002
  0
LINE
  8
1
  6
CONTINUOUS
 62
1
 10
2.1215728E+001
 20
1.9300796E-001
 11
1.1112029E+001
 21
1.9300796E-001
  0
LINE
  8
1
  6
CONTINUOUS
 62
1
 10
4.0706961
 20
1.9300796E-001
 11
9.100935E-001
 21
1.9300796E-001
  0
LINE
  8
1
  6
CONTINUOUS
 62
1
 10
-9.100979E-001
 20
1.9300796E-001
 11
-4.0706967
 21
1.9300796E-001
  0
LINE
  8
1
  6
CONTINUOUS
 62
1
 10
-1.1112025E+001
 20
1.9300796E-001
 11
-2.1215729E+001
 21
1.9300796E-001
  0
LINE
  8
1
  6
CONTINUOUS
 62
1
 10
-2.1267792E+001
 20
3.7549076E-001
 11
-1.1667499E+001
 21
3.7549076E-001
  0
LINE
  8
1
  6
CONTINUOUS
 62
1
 10
-3.9653157
 20
3.7549076E-001
 11
-8.047623E-001
 21
3.7549076E-001
  0
LINE
  8
1
  6
CONTINUOUS
 62
1
 10
8.047581E-001
 20
3.7549076E-001
 11
3.9653153
 21
3.7549076E-001
  0
LINE
  8
1
  6
CONTINUOUS
 62
1
 10
1.1667499E+001
 20
3.7549076E-001
 11
2.1267792E+001
 21
3.7549076E-001
  0
LINE
  8
1
  6
CONTINUOUS
 62
1
 10
2.1319855E+001
 20
5.5797376E-001
 11
1.2194932E+001
 21
5.5797376E-001
  0
LINE
  8
1
  6
CONTINUOUS
 62
1
 10
3.8599873
 20
5.5797376E-001
 11
6.993771E-001
 21
5.5797376E-001
  0
LINE
  8
1
  6
CONTINUOUS
 62
1
 10
-6.993815E-001
 20
5.5797376E-001
 11
-3.8599841
 21
5.5797376E-001
  0
LINE
  8
1
  6
CONTINUOUS
 62
1
 10
-1.2194981E+001
 20
5.5797376E-001
 11
-2.1319852E+001
 21
5.5797376E-001
  0
LINE
  8
1
  6
CONTINUOUS
 62
1
 10
-2.1371916E+001
 20
7.4045656E-001
 11
-1.2697908E+001
 21
7.4045656E-001
  0
LINE
  8
1
  6
CONTINUOUS
 62
1
 10
-3.7546523
 20
7.4045656E-001
 11
-5.940459E-001
 21
7.4045656E-001
  0
LINE
  8
1
  6
CONTINUOUS
 62
1
 10
5.940491E-001
 20
7.4045656E-001
 11
3.7546517
 21
7.4045656E-001
  0
LINE
  8
1
  6
CONTINUOUS
 62
1
 10
1.2697908E+001
 20
7.4045656E-001
 11
2.1371866E+001
 21
7.4045656E-001
  0
LINE
  8
1
  6
CONTINUOUS
 62
1
 10
2.142393E+001
 20
9.2290936E-001
 11
1.3179184E+001
 21
9.2290936E-001
  0
LINE
  8
1
  6
CONTINUOUS
 62
1
 10
3.6492709
 20
9.2290936E-001
 11
4.886683E-001
 21
9.2290936E-001
  0
LINE
  8
1
  6
CONTINUOUS
 62
1
 10
-4.886651E-001
 20
9.2290936E-001
 11
-3.6492713
 21
9.2290936E-001
  0
LINE
  8
1
  6
CONTINUOUS
 62
1
 10
-1.3179181E+001
 20
9.2290936E-001
 11
-2.142393E+001
 21
9.2290936E-001
  0
LINE
  8
1
  6
CONTINUOUS
 62
1
 10
-2.147599E+001
 20
1.1053922
 11
-1.3641019E+001
 21
1.1053922
  0
LINE
  8
1
  6
CONTINUOUS
 62
1
 10
-3.5439397
 20
1.1053922
 11
-3.833295E-001
 21
1.1053922
  0
LINE
  8
1
  6
CONTINUOUS
 62
1
 10
3.833403E-001
 20
1.1053922
 11
3.5439429
 21
1.1053922
  0
LINE
  8
1
  6
CONTINUOUS
 62
1
 10
1.3641018E+001
 20
1.1053922
 11
2.1475993E+001
 21
1.1053922
  0
LINE
  8
1
  6
CONTINUOUS
 62
1
 10
2.1528057E+001
 20
1.2878752
 11
1.4085413E+001
 21
1.2878752
  0
LINE
  8
1
  6
CONTINUOUS
 62
1
 10
3.4385619
 20
1.2878752
 11
2.779595E-001
 21
1.2878752
  0
LINE
  8
1
  6
CONTINUOUS
 62
1
 10
-2.779487E-001
 20
1.2878752
 11
-3.4385587
 21
1.2878752
  0
LINE
  8
1
  6
CONTINUOUS
 62
1
 10
-1.4085409E+001
 20
1.2878752
 11
-2.1528053E+001
 21
1.2878752
  0
LINE
  8
1
  6
CONTINUOUS
 62
1
 10
-2.1580068E+001
 20
1.470358
 11
-1.4513844E+001
 21
1.470358
  0
LINE
  8
1
  6
CONTINUOUS
 62
1
 10
-3.3332271
 20
1.470358
 11
-1.726207E-001
 21
1.470358
  0
LINE
  8
1
  6
CONTINUOUS
 62
1
 10
1.726239E-001
 20
1.470358
 11
3.3332265
 21
1.470358
  0
LINE
  8
1
  6
CONTINUOUS
 62
1
 10
1.4513847E+001
 20
1.470358
 11
2.1580067E+001
 21
1.470358
  0
LINE
  8
1
  6
CONTINUOUS
 62
1
 10
2.1632131E+001
 20
1.6528108
 11
1.4927825E+001
 21
1.6528108
  0
LINE
  8
1
  6
CONTINUOUS
 62
1
 10
3.2278455
 20
1.6528108
 11
6.7288304E-002
 21
1.6528108
  0
LINE
  8
1
  6
CONTINUOUS
 62
1
 10
-6.7292696E-002
 20
1.6528108
 11
-3.2278423
 21
1.6528108
  0
LINE
  8
1
  6
CONTINUOUS
 62
1
 10
-1.4927825E+001
 20
1.6528108
 11
-2.1632127E+001
 21
1.6528108
  0
LINE
  8
1
  6
CONTINUOUS
 62
1
 10
-2.1684191E+001
 20
1.8352936
 11
-1.5328419E+001
 21
1.8352936
  0
LINE
  8
1
  6
CONTINUOUS
 62
1
 10
-3.1225069
 20
1.8352936
 11
3.1225101
 21
1.8352936
  0
LINE
  8
1
  6
CONTINUOUS
 62
1
 10
1.5328419E+001
 20
1.8352936
 11
2.1684194E+001
 21
1.8352936
  0
LINE
  8
1
  6
CONTINUOUS
 62
1
 10
2.1736205E+001
 20
2.0177766
 11
1.5716686E+001
 21
2.0177766
  0
LINE
  8
1
  6
CONTINUOUS
 62
1
 10
3.0171821
 20
2.0177766
 11
-3.0171789
 21
2.0177766
  0
LINE
  8
1
  6
CONTINUOUS
 62
1
 10
-1.5716686E+001
 20
2.0177766
 11
-2.1736251E+001
 21
2.0177766
  0
LINE
  8
1
  6
CONTINUOUS
 62
1
 10
-2.1788265E+001
 20
2.2002594
 11
-1.6093541E+001
 21
2.2002594
  0
LINE
  8
1
  6
CONTINUOUS
 62
1
 10
-2.9117979
 20
2.2002594
 11
2.9118011
 21
2.2002594
  0
LINE
  8
1
  6
CONTINUOUS
 62
1
 10
1.609354E+001
 20
2.2002594
 11
2.1788269E+001
 21
2.2002594
  0
LINE
  8
1
  6
CONTINUOUS
 62
1
 10
2.1840332E+001
 20
2.3827122
 11
1.6459715E+001
 21
2.3827122
  0
LINE
  8
1
  6
CONTINUOUS
 62
1
 10
2.8064657
 20
2.3827122
 11
-2.8064699
 21
2.3827122
  0
LINE
  8
1
  6
CONTINUOUS
 62
1
 10
-1.6459715E+001
 20
2.3827122
 11
-2.1840329E+001
 21
2.3827122
  0
LINE
  8
1
  6
CONTINUOUS
 62
1
 10
-2.1892388E+001
 20
2.565195
 11
-1.681598E+001
 21
2.565195
  0
LINE
  8
1
  6
CONTINUOUS
 62
1
 10
-2.7010891
 20
2.565195
 11
2.7010847
 21
2.565195
  0
LINE
  8
1
  6
CONTINUOUS
 62
1
 10
1.6815979E+001
 20
2.565195
 11
2.1892388E+001
 21
2.565195
  0
LINE
  8
1
  6
CONTINUOUS
 62
1
 10
2.1944406E+001
 20
2.747678
 11
1.7162871E+001
 21
2.747678
  0
LINE
  8
1
  6
CONTINUOUS
 62
1
 10
2.5957567
 20
2.747678
 11
-2.5957535
 21
2.747678
  0
LINE
  8
1
  6
CONTINUOUS
 62
1
 10
-1.7162867E+001
 20
2.747678
 11
-2.1944403E+001
 21
2.747678
  0
LINE
  8
1
  6
CONTINUOUS
 62
1
 10
-2.1996466E+001
 20
2.9301308
 11
-1.7501004E+001
 21
2.9301308
  0
LINE
  8
1
  6
CONTINUOUS
 62
1
 10
-2.4903727
 20
2.9301308
 11
2.4903759
 21
2.9301308
  0
LINE
  8
1
  6
CONTINUOUS
 62
1
 10
1.7501008E+001
 20
2.9301308
 11
2.199647E+001
 21
2.9301308
  0
LINE
  8
1
  6
CONTINUOUS
 62
1
 10
2.2048526E+001
 20
3.1126136
 11
1.7830874E+001
 21
3.1126136
  0
LINE
  8
1
  6
CONTINUOUS
 62
1
 10
2.3850403
 20
3.1126136
 11
-2.3850371
 21
3.1126136
  0
LINE
  8
1
  6
CONTINUOUS
 62
1
 10
-1.7830875E+001
 20
3.1126136
 11
-2.2048526E+001
 21
3.1126136
  0
LINE
  8
1
  6
CONTINUOUS
 62
1
 10
-2.210059E+001
 20
3.2950966
 11
-1.8152916E+001
 21
3.2950966
  0
LINE
  8
1
  6
CONTINUOUS
 62
1
 10
-2.2797017
 20
3.2950966
 11
2.2797049
 21
3.2950966
  0
LINE
  8
1
  6
CONTINUOUS
 62
1
 10
1.8152916E+001
 20
3.2950966
 11
2.2100544E+001
 21
3.2950966
  0
LINE
  8
1
  6
CONTINUOUS
 62
1
 10
2.2152607E+001
 20
3.4775794
 11
1.846751E+001
 21
3.4775794
  0
LINE
  8
1
  6
CONTINUOUS
 62
1
 10
2.1743239
 20
3.4775794
 11
-2.1743207
 21
3.4775794
  0
LINE
  8
1
  6
CONTINUOUS
 62
1
 10
-1.8467511E+001
 20
3.4775794
 11
-2.2152604E+001
 21
3.4775794
  0
LINE
  8
1
  6
CONTINUOUS
 62
1
 10
-2.2204664E+001
 20
3.6600624
 11
-1.8775099E+001
 21
3.6600624
  0
LINE
  8
1
  6
CONTINUOUS
 62
1
 10
-2.0689929
 20
3.6600624
 11
2.0689961
 21
3.6600624
  0
LINE
  8
1
  6
CONTINUOUS
 62
1
 10
1.8775103E+001
 20
3.6600624
 11
2.2204663E+001
 21
3.6600624
  0
LINE
  8
1
  6
CONTINUOUS
 62
1
 10
2.2256682E+001
 20
3.8425452
 11
1.9075965E+001
 21
3.8425452
  0
LINE
  8
1
  6
CONTINUOUS
 62
1
 10
1.9636151
 20
3.8425452
 11
-1.9636119
 21
3.8425452
  0
LINE
  8
1
  6
CONTINUOUS
 62
1
 10
-1.9075966E+001
 20
3.8425452
 11
-2.2256727E+001
 21
3.8425452
  0
LINE
  8
1
  6
CONTINUOUS
 62
1
 10
-2.2308742E+001
 20
4.0250282
 11
-1.9370453E+001
 21
4.0250282
  0
LINE
  8
1
  6
CONTINUOUS
 62
1
 10
-1.8582839
 20
4.0250282
 11
1.8582797
 21
4.0250282
  0
LINE
  8
1
  6
CONTINUOUS
 62
1
 10
1.9370408E+001
 20
4.0250282
 11
2.2308745E+001
 21
4.0250282
  0
LINE
  8
1
  6
CONTINUOUS
 62
1
 10
2.2360801E+001
 20
4.207511
 11
1.96588E+001
 21
4.207511
  0
LINE
  8
1
  6
CONTINUOUS
 62
1
 10
1.7529517
 20
4.207511
 11
-1.7529485
 21
4.207511
  0
LINE
  8
1
  6
CONTINUOUS
 62
1
 10
-1.9658801E+001
 20
4.207511
 11
-2.2360802E+001
 21
4.207511
  0
LINE
  8
1
  6
CONTINUOUS
 62
1
 10
-2.2412865E+001
 20
4.389994
 11
-1.9941347E+001
 21
4.389994
  0
LINE
  8
1
  6
CONTINUOUS
 62
1
 10
-1.6475675
 20
4.389994
 11
1.6475707
 21
4.389994
  0
LINE
  8
1
  6
CONTINUOUS
 62
1
 10
1.9941347E+001
 20
4.389994
 11
2.2412865E+001
 21
4.389994
  0
LINE
  8
1
  6
CONTINUOUS
 62
1
 10
2.2464883E+001
 20
4.5724466
 11
2.0218289E+001
 21
4.5724466
  0
LINE
  8
1
  6
CONTINUOUS
 62
1
 10
1.5422353
 20
4.5724466
 11
-1.5422321
 21
4.5724466
  0
LINE
  8
1
  6
CONTINUOUS
 62
1
 10
-2.0218285E+001
 20
4.5724466
 11
-2.2464879E+001
 21
4.5724466
  0
LINE
  8
1
  6
CONTINUOUS
 62
1
 10
-2.2516939E+001
 20
4.7549296
 11
-2.0489857E+001
 21
4.7549296
  0
LINE
  8
1
  6
CONTINUOUS
 62
1
 10
-1.4368511
 20
4.7549296
 11
1.4368543
 21
4.7549296
  0
LINE
  8
1
  6
CONTINUOUS
 62
1
 10
2.0489807E+001
 20
4.7549296
 11
2.2516939E+001
 21
4.7549296
  0
LINE
  8
1
  6
CONTINUOUS
 62
1
 10
2.2569002E+001
 20
4.9374126
 11
2.0756258E+001
 21
4.9374126
  0
LINE
  8
1
  6
CONTINUOUS
 62
1
 10
1.3315263
 20
4.9374126
 11
-1.3315157
 21
4.9374126
  0
LINE
  8
1
  6
CONTINUOUS
 62
1
 10
-2.0756259E+001
 20
4.9374126
 11
-2.2569003E+001
 21
4.9374126
  0
LINE
  8
1
  6
CONTINUOUS
 62
1
 10
-2.2621066E+001
 20
5.1198652
 11
-2.1017728E+001
 21
5.1198652
  0
LINE
  8
1
  6
CONTINUOUS
 62
1
 10
-1.2261347
 20
5.1198652
 11
1.2261455
 21
5.1198652
  0
LINE
  8
1
  6
CONTINUOUS
 62
1
 10
2.1017679E+001
 20
5.1198652
 11
2.2621021E+001
 21
5.1198652
  0
LINE
  8
1
  6
CONTINUOUS
 62
1
 10
2.2673077E+001
 20
5.3023482
 11
2.1274363E+001
 21
5.3023482
  0
LINE
  8
1
  6
CONTINUOUS
 62
1
 10
1.1208099
 20
5.3023482
 11
-1.1208067
 21
5.3023482
  0
LINE
  8
1
  6
CONTINUOUS
 62
1
 10
-2.1274364E+001
 20
5.3023482
 11
-2.2673077E+001
 21
5.3023482
  0
LINE
  8
1
  6
CONTINUOUS
 62
1
 10
-2.272514E+001
 20
5.484831
 11
-2.1526456E+001
 21
5.484831
  0
LINE
  8
1
  6
CONTINUOUS
 62
1
 10
-1.0154787
 20
5.484831
 11
1.0154745
 21
5.484831
  0
LINE
  8
1
  6
CONTINUOUS
 62
1
 10
2.1526455E+001
 20
5.484831
 11
2.272514E+001
 21
5.484831
  0
LINE
  8
1
  6
CONTINUOUS
 62
1
 10
2.2777204E+001
 20
5.667314
 11
2.1774054E+001
 21
5.667314
  0
LINE
  8
1
  6
CONTINUOUS
 62
1
 10
9.100935E-001
 20
5.667314
 11
-9.100979E-001
 21
5.667314
  0
LINE
  8
1
  6
CONTINUOUS
 62
1
 10
-2.1774054E+001
 20
5.667314
 11
-2.2777204E+001
 21
5.667314
  0
LINE
  8
1
  6
CONTINUOUS
 62
1
 10
-2.2829215E+001
 20
5.8497968
 11
-2.2017396E+001
 21
5.8497968
  0
LINE
  8
1
  6
CONTINUOUS
 62
1
 10
-8.047623E-001
 20
5.8497968
 11
8.047581E-001
 21
5.8497968
  0
LINE
  8
1
  6
CONTINUOUS
 62
1
 10
2.2017399E+001
 20
5.8497968
 11
2.2829214E+001
 21
5.8497968
  0
LINE
  8
1
  6
CONTINUOUS
 62
1
 10
2.2881278E+001
 20
6.0322496
 11
2.2256583E+001
 21
6.0322496
  0
LINE
  8
1
  6
CONTINUOUS
 62
1
 10
6.993771E-001
 20
6.0322496
 11
-6.993815E-001
 21
6.0322496
  0
LINE
  8
1
  6
CONTINUOUS
 62
1
 10
-2.2256584E+001
 20
6.0322496
 11
-2.2881278E+001
 21
6.0322496
  0
LINE
  8
1
  6
CONTINUOUS
 62
1
 10
-2.2933342E+001
 20
6.2147324
 11
-2.2491708E+001
 21
6.2147324
  0
LINE
  8
1
  6
CONTINUOUS
 62
1
 10
-5.940459E-001
 20
6.2147324
 11
5.940491E-001
 21
6.2147324
  0
LINE
  8
1
  6
CONTINUOUS
 62
1
 10
2.2491711E+001
 20
6.2147324
 11
2.2933341E+001
 21
6.2147324
  0
LINE
  8
1
  6
CONTINUOUS
 62
1
 10
2.2985352E+001
 20
6.3972154
 11
2.2722965E+001
 21
6.3972154
  0
LINE
  8
1
  6
CONTINUOUS
 62
1
 10
4.886683E-001
 20
6.3972154
 11
-4.886651E-001
 21
6.3972154
  0
LINE
  8
1
  6
CONTINUOUS
 62
1
 10
-2.2722965E+001
 20
6.3972154
 11
-2.2985352E+001
 21
6.3972154
  0
LINE
  8
1
  6
CONTINUOUS
 62
1
 10
-2.3037416E+001
 20
6.579668
 11
-2.2950453E+001
 21
6.579668
  0
LINE
  8
1
  6
CONTINUOUS
 62
1
 10
-3.833295E-001
 20
6.579668
 11
3.833403E-001
 21
6.579668
  0
LINE
  8
1
  6
CONTINUOUS
 62
1
 10
2.2950404E+001
 20
6.579668
 11
2.3037415E+001
 21
6.579668
  0
LINE
  8
1
  6
CONTINUOUS
 62
1
 10
2.779595E-001
 20
6.762151
 11
-2.779487E-001
 21
6.762151
  0
LINE
  8
1
  6
CONTINUOUS
 62
1
 10
-1.726207E-001
 20
6.9446338
 11
1.726239E-001
 21
6.9446338
  0
LINE
  8
1
  6
CONTINUOUS
 62
1
 10
6.7288304E-002
 20
7.1271168
 11
-6.7292696E-002
 21
7.1271168
  0
ENDBLK
  0
BLOCK
  2
_D40
 10
0.0
 20
0.0
 70
0
  0
LINE
  8
1
  6
CONTINUOUS
 62
2
 10
-6.631838E+002
 20
2.2801341E+002
 11
-6.631838E+002
 21
2.2963884E+002
  0
LINE
  8
1
  6
CONTINUOUS
 62
2
 10
-6.631838E+002
 20
2.2963884E+002
 11
-6.631838E+002
 21
2.3163884E+002
  0
ENDBLK
  0
BLOCK
  2
_D59
 10
0.0
 20
0.0
 70
0
  0
LINE
  8
1
  6
CONTINUOUS
 62
2
 10
-3.6710111E+002
 20
1.5097217E+002
 11
-3.6710111E+002
 21
1.5132231E+002
  0
LINE
  8
1
  6
CONTINUOUS
 62
2
 10
-3.7776774E+002
 20
1.5097217E+002
 11
-3.7776774E+002
 21
1.5132231E+002
  0
ENDBLK
  0
BLOCK
  2
_D63
 10
0.0
 20
0.0
 70
0
  0
TEXT
  8
103
  6
CONTINUOUS
 62
1
 10
2.21778
 20
2.21778
 40
6.66
  1
(24)
 41
6.1875002E-001
  0
LINE
  8
4
  6
CONTINUOUS
 62
2
 10
-1.876286
 20
2.8412694E-001
 11
2.200483E+001
 21
2.8412694E-001
  0
INSERT
  2
M_PFN_6
  8
4
 10
-1.876286
 20
2.8412694E-001
 41
2.0
 43
2.0
 42
2.0
  0
INSERT
  2
M_PFN_7
  8
4
 10
2.200483E+001
 20
2.8412694E-001
 41
2.0
 43
2.0
 42
2.0
 50
3.6E+002
  0
ENDBLK
  0
BLOCK
  2
_D64
 10
0.0
 20
0.0
 70
0
  0
LINE
  8
4
  6
CONTINUOUS
 62
2
 10
3.7336518E+002
 20
2.8480683E+002
 11
3.7336518E+002
 21
2.5306938E+002
  0
LINE
  8
4
  6
CONTINUOUS
 62
2
 10
3.7336518E+002
 20
2.5306938E+002
 11
3.7336518E+002
 21
2.5106938E+002
  0
LINE
  8
4
  6
CONTINUOUS
 62
2
 10
3.4936518E+002
 20
2.8480683E+002
 11
3.4936518E+002
 21
2.5306938E+002
  0
LINE
  8
4
  6
CONTINUOUS
 62
2
 10
3.4936518E+002
 20
2.5306938E+002
 11
3.4936518E+002
 21
2.5106938E+002
  0
LINE
  8
4
  6
CONTINUOUS
 62
2
 10
3.4936518E+002
 20
2.5306938E+002
 11
3.7336518E+002
 21
2.5306938E+002
  0
INSERT
  2
M_PFN_6
  8
4
 10
3.4936518E+002
 20
2.5306938E+002
 41
2.0
 43
2.0
 42
2.0
  0
INSERT
  2
M_PFN_7
  8
4
 10
3.7336518E+002
 20
2.5306938E+002
 41
2.0
 43
2.0
 42
2.0
 50
3.6E+002
  0
ENDBLK
  0
BLOCK
  2
_D68
 10
0.0
 20
0.0
 70
0
  0
LINE
  8
4
  6
CONTINUOUS
 62
2
 10
1.5110314E+002
 20
4.7875962E+002
 11
1.5110314E+002
 21
4.798396E+002
  0
LINE
  8
4
  6
CONTINUOUS
 62
2
 10
1.5110314E+002
 20
4.798396E+002
 11
1.5110314E+002
 21
4.818396E+002
  0
LINE
  8
4
  6
CONTINUOUS
 62
2
 10
1.3910314E+002
 20
4.7080683E+002
 11
1.3910314E+002
 21
4.798396E+002
  0
LINE
  8
4
  6
CONTINUOUS
 62
2
 10
1.3910314E+002
 20
4.798396E+002
 11
1.3910314E+002
 21
4.818396E+002
  0
LINE
  8
4
  6
CONTINUOUS
 62
2
 10
1.2464645E+002
 20
4.798396E+002
 11
1.3910314E+002
 21
4.798396E+002
  0
LINE
  8
4
  6
CONTINUOUS
 62
2
 10
1.3910314E+002
 20
4.798396E+002
 11
1.5110314E+002
 21
4.798396E+002
  0
LINE
  8
4
  6
CONTINUOUS
 62
2
 10
1.5110314E+002
 20
4.798396E+002
 11
1.6510314E+002
 21
4.798396E+002
  0
LINE
  8
4
  6
CONTINUOUS
 62
2
 10
1.3910314E+002
 20
4.798396E+002
 11
1.5110314E+002
 21
4.798396E+002
  0
INSERT
  2
M_PFN_7
  8
4
 10
1.3910314E+002
 20
4.798396E+002
 41
2.0
 43
2.0
 42
2.0
 50
3.6E+002
  0
INSERT
  2
M_PFN_6
  8
4
 10
1.5110314E+002
 20
4.798396E+002
 41
2.0
 43
2.0
 42
2.0
  0
ENDBLK
  0
BLOCK
  2
_D71
 10
0.0
 20
0.0
 70
0
  0
TEXT
  8
103
  6
CONTINUOUS
 62
1
 10
-2.21778
 20
2.21778
 40
6.66
  1
10
 41
5.6250002E-001
 50
9.0E+001
  0
ENDBLK
  0
BLOCK
  2
_D72
 10
0.0
 20
0.0
 70
0
  0
TEXT
  8
103
  6
CONTINUOUS
 62
1
 10
-2.21778
 20
2.21778
 40
6.66
  1
7
 50
9.0E+001
  0
ENDBLK
  0
BLOCK
  2
_D74
 10
0.0
 20
0.0
 70
0
  0
LINE
  8
4
  6
CONTINUOUS
 62
2
 10
9.5211469
 20
-1.5456847E+001
 11
-2.2845968E-001
 21
-1.5456847E+001
  0
LINE
  8
4
  6
CONTINUOUS
 62
2
 10
-2.2845968E-001
 20
-1.5456847E+001
 11
-2.2284597
 21
-1.5456847E+001
  0
TEXT
  8
103
  6
CONTINUOUS
 62
1
 10
-2.21778
 20
2.21778
 40
6.66
  1
45
 41
5.6250002E-001
 50
9.0E+001
  0
LINE
  8
4
  6
CONTINUOUS
 62
2
 10
-2.2845968E-001
 20
-1.5456847E+001
 11
-2.2845968E-001
 21
2.9431251E+001
  0
INSERT
  2
M_PFN_6
  8
4
 10
-2.2845968E-001
 20
-1.5456847E+001
 41
2.0
 43
2.0
 42
2.0
 50
9.0E+001
  0
INSERT
  2
M_PFN_7
  8
4
 10
-2.2845968E-001
 20
2.9431251E+001
 41
2.0
 43
2.0
 42
2.0
 50
9.0E+001
  0
ENDBLK
  0
BLOCK
  2
_D78
 10
0.0
 20
0.0
 70
0
  0
TEXT
  8
103
  6
CONTINUOUS
 62
1
 10
-2.21778
 20
2.21778
 40
6.66
  1
7
 50
9.0E+001
  0
ENDBLK
  0
BLOCK
  2
_D79
 10
0.0
 20
0.0
 70
0
  0
TEXT
  8
103
  6
CONTINUOUS
 62
1
 10
2.21778
 20
2.21778
 40
6.66
  1
38
 41
5.6250002E-001
  0
ENDBLK
  0
BLOCK
  2
_D82
 10
0.0
 20
0.0
 70
0
  0
LINE
  8
4
  6
CONTINUOUS
 62
2
 10
1.869216E+002
 20
3.4030683E+002
 11
1.7414503E+002
 21
3.4030683E+002
  0
LINE
  8
4
  6
CONTINUOUS
 62
2
 10
1.7414503E+002
 20
3.4030683E+002
 11
1.7214503E+002
 21
3.4030683E+002
  0
LINE
  8
4
  6
CONTINUOUS
 62
2
 10
1.8632757E+002
 20
3.4730683E+002
 11
1.7414503E+002
 21
3.4730683E+002
  0
LINE
  8
4
  6
CONTINUOUS
 62
2
 10
1.7414503E+002
 20
3.4730683E+002
 11
1.7214503E+002
 21
3.4730683E+002
  0
LINE
  8
4
  6
CONTINUOUS
 62
2
 10
1.7414503E+002
 20
3.6381613E+002
 11
1.7414503E+002
 21
3.4730683E+002
  0
LINE
  8
4
  6
CONTINUOUS
 62
2
 10
1.7414503E+002
 20
3.4730683E+002
 11
1.7414503E+002
 21
3.4030683E+002
  0
LINE
  8
4
  6
CONTINUOUS
 62
2
 10
1.7414503E+002
 20
3.4030683E+002
 11
1.7414503E+002
 21
3.2630683E+002
  0
LINE
  8
4
  6
CONTINUOUS
 62
2
 10
1.7414503E+002
 20
3.4730683E+002
 11
1.7414503E+002
 21
3.4030683E+002
  0
INSERT
  2
M_PFN_7
  8
4
 10
1.7414503E+002
 20
3.4730683E+002
 41
2.0
 43
2.0
 42
2.0
 50
2.7E+002
  0
INSERT
  2
M_PFN_6
  8
4
 10
1.7414503E+002
 20
3.4030683E+002
 41
2.0
 43
2.0
 42
2.0
 50
2.7E+002
  0
ENDBLK
  0
BLOCK
  2
_D83
 10
0.0
 20
0.0
 70
0
  0
LINE
  8
4
  6
CONTINUOUS
 62
2
 10
1.8510314E+002
 20
4.2730683E+002
 11
1.749362E+002
 21
4.2730683E+002
  0
LINE
  8
4
  6
CONTINUOUS
 62
2
 10
1.749362E+002
 20
4.2730683E+002
 11
1.729362E+002
 21
4.2730683E+002
  0
LINE
  8
4
  6
CONTINUOUS
 62
2
 10
1.8510314E+002
 20
4.2030683E+002
 11
1.749362E+002
 21
4.2030683E+002
  0
LINE
  8
4
  6
CONTINUOUS
 62
2
 10
1.749362E+002
 20
4.2030683E+002
 11
1.729362E+002
 21
4.2030683E+002
  0
LINE
  8
4
  6
CONTINUOUS
 62
2
 10
1.749362E+002
 20
4.0579601E+002
 11
1.749362E+002
 21
4.2030683E+002
  0
LINE
  8
4
  6
CONTINUOUS
 62
2
 10
1.749362E+002
 20
4.2030683E+002
 11
1.749362E+002
 21
4.2730683E+002
  0
LINE
  8
4
  6
CONTINUOUS
 62
2
 10
1.749362E+002
 20
4.2730683E+002
 11
1.749362E+002
 21
4.4130683E+002
  0
LINE
  8
4
  6
CONTINUOUS
 62
2
 10
1.749362E+002
 20
4.2030683E+002
 11
1.749362E+002
 21
4.2730683E+002
  0
INSERT
  2
M_PFN_7
  8
4
 10
1.749362E+002
 20
4.2030683E+002
 41
2.0
 43
2.0
 42
2.0
 50
9.0E+001
  0
INSERT
  2
M_PFN_6
  8
4
 10
1.749362E+002
 20
4.2730683E+002
 41
2.0
 43
2.0
 42
2.0
 50
9.0E+001
  0
ENDBLK
  0
BLOCK
  2
_D87
 10
0.0
 20
0.0
 70
0
  0
LINE
  8
4
  6
CONTINUOUS
 62
2
 10
2.0410314E+002
 20
4.6480683E+002
 11
1.9026152E+002
 21
4.6480683E+002
  0
LINE
  8
4
  6
CONTINUOUS
 62
2
 10
1.9026152E+002
 20
4.6480683E+002
 11
1.8826152E+002
 21
4.6480683E+002
  0
LINE
  8
4
  6
CONTINUOUS
 62
2
 10
2.0410314E+002
 20
4.7480683E+002
 11
1.9026152E+002
 21
4.7480683E+002
  0
LINE
  8
4
  6
CONTINUOUS
 62
2
 10
1.9026152E+002
 20
4.7480683E+002
 11
1.8826152E+002
 21
4.7480683E+002
  0
LINE
  8
4
  6
CONTINUOUS
 62
2
 10
1.9026152E+002
 20
4.9207132E+002
 11
1.9026152E+002
 21
4.7480683E+002
  0
LINE
  8
4
  6
CONTINUOUS
 62
2
 10
1.9026152E+002
 20
4.7480683E+002
 11
1.9026152E+002
 21
4.6480683E+002
  0
LINE
  8
4
  6
CONTINUOUS
 62
2
 10
1.9026152E+002
 20
4.6480683E+002
 11
1.9026152E+002
 21
4.5487221E+002
  0
LINE
  8
4
  6
CONTINUOUS
 62
2
 10
1.9026152E+002
 20
4.7480683E+002
 11
1.9026152E+002
 21
4.6480683E+002
  0
INSERT
  2
M_PFN_7
  8
4
 10
1.9026152E+002
 20
4.7480683E+002
 41
2.0
 43
2.0
 42
2.0
 50
2.7E+002
  0
INSERT
  2
M_PFN_6
  8
4
 10
1.9026152E+002
 20
4.6480683E+002
 41
2.0
 43
2.0
 42
2.0
 50
2.7E+002
  0
ENDBLK
  0
BLOCK
  2
_D88
 10
0.0
 20
0.0
 70
0
  0
LINE
  8
4
  6
CONTINUOUS
 62
2
 10
2.2510314E+002
 20
4.3368506E+002
 11
2.2510314E+002
 21
4.5151946E+002
  0
LINE
  8
4
  6
CONTINUOUS
 62
2
 10
2.2510314E+002
 20
4.5151946E+002
 11
2.2510314E+002
 21
4.5351946E+002
  0
LINE
  8
4
  6
CONTINUOUS
 62
2
 10
1.8710314E+002
 20
4.3329424E+002
 11
1.8710314E+002
 21
4.3565498E+002
  0
LINE
  8
4
  6
CONTINUOUS
 62
2
 10
1.8710314E+002
 20
4.4910701E+002
 11
1.8710314E+002
 21
4.5151946E+002
  0
LINE
  8
4
  6
CONTINUOUS
 62
2
 10
1.8710314E+002
 20
4.5151946E+002
 11
1.8710314E+002
 21
4.5351946E+002
  0
LINE
  8
4
  6
CONTINUOUS
 62
2
 10
1.8710314E+002
 20
4.5151946E+002
 11
2.2510314E+002
 21
4.5151946E+002
  0
INSERT
  2
M_PFN_6
  8
4
 10
1.8710314E+002
 20
4.5151946E+002
 41
2.0
 43
2.0
 42
2.0
  0
INSERT
  2
M_PFN_7
  8
4
 10
2.2510314E+002
 20
4.5151946E+002
 41
2.0
 43
2.0
 42
2.0
 50
3.6E+002
  0
ENDBLK
  0
BLOCK
  2
*XH214
  3
*XH
 10
0.0
 20
0.0
 70
65
  0
LINE
  8
108
  6
CONTINUOUS
 62
3
 10
5.0639547E+001
 20
2.6172895E+002
 11
5.317531E+001
 21
2.6426472E+002
  0
LINE
  8
108
  6
CONTINUOUS
 62
3
 10
5.0102855E+001
 20
2.6235209E+002
 11
5.2015478E+001
 21
2.6426472E+002
  0
LINE
  8
108
  6
CONTINUOUS
 62
3
 10
4.9566163E+001
 20
2.6297523E+002
 11
5.0855646E+001
 21
2.6426472E+002
  0
LINE
  8
108
  6
CONTINUOUS
 62
3
 10
4.9029471E+001
 20
2.6359837E+002
 11
4.9695814E+001
 21
2.6426472E+002
  0
LINE
  8
108
  6
CONTINUOUS
 62
3
 10
4.8492779E+001
 20
2.6422151E+002
 11
4.8535982E+001
 21
2.6426472E+002
  0
LINE
  8
108
  6
CONTINUOUS
 62
3
 10
5.1176239E+001
 20
2.6110581E+002
 11
5.4335141E+001
 21
2.6426472E+002
  0
LINE
  8
108
  6
CONTINUOUS
 62
3
 10
5.1712931E+001
 20
2.6048267E+002
 11
5.5494973E+001
 21
2.6426472E+002
  0
LINE
  8
108
  6
CONTINUOUS
 62
3
 10
5.2249623E+001
 20
2.5985953E+002
 11
5.4304662E+001
 21
2.6191457E+002
  0
ENDBLK
  0
BLOCK
  2
O
 10
0.0
 20
0.0
 70
0
  0
LINE
  8
104
  6
CONTINUOUS
 62
3
 10
-3.9366
 20
4.570691
 11
3.9366
 21
4.570691
  0
LINE
  8
104
  6
CONTINUOUS
 62
3
 10
3.9366
 20
4.570691
 11
0.0
 21
0.0
  0
LINE
  8
104
  6
CONTINUOUS
 62
3
 10
0.0
 20
0.0
 11
-3.9366
 21
4.570691
  0
INSERT
  2
*XH214
  8
108
 10
-5.239217E+001
 20
-2.5969402E+002
  0
POINT
  8
Drafting_Hidden_Entities
  6
CONTINUOUS
 62
1
 10
0.0
 20
0.0
  0
ENDBLK
  0
BLOCK
  2
Z
 10
0.0
 20
0.0
 70
0
  0
TEXT
  8
103
  6
CONTINUOUS
 62
160
 10
1.1329229E+001
 20
-9.3284985
 40
4.5
  1
Empfohlenes Schliessblech Nr. 23
 41
6.6774196E-001
 72
1
 11
5.9406649E+001
 21
-7.0784985
 73
2
  0
TEXT
  8
103
  6
CONTINUOUS
 62
221
 10
1.1520326E+001
 20
-1.6965655E+001
 40
4.5
  1
recommended strike plate number 23
 41
6.6774196E-001
 72
1
 11
6.2602585E+001
 21
-1.4715655E+001
 73
2
  0
INSERT
  2
O
  8
109
 10
8.9740294
 20
-1.1388398E+001
 50
9.0915778E+001
  0
POINT
  8
Drafting_Hidden_Entities
  6
CONTINUOUS
 62
1
 10
0.0
 20
0.0
  0
ENDBLK
  0
BLOCK
  2
*XH218
  3
*XH
 10
0.0
 20
0.0
 70
65
  0
LINE
  8
1
  6
CONTINUOUS
 62
3
 10
-1.8537981
 20
-1.8537981
 11
1.8537981
 21
1.8537981
  0
LINE
  8
1
  6
CONTINUOUS
 62
3
 10
-1.8537981
 20
-1.5674184E-001
 11
9.2836984E-001
 21
2.6254261
  0
LINE
  8
1
  6
CONTINUOUS
 62
3
 10
-1.8537981
 20
1.5403144
 11
2.9415653E-003
 21
3.3970541
  0
LINE
  8
1
  6
CONTINUOUS
 62
3
 10
-1.8537981
 20
3.2373707
 11
-9.2248671E-001
 21
4.1686821
  0
LINE
  8
1
  6
CONTINUOUS
 62
3
 10
-1.8537981
 20
4.934427
 11
-1.847915
 21
4.9403101
  0
LINE
  8
1
  6
CONTINUOUS
 62
3
 10
1.8840926
 20
2.8024767E-001
 11
-1.8537981
 21
4.0181384
  0
LINE
  8
1
  6
CONTINUOUS
 62
3
 10
9.8895874E-001
 20
-5.2167478E-001
 11
-1.8537981
 21
2.3210821
  0
LINE
  8
1
  6
CONTINUOUS
 62
3
 10
9.3824917E-002
 20
-1.3235972
 11
-1.8537981
 21
6.2402581E-001
  0
LINE
  8
1
  6
CONTINUOUS
 62
3
 10
-8.0130891E-001
 20
-2.1255197
 11
-1.8537981
 21
-1.0730305
  0
LINE
  8
1
  6
CONTINUOUS
 62
3
 10
-1.6964427
 20
-2.9274421
 11
-1.8537981
 21
-2.7700867
  0
ENDBLK
  0
BLOCK
  2
_AH1
 70
0
 10
0.0
 20
0.0
  3
_AH1
  0
LINE
  8
0
  6
CONTINUOUS
 62
0
 10
-1.0
 20
1.66667E-001
 11
0.0
 21
0.0
  0
LINE
  8
0
  6
CONTINUOUS
 62
0
 10
0.0
 20
0.0
 11
-1.0
 21
-1.66667E-001
  0
LINE
  8
0
  6
CONTINUOUS
 62
0
 10
-1.0
 20
1.66667E-001
 11
-1.0
 21
-1.66667E-001
  0
LINE
  8
0
  6
CONTINUOUS
 62
0
 10
0.0
 20
0.0
 11
-1.0
 21
0.0
  0
ENDBLK
  0
BLOCK
  2
_AH2
 70
0
 10
0.0
 20
0.0
  3
_AH2
  0
LINE
  8
0
  6
CONTINUOUS
 62
0
 10
-1.0
 20
1.66667E-001
 11
0.0
 21
0.0
  0
LINE
  8
0
  6
CONTINUOUS
 62
0
 10
0.0
 20
0.0
 11
-1.0
 21
-1.66667E-001
  0
LINE
  8
0
  6
CONTINUOUS
 62
0
 10
0.0
 20
0.0
 11
-1.0
 21
0.0
  0
ENDBLK
  0
BLOCK
  2
*D48
  3
*D
 10
0.0
 20
0.0
 70
65
  0
LINE
  8
1
  6
CONTINUOUS
 62
4
 10
1.348621E+002
 20
2.8693804E+002
 11
7.575203E+001
 21
2.8693804E+002
  0
LINE
  8
1
  6
CONTINUOUS
 62
4
 10
1.348621E+002
 20
5.2193804E+002
 11
1.3230734E+002
 21
5.2193804E+002
  0
LINE
  8
1
  6
CONTINUOUS
 62
4
 10
1.2256077E+002
 20
5.2193804E+002
 11
1.1348177E+002
 21
5.2193804E+002
  0
LINE
  8
1
  6
CONTINUOUS
 62
4
 10
1.0213302E+002
 20
5.2193804E+002
 11
7.575203E+001
 21
5.2193804E+002
  0
LINE
  8
1
  6
CONTINUOUS
 62
4
 10
7.775203E+001
 20
2.8693804E+002
 11
7.775203E+001
 21
4.0635476E+002
  0
LINE
  8
1
  6
CONTINUOUS
 62
4
 10
7.775203E+001
 20
5.2193804E+002
 11
7.775203E+001
 21
4.0635476E+002
  0
TEXT
  8
1
  6
CONTINUOUS
 62
4
 10
7.553225E+001
 20
3.9969476E+002
 40
6.66
  1
235
 41
6.6666667E-001
 50
9.0E+001
  0
INSERT
  2
_AH13
  8
1
 62
4
 10
7.775203E+001
 20
2.8693804E+002
 41
7.0
 42
7.0
 43
7.0
 50
9.0E+001
  0
INSERT
  2
_AH13
  8
1
 62
4
 10
7.775203E+001
 20
5.2193804E+002
 41
7.0
 42
7.0
 43
7.0
 50
2.7E+002
  0
ENDBLK
  0
BLOCK
  2
*D74
  3
*D
 10
0.0
 20
0.0
 70
65
  0
LINE
  8
1
  6
CONTINUOUS
 62
4
 10
3.4142414E+002
 20
3.4993804E+002
 11
3.4142414E+002
 21
3.3993921E+002
  0
LINE
  8
1
  6
CONTINUOUS
 62
4
 10
3.4942411E+002
 20
3.4993804E+002
 11
3.4942411E+002
 21
3.3993921E+002
  0
LINE
  8
1
  6
CONTINUOUS
 62
4
 10
3.2942414E+002
 20
3.4193921E+002
 11
3.4142414E+002
 21
3.4193921E+002
  0
LINE
  8
1
  6
CONTINUOUS
 62
4
 10
3.4942411E+002
 20
3.4193921E+002
 11
3.7259729E+002
 21
3.4193921E+002
  0
TEXT
  8
1
  6
CONTINUOUS
 62
4
 10
3.6515729E+002
 20
3.4415899E+002
 40
6.66
  1
8
 41
6.6666667E-001
  0
INSERT
  2
_AH13
  8
1
 62
4
 10
3.4142414E+002
 20
3.4193921E+002
 41
7.0
 42
7.0
 43
7.0
 50
1.8E+002
  0
INSERT
  2
_AH13
  8
1
 62
4
 10
3.4942411E+002
 20
3.4193921E+002
 41
7.0
 42
7.0
 43
7.0
 50
3.6E+002
  0
ENDBLK
  0
BLOCK
  2
*D89
  3
*D
 10
0.0
 20
0.0
 70
65
  0
LINE
  8
1
  6
CONTINUOUS
 62
4
 10
1.963621E+002
 20
4.2922706E+002
 11
1.963621E+002
 21
4.4001921E+002
  0
LINE
  8
1
  6
CONTINUOUS
 62
4
 10
1.873621E+002
 20
4.2891445E+002
 11
1.873621E+002
 21
4.4001921E+002
  0
LINE
  8
1
  6
CONTINUOUS
 62
4
 10
2.083621E+002
 20
4.3801921E+002
 11
1.963621E+002
 21
4.3801921E+002
  0
LINE
  8
1
  6
CONTINUOUS
 62
4
 10
1.753621E+002
 20
4.3801921E+002
 11
1.963621E+002
 21
4.3801921E+002
  0
TEXT
  8
1
  6
CONTINUOUS
 62
4
 10
1.896421E+002
 20
4.4023899E+002
 40
6.66
  1
9
 41
6.6666667E-001
 50
3.6E+002
  0
INSERT
  2
_AH13
  8
1
 62
4
 10
1.963621E+002
 20
4.3801921E+002
 41
7.0
 42
7.0
 43
7.0
 50
3.6E+002
  0
INSERT
  2
_AH13
  8
1
 62
4
 10
1.873621E+002
 20
4.3801921E+002
 41
7.0
 42
7.0
 43
7.0
 50
5.4E+002
  0
ENDBLK
  0
BLOCK
  2
*D100
  3
*D
 10
0.0
 20
0.0
 70
65
  0
LINE
  8
1
  6
CONTINUOUS
 62
4
 10
2.248621E+002
 20
3.2493804E+002
 11
2.248621E+002
 21
2.6093921E+002
  0
LINE
  8
1
  6
CONTINUOUS
 62
4
 10
1.918621E+002
 20
2.6493804E+002
 11
1.918621E+002
 21
2.6493921E+002
  0
LINE
  8
1
  6
CONTINUOUS
 62
4
 10
2.248621E+002
 20
2.6293921E+002
 11
2.0839979E+002
 21
2.6293921E+002
  0
LINE
  8
1
  6
CONTINUOUS
 62
4
 10
1.918621E+002
 20
2.6293921E+002
 11
2.0839979E+002
 21
2.6293921E+002
  0
TEXT
  8
1
  6
CONTINUOUS
 62
4
 10
2.0395979E+002
 20
2.6515899E+002
 40
6.66
  1
33
 41
6.6666667E-001
 50
3.6E+002
  0
INSERT
  2
_AH13
  8
1
 62
4
 10
2.248621E+002
 20
2.6293921E+002
 41
7.0
 42
7.0
 43
7.0
 50
1.8E+002
  0
INSERT
  2
_AH13
  8
1
 62
4
 10
1.918621E+002
 20
2.6293921E+002
 41
7.0
 42
7.0
 43
7.0
 50
3.6E+002
  0
ENDBLK
  0
BLOCK
  2
*D115
  3
*D
 10
0.0
 20
0.0
 70
65
  0
LINE
  8
1
  6
CONTINUOUS
 62
4
 10
2.108621E+002
 20
3.3480927E+002
 11
2.108621E+002
 21
3.1885804E+002
  0
LINE
  8
1
  6
CONTINUOUS
 62
4
 10
2.108621E+002
 20
3.0316227E+002
 11
2.108621E+002
 21
2.9293505E+002
  0
LINE
  8
1
  6
CONTINUOUS
 62
4
 10
1.728621E+002
 20
3.3452256E+002
 11
1.728621E+002
 21
2.9293505E+002
  0
LINE
  8
1
  6
CONTINUOUS
 62
4
 10
2.108621E+002
 20
2.9493505E+002
 11
1.9194012E+002
 21
2.9493505E+002
  0
LINE
  8
1
  6
CONTINUOUS
 62
4
 10
1.728621E+002
 20
2.9493505E+002
 11
1.9194012E+002
 21
2.9493505E+002
  0
TEXT
  8
1
  6
CONTINUOUS
 62
4
 10
1.8750012E+002
 20
2.9715483E+002
 40
6.66
  1
38
 41
6.6666667E-001
 50
3.6E+002
  0
INSERT
  2
_AH13
  8
1
 62
4
 10
2.108621E+002
 20
2.9493505E+002
 41
7.0
 42
7.0
 43
7.0
 50
1.8E+002
  0
INSERT
  2
_AH13
  8
1
 62
4
 10
1.728621E+002
 20
2.9493505E+002
 41
7.0
 42
7.0
 43
7.0
 50
3.6E+002
  0
ENDBLK
  0
BLOCK
  2
*D131
  3
*D
 10
0.0
 20
0.0
 70
65
  0
LINE
  8
1
  6
CONTINUOUS
 62
4
 10
1.128621E+002
 20
3.5193804E+002
 11
9.9160958E+001
 21
3.5193804E+002
  0
LINE
  8
1
  6
CONTINUOUS
 62
4
 10
1.128621E+002
 20
3.8693804E+002
 11
9.9160958E+001
 21
3.8693804E+002
  0
LINE
  8
1
  6
CONTINUOUS
 62
4
 10
1.0116096E+002
 20
3.5193804E+002
 11
1.0116096E+002
 21
3.6948204E+002
  0
LINE
  8
1
  6
CONTINUOUS
 62
4
 10
1.0116096E+002
 20
3.8693804E+002
 11
1.0116096E+002
 21
3.6948204E+002
  0
TEXT
  8
1
  6
CONTINUOUS
 62
4
 10
9.8941178E+001
 20
3.6504204E+002
 40
6.66
  1
35
 41
6.6666667E-001
 50
9.0E+001
  0
INSERT
  2
_AH13
  8
1
 62
4
 10
1.0116096E+002
 20
3.5193804E+002
 41
7.0
 42
7.0
 43
7.0
 50
9.0E+001
  0
INSERT
  2
_AH13
  8
1
 62
4
 10
1.0116096E+002
 20
3.8693804E+002
 41
7.0
 42
7.0
 43
7.0
 50
2.7E+002
  0
ENDBLK
  0
BLOCK
  2
*D160
  3
*D
 10
0.0
 20
0.0
 70
65
  0
LINE
  8
1
  6
CONTINUOUS
 62
4
 10
1.398621E+002
 20
2.8493804E+002
 11
1.398621E+002
 21
2.7256921E+002
  0
LINE
  8
1
  6
CONTINUOUS
 62
4
 10
1.368621E+002
 20
2.8493804E+002
 11
1.368621E+002
 21
2.7256921E+002
  0
LINE
  8
1
  6
CONTINUOUS
 62
4
 10
1.518621E+002
 20
2.7456921E+002
 11
1.398621E+002
 21
2.7456921E+002
  0
LINE
  8
1
  6
CONTINUOUS
 62
4
 10
1.368621E+002
 20
2.7456921E+002
 11
1.1798432E+002
 21
2.7456921E+002
  0
TEXT
  8
1
  6
CONTINUOUS
 62
4
 10
1.2098432E+002
 20
2.7678899E+002
 40
6.66
  1
3
 41
6.6666667E-001
 50
3.6E+002
  0
INSERT
  2
_AH13
  8
1
 62
4
 10
1.398621E+002
 20
2.7456921E+002
 41
7.0
 42
7.0
 43
7.0
 50
3.6E+002
  0
INSERT
  2
_AH13
  8
1
 62
4
 10
1.368621E+002
 20
2.7456921E+002
 41
7.0
 42
7.0
 43
7.0
 50
5.4E+002
  0
ENDBLK
  0
BLOCK
  2
*D171
  3
*D
 10
0.0
 20
0.0
 70
65
  0
LINE
  8
1
  6
CONTINUOUS
 62
4
 10
2.218621E+002
 20
3.2193804E+002
 11
2.8906096E+002
 21
3.2193804E+002
  0
LINE
  8
1
  6
CONTINUOUS
 62
4
 10
2.2196182E+002
 20
4.8693804E+002
 11
2.6039465E+002
 21
4.8693804E+002
  0
LINE
  8
1
  6
CONTINUOUS
 62
4
 10
2.7799262E+002
 20
4.8693804E+002
 11
2.8906096E+002
 21
4.8693804E+002
  0
LINE
  8
1
  6
CONTINUOUS
 62
4
 10
2.8706096E+002
 20
3.2193804E+002
 11
2.8706096E+002
 21
4.0859454E+002
  0
LINE
  8
1
  6
CONTINUOUS
 62
4
 10
2.8706096E+002
 20
4.8693804E+002
 11
2.8706096E+002
 21
4.0859454E+002
  0
TEXT
  8
1
  6
CONTINUOUS
 62
4
 10
2.8484118E+002
 20
4.0193454E+002
 40
6.66
  1
165
 41
6.6666667E-001
 50
9.0E+001
  0
INSERT
  2
_AH13
  8
1
 62
4
 10
2.8706096E+002
 20
3.2193804E+002
 41
7.0
 42
7.0
 43
7.0
 50
9.0E+001
  0
INSERT
  2
_AH13
  8
1
 62
4
 10
2.8706096E+002
 20
4.8693804E+002
 41
7.0
 42
7.0
 43
7.0
 50
2.7E+002
  0
ENDBLK
  0
BLOCK
  2
*D190
  3
*D
 10
0.0
 20
0.0
 70
65
  0
LINE
  8
1
  6
CONTINUOUS
 62
4
 10
2.0336365E+002
 20
3.5193804E+002
 11
2.2785916E+002
 21
3.5193804E+002
  0
LINE
  8
1
  6
CONTINUOUS
 62
4
 10
2.4327432E+002
 20
3.5193804E+002
 11
2.6596096E+002
 21
3.5193804E+002
  0
LINE
  8
1
  6
CONTINUOUS
 62
4
 10
2.3617903E+002
 20
4.2393804E+002
 11
2.6596096E+002
 21
4.2393804E+002
  0
LINE
  8
1
  6
CONTINUOUS
 62
4
 10
2.6396096E+002
 20
3.5193804E+002
 11
2.6396096E+002
 21
3.8798204E+002
  0
LINE
  8
1
  6
CONTINUOUS
 62
4
 10
2.6396096E+002
 20
4.2393804E+002
 11
2.6396096E+002
 21
3.8798204E+002
  0
TEXT
  8
1
  6
CONTINUOUS
 62
4
 10
2.6174118E+002
 20
3.8354204E+002
 40
6.66
  1
72
 41
6.6666667E-001
 50
9.0E+001
  0
INSERT
  2
_AH13
  8
1
 62
4
 10
2.6396096E+002
 20
3.5193804E+002
 41
7.0
 42
7.0
 43
7.0
 50
9.0E+001
  0
INSERT
  2
_AH13
  8
1
 62
4
 10
2.6396096E+002
 20
4.2393804E+002
 41
7.0
 42
7.0
 43
7.0
 50
2.7E+002
  0
ENDBLK
  0
BLOCK
  2
*D200
  3
*D
 10
0.0
 20
0.0
 70
65
  0
LINE
  8
1
  6
CONTINUOUS
 62
4
 10
2.1945995E+002
 20
4.2393804E+002
 11
2.4326096E+002
 21
4.2393804E+002
  0
LINE
  8
1
  6
CONTINUOUS
 62
4
 10
2.0255967E+002
 20
4.6993804E+002
 11
2.4326096E+002
 21
4.6993804E+002
  0
LINE
  8
1
  6
CONTINUOUS
 62
4
 10
2.4126096E+002
 20
4.2393804E+002
 11
2.4126096E+002
 21
4.4698204E+002
  0
LINE
  8
1
  6
CONTINUOUS
 62
4
 10
2.4126096E+002
 20
4.6993804E+002
 11
2.4126096E+002
 21
4.4698204E+002
  0
TEXT
  8
1
  6
CONTINUOUS
 62
4
 10
2.3904118E+002
 20
4.4254204E+002
 40
6.66
  1
46
 41
6.6666667E-001
 50
9.0E+001
  0
INSERT
  2
_AH13
  8
1
 62
4
 10
2.4126096E+002
 20
4.2393804E+002
 41
7.0
 42
7.0
 43
7.0
 50
9.0E+001
  0
INSERT
  2
_AH13
  8
1
 62
4
 10
2.4126096E+002
 20
4.6993804E+002
 41
7.0
 42
7.0
 43
7.0
 50
2.7E+002
  0
ENDBLK
  0
BLOCK
  2
*D201
  3
*D
 10
0.0
 20
0.0
 70
65
  0
LINE
  8
1
  6
CONTINUOUS
 62
4
 10
2.0255967E+002
 20
4.0243804E+002
 11
2.4326096E+002
 21
4.0243804E+002
  0
LINE
  8
1
  6
CONTINUOUS
 62
4
 10
2.1945995E+002
 20
4.2393804E+002
 11
2.4326096E+002
 21
4.2393804E+002
  0
LINE
  8
1
  6
CONTINUOUS
 62
4
 10
2.4126096E+002
 20
4.0243804E+002
 11
2.4126096E+002
 21
4.1318804E+002
  0
LINE
  8
1
  6
CONTINUOUS
 62
4
 10
2.4126096E+002
 20
4.2393804E+002
 11
2.4126096E+002
 21
4.1318804E+002
  0
TEXT
  8
1
  6
CONTINUOUS
 62
4
 10
2.3904118E+002
 20
4.0430804E+002
 40
6.66
  1
21,5
 41
6.6666667E-001
 50
9.0E+001
  0
INSERT
  2
_AH13
  8
1
 62
4
 10
2.4126096E+002
 20
4.0243804E+002
 41
7.0
 42
7.0
 43
7.0
 50
9.0E+001
  0
INSERT
  2
_AH13
  8
1
 62
4
 10
2.4126096E+002
 20
4.2393804E+002
 41
7.0
 42
7.0
 43
7.0
 50
2.7E+002
  0
ENDBLK
  0
BLOCK
  2
*D218
  3
*D
 10
0.0
 20
0.0
 70
65
  0
LINE
  8
1
  6
CONTINUOUS
 62
4
 10
3.4142414E+002
 20
3.8748125E+002
 11
3.4142414E+002
 21
3.9921601E+002
  0
LINE
  8
1
  6
CONTINUOUS
 62
4
 10
3.3512414E+002
 20
3.9138189E+002
 11
3.3512414E+002
 21
3.9921601E+002
  0
LINE
  8
1
  6
CONTINUOUS
 62
4
 10
3.5342414E+002
 20
3.9721601E+002
 11
3.4142414E+002
 21
3.9721601E+002
  0
LINE
  8
1
  6
CONTINUOUS
 62
4
 10
3.3512414E+002
 20
3.9721601E+002
 11
3.0532463E+002
 21
3.9721601E+002
  0
TEXT
  8
1
  6
CONTINUOUS
 62
4
 10
3.0832463E+002
 20
3.9943579E+002
 40
6.66
  1
(
 41
6.6666667E-001
 50
3.6E+002
  0
TEXT
  8
1
  6
CONTINUOUS
 62
4
 10
3.1276463E+002
 20
3.9943579E+002
 40
6.66
  1
6,3
 41
6.6666667E-001
 50
3.6E+002
  0
TEXT
  8
1
  6
CONTINUOUS
 62
4
 10
3.2608463E+002
 20
3.9943579E+002
 40
6.66
  1
)
 41
6.6666667E-001
 50
3.6E+002
  0
INSERT
  2
_AH13
  8
1
 62
4
 10
3.4142414E+002
 20
3.9721601E+002
 41
7.0
 42
7.0
 43
7.0
 50
3.6E+002
  0
INSERT
  2
_AH13
  8
1
 62
4
 10
3.3512414E+002
 20
3.9721601E+002
 41
7.0
 42
7.0
 43
7.0
 50
5.4E+002
  0
ENDBLK
  0
BLOCK
  2
*D224
  3
*D
 10
0.0
 20
0.0
 70
65
  0
LINE
  8
1
  6
CONTINUOUS
 62
4
 10
1.148621E+002
 20
3.8693804E+002
 11
1.148621E+002
 21
4.0053051E+002
  0
LINE
  8
1
  6
CONTINUOUS
 62
4
 10
1.368621E+002
 20
2.8693804E+002
 11
1.368621E+002
 21
4.0053051E+002
  0
LINE
  8
1
  6
CONTINUOUS
 62
4
 10
1.148621E+002
 20
3.9753051E+002
 11
1.2624657E+002
 21
3.9753051E+002
  0
LINE
  8
1
  6
CONTINUOUS
 62
4
 10
1.368621E+002
 20
3.9753051E+002
 11
1.2624657E+002
 21
3.9753051E+002
  0
TEXT
  8
1
  6
CONTINUOUS
 62
4
 10
1.2091857E+002
 20
4.0053251E+002
 40
6.66
  1
22
 41
8.0E-001
  0
INSERT
  2
_AH13
  8
1
 62
4
 10
1.148621E+002
 20
3.9753051E+002
 41
8.0
 42
8.0
 43
8.0
 50
0.0
  0
INSERT
  2
_AH13
  8
1
 62
4
 10
1.368621E+002
 20
3.9753051E+002
 41
8.0
 42
8.0
 43
8.0
 50
1.8E+002
  0
ENDBLK
  0
BLOCK
  2
*D225
  3
*D
 10
0.0
 20
0.0
 70
65
  0
LINE
  8
1
  6
CONTINUOUS
 62
4
 10
1.248621E+002
 20
4.6893804E+002
 11
1.248621E+002
 21
4.8036002E+002
  0
LINE
  8
1
  6
CONTINUOUS
 62
4
 10
1.368621E+002
 20
2.8693804E+002
 11
1.368621E+002
 21
4.8036002E+002
  0
LINE
  8
1
  6
CONTINUOUS
 62
4
 10
1.088621E+002
 20
4.7736002E+002
 11
1.248621E+002
 21
4.7736002E+002
  0
LINE
  8
1
  6
CONTINUOUS
 62
4
 10
1.528621E+002
 20
4.7736002E+002
 11
1.248621E+002
 21
4.7736002E+002
  0
TEXT
  8
1
  6
CONTINUOUS
 62
4
 10
1.255341E+002
 20
4.8036202E+002
 40
6.66
  1
12
 41
8.0E-001
  0
INSERT
  2
_AH13
  8
1
 62
4
 10
1.248621E+002
 20
4.7736002E+002
 41
8.0
 42
8.0
 43
8.0
 50
1.8E+002
  0
INSERT
  2
_AH13
  8
1
 62
4
 10
1.368621E+002
 20
4.7736002E+002
 41
8.0
 42
8.0
 43
8.0
 50
3.6E+002
  0
ENDBLK
  0
BLOCK
  2
*D227
  3
*D
 10
0.0
 20
0.0
 70
65
  0
LINE
  8
1
  6
CONTINUOUS
 62
4
 10
1.368621E+002
 20
5.1393804E+002
 11
1.2730115E+002
 21
5.2349899E+002
  0
LINE
  8
1
  6
CONTINUOUS
 62
4
 10
1.368621E+002
 20
5.0393804E+002
 11
1.2730115E+002
 21
4.9437709E+002
  0
ARC
  8
1
  6
CONTINUOUS
 62
4
 10
1.418621E+002
 20
5.0893804E+002
 40
1.7592296E+001
 50
1.35E+002
 51
1.8E+002
  0
ARC
  8
1
  6
CONTINUOUS
 62
4
 10
1.418621E+002
 20
5.0893804E+002
 40
1.7592296E+001
 50
1.8E+002
 51
2.25E+002
  0
TEXT
  8
1
  6
CONTINUOUS
 62
4
 10
1.212698E+002
 20
5.0094604E+002
 40
6.66
  1
90%%d
 41
8.0E-001
 50
9.0E+001
  0
INSERT
  2
_AH13
  8
1
 62
4
 10
1.2942247E+002
 20
5.2137767E+002
 41
8.0
 42
8.0
 43
8.0
 50
2.3814241E+002
  0
INSERT
  2
_AH13
  8
1
 62
4
 10
1.2942247E+002
 20
4.9649841E+002
 41
8.0
 42
8.0
 43
8.0
 50
1.2185759E+002
  0
ENDBLK
  0
BLOCK
  2
*D229
  3
*D
 10
0.0
 20
0.0
 70
65
  0
LINE
  8
1
  6
CONTINUOUS
 62
4
 10
3.4112414E+002
 20
4.3493804E+002
 11
3.4112414E+002
 21
4.2101921E+002
  0
LINE
  8
1
  6
CONTINUOUS
 62
4
 10
3.5512414E+002
 20
4.3693804E+002
 11
3.5512414E+002
 21
4.2101921E+002
  0
LINE
  8
1
  6
CONTINUOUS
 62
4
 10
3.2912414E+002
 20
4.2301921E+002
 11
3.4112414E+002
 21
4.2301921E+002
  0
LINE
  8
1
  6
CONTINUOUS
 62
4
 10
3.5512414E+002
 20
4.2301921E+002
 11
3.7552979E+002
 21
4.2301921E+002
  0
TEXT
  8
1
  6
CONTINUOUS
 62
4
 10
3.6364979E+002
 20
4.2523899E+002
 40
6.66
  1
14
 41
6.6666667E-001
  0
INSERT
  2
_AH13
  8
1
 62
4
 10
3.4112414E+002
 20
4.2301921E+002
 41
7.0
 42
7.0
 43
7.0
 50
1.8E+002
  0
INSERT
  2
_AH13
  8
1
 62
4
 10
3.5512414E+002
 20
4.2301921E+002
 41
7.0
 42
7.0
 43
7.0
 50
3.6E+002
  0
ENDBLK
  0
BLOCK
  2
*D237
  3
*D
 10
0.0
 20
0.0
 70
65
  0
LINE
  8
1
  6
CONTINUOUS
 62
4
 10
1.248621E+002
 20
4.6893804E+002
 11
1.1108851E+002
 21
4.6893804E+002
  0
LINE
  8
1
  6
CONTINUOUS
 62
4
 10
1.248621E+002
 20
4.3693804E+002
 11
1.1108851E+002
 21
4.3693804E+002
  0
LINE
  8
1
  6
CONTINUOUS
 62
4
 10
1.1408851E+002
 20
4.6893804E+002
 11
1.1408851E+002
 21
4.5324309E+002
  0
LINE
  8
1
  6
CONTINUOUS
 62
4
 10
1.1408851E+002
 20
4.3693804E+002
 11
1.1408851E+002
 21
4.5324309E+002
  0
TEXT
  8
1
  6
CONTINUOUS
 62
4
 10
1.1108651E+002
 20
4.4791509E+002
 40
6.66
  1
32
 41
8.0E-001
 50
9.0E+001
  0
INSERT
  2
_AH13
  8
1
 62
4
 10
1.1408851E+002
 20
4.6893804E+002
 41
8.0
 42
8.0
 43
8.0
 50
2.7E+002
  0
INSERT
  2
_AH13
  8
1
 62
4
 10
1.1408851E+002
 20
4.3693804E+002
 41
8.0
 42
8.0
 43
8.0
 50
4.5E+002
  0
ENDBLK
  0
BLOCK
  2
*D238
  3
*D
 10
0.0
 20
0.0
 70
65
  0
LINE
  8
1
  6
CONTINUOUS
 62
4
 10
1.5898328E+002
 20
4.2393804E+002
 11
9.8015233E+001
 21
4.2393804E+002
  0
LINE
  8
1
  6
CONTINUOUS
 62
4
 10
1.248621E+002
 20
4.6893804E+002
 11
9.8015233E+001
 21
4.6893804E+002
  0
LINE
  8
1
  6
CONTINUOUS
 62
4
 10
1.0101523E+002
 20
4.2393804E+002
 11
1.0101523E+002
 21
4.4343813E+002
  0
LINE
  8
1
  6
CONTINUOUS
 62
4
 10
1.0101523E+002
 20
4.6893804E+002
 11
1.0101523E+002
 21
4.4343813E+002
  0
TEXT
  8
1
  6
CONTINUOUS
 62
4
 10
9.8013233E+001
 20
4.3811013E+002
 40
6.66
  1
45
 41
8.0E-001
 50
9.0E+001
  0
INSERT
  2
_AH13
  8
1
 62
4
 10
1.0101523E+002
 20
4.2393804E+002
 41
8.0
 42
8.0
 43
8.0
 50
9.0E+001
  0
INSERT
  2
_AH13
  8
1
 62
4
 10
1.0101523E+002
 20
4.6893804E+002
 41
8.0
 42
8.0
 43
8.0
 50
2.7E+002
  0
ENDBLK
  0
BLOCK
  2
*D239
  3
*D
 10
0.0
 20
0.0
 70
65
  0
LINE
  8
1
  6
CONTINUOUS
 62
4
 10
1.728621E+002
 20
3.4743804E+002
 11
1.5780908E+002
 21
3.4743804E+002
  0
LINE
  8
1
  6
CONTINUOUS
 62
4
 10
1.728621E+002
 20
3.4043804E+002
 11
1.5780908E+002
 21
3.4043804E+002
  0
LINE
  8
1
  6
CONTINUOUS
 62
4
 10
1.6080908E+002
 20
3.4743804E+002
 11
1.6080908E+002
 21
3.643763E+002
  0
LINE
  8
1
  6
CONTINUOUS
 62
4
 10
1.6080908E+002
 20
3.2443804E+002
 11
1.6080908E+002
 21
3.4743804E+002
  0
TEXT
  8
1
  6
CONTINUOUS
 62
4
 10
1.5780708E+002
 20
3.565763E+002
 40
6.0
  1
7
 41
8.0E-001
 50
9.0E+001
  0
INSERT
  2
_AH13
  8
1
 62
4
 10
1.6080908E+002
 20
3.4743804E+002
 41
8.0
 42
8.0
 43
8.0
 50
4.5E+002
  0
INSERT
  2
_AH13
  8
1
 62
4
 10
1.6080908E+002
 20
3.4043804E+002
 41
8.0
 42
8.0
 43
8.0
 50
6.3E+002
  0
ENDBLK
  0
BLOCK
  2
*D240
  3
*D
 10
0.0
 20
0.0
 70
65
  0
LINE
  8
1
  6
CONTINUOUS
 62
4
 10
3.4112414E+002
 20
4.7093804E+002
 11
3.4112414E+002
 21
4.8181365E+002
  0
LINE
  8
1
  6
CONTINUOUS
 62
4
 10
3.3512414E+002
 20
4.7349365E+002
 11
3.3512414E+002
 21
4.8181365E+002
  0
LINE
  8
1
  6
CONTINUOUS
 62
4
 10
3.5312414E+002
 20
4.7981365E+002
 11
3.4112414E+002
 21
4.7981365E+002
  0
LINE
  8
1
  6
CONTINUOUS
 62
4
 10
3.3512414E+002
 20
4.7981365E+002
 11
3.1384711E+002
 21
4.7981365E+002
  0
TEXT
  8
1
  6
CONTINUOUS
 62
4
 10
3.1684711E+002
 20
4.8203343E+002
 40
6.66
  1
(
 41
6.6666667E-001
 50
3.6E+002
  0
TEXT
  8
1
  6
CONTINUOUS
 62
4
 10
3.2128711E+002
 20
4.8203343E+002
 40
6.66
  1
6
 41
6.6666667E-001
 50
3.6E+002
  0
TEXT
  8
1
  6
CONTINUOUS
 62
4
 10
3.2572711E+002
 20
4.8203343E+002
 40
6.66
  1
)
 41
6.6666667E-001
 50
3.6E+002
  0
INSERT
  2
_AH13
  8
1
 62
4
 10
3.4112414E+002
 20
4.7981365E+002
 41
7.0
 42
7.0
 43
7.0
 50
3.6E+002
  0
INSERT
  2
_AH13
  8
1
 62
4
 10
3.3512414E+002
 20
4.7981365E+002
 41
7.0
 42
7.0
 43
7.0
 50
5.4E+002
  0
ENDBLK
  0
BLOCK
  2
*D241
  3
*D
 10
0.0
 20
0.0
 70
65
  0
LINE
  8
1
  6
CONTINUOUS
 62
4
 10
1.368621E+002
 20
2.8693804E+002
 11
1.368621E+002
 21
2.5996121E+002
  0
LINE
  8
1
  6
CONTINUOUS
 62
4
 10
1.918621E+002
 20
3.2002357E+002
 11
1.918621E+002
 21
3.1180242E+002
  0
LINE
  8
1
  6
CONTINUOUS
 62
4
 10
1.918621E+002
 20
2.9014616E+002
 11
1.918621E+002
 21
2.5996121E+002
  0
LINE
  8
1
  6
CONTINUOUS
 62
4
 10
1.368621E+002
 20
2.6296121E+002
 11
1.8249214E+002
 21
2.6296121E+002
  0
LINE
  8
1
  6
CONTINUOUS
 62
4
 10
1.918621E+002
 20
2.6296121E+002
 11
1.8249214E+002
 21
2.6296121E+002
  0
INSERT
  2
_AH13
  8
1
 62
4
 10
1.368621E+002
 20
2.6296121E+002
 41
8.0
 42
8.0
 43
8.0
 50
0.0
  0
INSERT
  2
_AH13
  8
1
 62
4
 10
1.918621E+002
 20
2.6296121E+002
 41
8.0
 42
8.0
 43
8.0
 50
1.8E+002
  0
ENDBLK
  0
BLOCK
  2
*D244
  3
*D
 10
0.0
 20
0.0
 70
65
  0
LINE
  8
1
  6
CONTINUOUS
 62
4
 10
1.728621E+002
 20
4.2743804E+002
 11
1.5869199E+002
 21
4.2743804E+002
  0
LINE
  8
1
  6
CONTINUOUS
 62
4
 10
1.728621E+002
 20
4.2043804E+002
 11
1.5869199E+002
 21
4.2043804E+002
  0
LINE
  8
1
  6
CONTINUOUS
 62
4
 10
1.6169199E+002
 20
4.4343804E+002
 11
1.6169199E+002
 21
4.2043804E+002
  0
LINE
  8
1
  6
CONTINUOUS
 62
4
 10
1.6169199E+002
 20
4.2043804E+002
 11
1.6169199E+002
 21
4.0507055E+002
  0
TEXT
  8
1
  6
CONTINUOUS
 62
4
 10
1.5868999E+002
 20
4.0807055E+002
 40
6.0
  1
7
 41
8.0E-001
 50
9.0E+001
  0
INSERT
  2
_AH13
  8
1
 62
4
 10
1.6169199E+002
 20
4.2743804E+002
 41
8.0
 42
8.0
 43
8.0
 50
4.5E+002
  0
INSERT
  2
_AH13
  8
1
 62
4
 10
1.6169199E+002
 20
4.2043804E+002
 41
8.0
 42
8.0
 43
8.0
 50
6.3E+002
  0
ENDBLK
  0
BLOCK
  2
*D245
  3
*D
 10
0.0
 20
0.0
 70
65
  0
LINE
  8
1
  6
CONTINUOUS
 62
4
 10
1.728621E+002
 20
4.3197557E+002
 11
1.728621E+002
 21
4.523E+002
  0
LINE
  8
1
  6
CONTINUOUS
 62
4
 10
2.108621E+002
 20
4.3197557E+002
 11
2.108621E+002
 21
4.523E+002
  0
LINE
  8
1
  6
CONTINUOUS
 62
4
 10
1.728621E+002
 20
4.493E+002
 11
1.9204878E+002
 21
4.493E+002
  0
LINE
  8
1
  6
CONTINUOUS
 62
4
 10
2.108621E+002
 20
4.493E+002
 11
1.9204878E+002
 21
4.493E+002
  0
TEXT
  8
1
  6
CONTINUOUS
 62
4
 10
1.8672078E+002
 20
4.52302E+002
 40
6.66
  1
38
 41
8.0E-001
  0
INSERT
  2
_AH13
  8
1
 62
4
 10
1.728621E+002
 20
4.493E+002
 41
8.0
 42
8.0
 43
8.0
 50
0.0
  0
INSERT
  2
_AH13
  8
1
 62
4
 10
2.108621E+002
 20
4.493E+002
 41
8.0
 42
8.0
 43
8.0
 50
1.8E+002
  0
ENDBLK
  0
BLOCK
  2
*D246
  3
*D
 10
0.0
 20
0.0
 70
65
  0
LINE
  8
1
  6
CONTINUOUS
 62
4
 10
1.868621E+002
 20
4.6993804E+002
 11
1.868621E+002
 21
4.980776E+002
  0
LINE
  8
1
  6
CONTINUOUS
 62
4
 10
1.968621E+002
 20
4.6993804E+002
 11
1.968621E+002
 21
4.980776E+002
  0
LINE
  8
1
  6
CONTINUOUS
 62
4
 10
1.708621E+002
 20
4.950776E+002
 11
1.868621E+002
 21
4.950776E+002
  0
LINE
  8
1
  6
CONTINUOUS
 62
4
 10
1.968621E+002
 20
4.950776E+002
 11
2.1700272E+002
 21
4.950776E+002
  0
TEXT
  8
1
  6
CONTINUOUS
 62
4
 10
2.0334672E+002
 20
4.980796E+002
 40
6.66
  1
10
 41
8.0E-001
  0
INSERT
  2
_AH13
  8
1
 62
4
 10
1.868621E+002
 20
4.950776E+002
 41
8.0
 42
8.0
 43
8.0
 50
1.8E+002
  0
INSERT
  2
_AH13
  8
1
 62
4
 10
1.968621E+002
 20
4.950776E+002
 41
8.0
 42
8.0
 43
8.0
 50
3.6E+002
  0
ENDBLK
  0
BLOCK
  2
*D256
  3
*D
 10
0.0
 20
0.0
 70
65
  0
LINE
  8
1
  6
CONTINUOUS
 62
4
 10
3.4612414E+002
 20
3.2636205E+002
 11
3.4612414E+002
 21
3.216253E+002
  0
LINE
  8
1
  6
CONTINUOUS
 62
4
 10
3.3512414E+002
 20
3.2474047E+002
 11
3.3512414E+002
 21
3.216253E+002
  0
LINE
  8
1
  6
CONTINUOUS
 62
4
 10
3.5812414E+002
 20
3.196253E+002
 11
3.4612414E+002
 21
3.196253E+002
  0
LINE
  8
1
  6
CONTINUOUS
 62
4
 10
3.3512414E+002
 20
3.196253E+002
 11
3.1609465E+002
 21
3.196253E+002
  0
TEXT
  8
1
  6
CONTINUOUS
 62
4
 10
3.1909465E+002
 20
3.2184508E+002
 40
6.66
  1
11
 41
6.6666667E-001
 50
3.6E+002
  0
INSERT
  2
_AH13
  8
1
 62
4
 10
3.4612414E+002
 20
3.196253E+002
 41
7.0
 42
7.0
 43
7.0
 50
3.6E+002
  0
INSERT
  2
_AH13
  8
1
 62
4
 10
3.3512414E+002
 20
3.196253E+002
 41
7.0
 42
7.0
 43
7.0
 50
5.4E+002
  0
ENDBLK
  0
BLOCK
  2
*D261
  3
*D
 10
0.0
 20
0.0
 70
65
  0
LINE
  8
1
  6
CONTINUOUS
 62
4
 10
2.0314679E+002
 20
3.5193804E+002
 11
2.279993E+002
 21
3.5193804E+002
  0
LINE
  8
1
  6
CONTINUOUS
 62
4
 10
2.4383487E+002
 20
3.5193804E+002
 11
2.5653018E+002
 21
3.5193804E+002
  0
LINE
  8
1
  6
CONTINUOUS
 62
4
 10
2.1955967E+002
 20
3.4393804E+002
 11
2.2771903E+002
 21
3.4393804E+002
  0
LINE
  8
1
  6
CONTINUOUS
 62
4
 10
2.4229336E+002
 20
3.4393804E+002
 11
2.5653018E+002
 21
3.4393804E+002
  0
LINE
  8
1
  6
CONTINUOUS
 62
4
 10
2.5353018E+002
 20
3.6793804E+002
 11
2.5353018E+002
 21
3.4393804E+002
  0
LINE
  8
1
  6
CONTINUOUS
 62
4
 10
2.5353018E+002
 20
3.4393804E+002
 11
2.5353018E+002
 21
3.2649586E+002
  0
TEXT
  8
1
  6
CONTINUOUS
 62
4
 10
2.5052818E+002
 20
3.2949586E+002
 40
6.66
  1
8
 41
8.0E-001
 50
9.0E+001
  0
INSERT
  2
_AH13
  8
1
 62
4
 10
2.5353018E+002
 20
3.5193804E+002
 41
8.0
 42
8.0
 43
8.0
 50
4.5E+002
  0
INSERT
  2
_AH13
  8
1
 62
4
 10
2.5353018E+002
 20
3.4393804E+002
 41
8.0
 42
8.0
 43
8.0
 50
6.3E+002
  0
ENDBLK
  0
BLOCK
  2
*D263
  3
*D
 10
0.0
 20
0.0
 70
65
  0
LINE
  8
1
  6
CONTINUOUS
 62
4
 10
3.3512414E+002
 20
2.8693804E+002
 11
3.3512414E+002
 21
2.6739971E+002
  0
LINE
  8
1
  6
CONTINUOUS
 62
4
 10
3.5912414E+002
 20
2.8693804E+002
 11
3.5912414E+002
 21
2.6739971E+002
  0
LINE
  8
1
  6
CONTINUOUS
 62
4
 10
3.3512414E+002
 20
2.7039971E+002
 11
3.4762933E+002
 21
2.7039971E+002
  0
LINE
  8
1
  6
CONTINUOUS
 62
4
 10
3.5912414E+002
 20
2.7039971E+002
 11
3.4762933E+002
 21
2.7039971E+002
  0
TEXT
  8
1
  6
CONTINUOUS
 62
4
 10
3.4230133E+002
 20
2.7340171E+002
 40
6.66
  1
20
 41
8.0E-001
  0
INSERT
  2
_AH13
  8
1
 62
4
 10
3.3512414E+002
 20
2.7039971E+002
 41
8.0
 42
8.0
 43
8.0
 50
0.0
  0
INSERT
  2
_AH13
  8
1
 62
4
 10
3.5912414E+002
 20
2.7039971E+002
 41
8.0
 42
8.0
 43
8.0
 50
1.8E+002
  0
ENDBLK
  0
BLOCK
  2
*D264
  3
*D
 10
0.0
 20
0.0
 70
65
  0
LINE
  8
1
  6
CONTINUOUS
 62
4
 10
3.3512414E+002
 20
2.8693804E+002
 11
3.3512414E+002
 21
2.4988466E+002
  0
LINE
  8
1
  6
CONTINUOUS
 62
4
 10
3.5912414E+002
 20
2.8693804E+002
 11
3.5912414E+002
 21
2.4988466E+002
  0
LINE
  8
1
  6
CONTINUOUS
 62
4
 10
3.3512414E+002
 20
2.5288466E+002
 11
3.4734139E+002
 21
2.5288466E+002
  0
LINE
  8
1
  6
CONTINUOUS
 62
4
 10
3.5912414E+002
 20
2.5288466E+002
 11
3.4734139E+002
 21
2.5288466E+002
  0
TEXT
  8
1
  6
CONTINUOUS
 62
4
 10
3.3614139E+002
 20
2.5588666E+002
 40
7.0
  1
(24)
 41
8.0E-001
  0
INSERT
  2
_AH13
  8
1
 62
4
 10
3.3512414E+002
 20
2.5288466E+002
 41
8.0
 42
8.0
 43
8.0
 50
0.0
  0
INSERT
  2
_AH13
  8
1
 62
4
 10
3.5912414E+002
 20
2.5288466E+002
 41
8.0
 42
8.0
 43
8.0
 50
1.8E+002
  0
ENDBLK
  0
BLOCK
  2
*D265
  3
*D
 10
0.0
 20
0.0
 70
65
  0
LINE
  8
1
  6
CONTINUOUS
 62
4
 10
2.268621E+002
 20
1.9743675E+002
 11
2.3917096E+002
 21
1.9743675E+002
  0
LINE
  8
1
  6
CONTINUOUS
 62
4
 10
2.268621E+002
 20
2.1143675E+002
 11
2.3917096E+002
 21
2.1143675E+002
  0
LINE
  8
1
  6
CONTINUOUS
 62
4
 10
2.3717096E+002
 20
1.8543675E+002
 11
2.3717096E+002
 21
1.9743675E+002
  0
LINE
  8
1
  6
CONTINUOUS
 62
4
 10
2.3717096E+002
 20
2.1143675E+002
 11
2.3717096E+002
 21
2.3113204E+002
  0
TEXT
  8
1
  6
CONTINUOUS
 62
4
 10
2.3495118E+002
 20
2.1925204E+002
 40
6.66
  1
14
 41
6.6666667E-001
 50
9.0E+001
  0
INSERT
  2
_AH13
  8
1
 62
4
 10
2.3717096E+002
 20
1.9743675E+002
 41
7.0
 42
7.0
 43
7.0
 50
2.7E+002
  0
INSERT
  2
_AH13
  8
1
 62
4
 10
2.3717096E+002
 20
2.1143675E+002
 41
7.0
 42
7.0
 43
7.0
 50
4.5E+002
  0
ENDBLK
  0
BLOCK
  2
*D276
  3
*D
 10
0.0
 20
0.0
 70
65
  0
LINE
  8
1
  6
CONTINUOUS
 62
4
 10
2.048621E+002
 20
1.9668675E+002
 11
2.3342755E+002
 21
1.9668675E+002
  0
LINE
  8
1
  6
CONTINUOUS
 62
4
 10
2.4070286E+002
 20
1.9668675E+002
 11
2.5094475E+002
 21
1.9668675E+002
  0
LINE
  8
1
  6
CONTINUOUS
 62
4
 10
2.048621E+002
 20
2.1218675E+002
 11
2.3373068E+002
 21
2.1218675E+002
  0
LINE
  8
1
  6
CONTINUOUS
 62
4
 10
2.4024815E+002
 20
2.1218675E+002
 11
2.5094475E+002
 21
2.1218675E+002
  0
LINE
  8
1
  6
CONTINUOUS
 62
4
 10
2.4894475E+002
 20
1.8468675E+002
 11
2.4894475E+002
 21
1.9668675E+002
  0
LINE
  8
1
  6
CONTINUOUS
 62
4
 10
2.4894475E+002
 20
2.1218675E+002
 11
2.4894475E+002
 21
2.4078293E+002
  0
TEXT
  8
1
  6
CONTINUOUS
 62
4
 10
2.4672497E+002
 20
2.2002293E+002
 40
6.66
  1
15,5
 41
6.6666667E-001
 50
9.0E+001
  0
INSERT
  2
_AH13
  8
1
 62
4
 10
2.4894475E+002
 20
1.9668675E+002
 41
7.0
 42
7.0
 43
7.0
 50
2.7E+002
  0
INSERT
  2
_AH13
  8
1
 62
4
 10
2.4894475E+002
 20
2.1218675E+002
 41
7.0
 42
7.0
 43
7.0
 50
4.5E+002
  0
ENDBLK
  0
BLOCK
  2
*D289
  3
*D
 10
0.0
 20
0.0
 70
65
  0
LINE
  8
1
  6
CONTINUOUS
 62
4
 10
1.788621E+002
 20
2.1218675E+002
 11
1.5967976E+002
 21
2.1218675E+002
  0
LINE
  8
1
  6
CONTINUOUS
 62
4
 10
1.418621E+002
 20
2.1543675E+002
 11
1.6367976E+002
 21
2.1543675E+002
  0
LINE
  8
1
  6
CONTINUOUS
 62
4
 10
1.6167976E+002
 20
2.0018675E+002
 11
1.6167976E+002
 21
2.1218675E+002
  0
LINE
  8
1
  6
CONTINUOUS
 62
4
 10
1.6167976E+002
 20
2.1543675E+002
 11
1.6167976E+002
 21
2.4305449E+002
  0
TEXT
  8
1
  6
CONTINUOUS
 62
4
 10
1.5945998E+002
 20
2.2673449E+002
 40
6.66
  1
(
 41
6.6666667E-001
 50
9.0E+001
  0
TEXT
  8
1
  6
CONTINUOUS
 62
4
 10
1.5945998E+002
 20
2.3117449E+002
 40
6.66
  1
3
 41
6.6666667E-001
 50
9.0E+001
  0
TEXT
  8
1
  6
CONTINUOUS
 62
4
 10
1.5945998E+002
 20
2.3561449E+002
 40
6.66
  1
)
 41
6.6666667E-001
 50
9.0E+001
  0
INSERT
  2
_AH13
  8
1
 62
4
 10
1.6167976E+002
 20
2.1218675E+002
 41
7.0
 42
7.0
 43
7.0
 50
2.7E+002
  0
INSERT
  2
_AH13
  8
1
 62
4
 10
1.6167976E+002
 20
2.1543675E+002
 41
7.0
 42
7.0
 43
7.0
 50
4.5E+002
  0
ENDBLK
  0
BLOCK
  2
*D1650
  3
*D
 10
0.0
 20
0.0
 70
65
  0
LINE
  8
1
  6
CONTINUOUS
 62
4
 10
-6.0651713E+002
 20
-5.6029547E+001
 11
-6.3191221E+002
 21
-5.6029547E+001
  0
LINE
  8
1
  6
CONTINUOUS
 62
4
 10
-6.571838E+002
 20
-5.1696214E+001
 11
-6.2791221E+002
 21
-5.1696214E+001
  0
LINE
  8
1
  6
CONTINUOUS
 62
4
 10
-6.2991221E+002
 20
-5.1696214E+001
 11
-6.2991221E+002
 21
-6.8029547E+001
  0
LINE
  8
1
  6
CONTINUOUS
 62
4
 10
-6.2991221E+002
 20
-2.3469935E+001
 11
-6.2991221E+002
 21
-5.1696214E+001
  0
TEXT
  8
1
  6
CONTINUOUS
 62
4
 10
-6.3302021E+002
 20
-3.2800157E+001
 40
9.3333333
  1
4
 41
6.6666667E-001
 50
9.0E+001
  0
INSERT
  2
_AH13
  8
1
 62
4
 10
-6.2991221E+002
 20
-5.6029547E+001
 41
7.0
 42
7.0
 43
7.0
 50
-9.0E+001
  0
INSERT
  2
_AH13
  8
1
 62
4
 10
-6.2991221E+002
 20
-5.1696214E+001
 41
7.0
 42
7.0
 43
7.0
 50
9.0E+001
  0
ENDBLK
  0
BLOCK
  2
*D1661
  3
*D
 10
0.0
 20
0.0
 70
65
  0
LINE
  8
1
  6
CONTINUOUS
 62
4
 10
-5.731838E+002
 20
-7.6696214E+001
 11
-5.1185046E+002
 21
-7.6696214E+001
  0
LINE
  8
1
  6
CONTINUOUS
 62
4
 10
-5.731838E+002
 20
-5.6029547E+001
 11
-5.1185046E+002
 21
-5.6029547E+001
  0
LINE
  8
1
  6
CONTINUOUS
 62
4
 10
-5.1385046E+002
 20
-5.6029547E+001
 11
-5.1385046E+002
 21
-8.8696214E+001
  0
LINE
  8
1
  6
CONTINUOUS
 62
4
 10
-5.1385046E+002
 20
-9.8843798
 11
-5.1385046E+002
 21
-5.6029547E+001
  0
TEXT
  8
1
  6
CONTINUOUS
 62
4
 10
-5.1695846E+002
 20
-3.7881269E+001
 40
9.3333333
  1
15.5
 41
6.6666667E-001
 50
9.0E+001
  0
INSERT
  2
_AH13
  8
1
 62
4
 10
-5.1385046E+002
 20
-7.6696214E+001
 41
7.0
 42
7.0
 43
7.0
 50
-9.0E+001
  0
INSERT
  2
_AH13
  8
1
 62
4
 10
-5.1385046E+002
 20
-5.6029547E+001
 41
7.0
 42
7.0
 43
7.0
 50
9.0E+001
  0
ENDBLK
  0
BLOCK
  2
*D1674
  3
*D
 10
0.0
 20
0.0
 70
65
  0
LINE
  8
1
  6
CONTINUOUS
 62
4
 10
-5.4385046E+002
 20
-7.5696214E+001
 11
-5.2785046E+002
 21
-7.5696214E+001
  0
LINE
  8
1
  6
CONTINUOUS
 62
4
 10
-5.4385046E+002
 20
-5.7029547E+001
 11
-5.2785046E+002
 21
-5.7029547E+001
  0
LINE
  8
1
  6
CONTINUOUS
 62
4
 10
-5.2985046E+002
 20
-5.7029547E+001
 11
-5.2985046E+002
 21
-8.7696214E+001
  0
LINE
  8
1
  6
CONTINUOUS
 62
4
 10
-5.2985046E+002
 20
-2.1831602E+001
 11
-5.2985046E+002
 21
-5.7029547E+001
  0
TEXT
  8
1
  6
CONTINUOUS
 62
4
 10
-5.3295846E+002
 20
-3.7384047E+001
 40
9.3333333
  1
14
 41
6.6666667E-001
 50
9.0E+001
  0
INSERT
  2
_AH13
  8
1
 62
4
 10
-5.2985046E+002
 20
-7.5696214E+001
 41
7.0
 42
7.0
 43
7.0
 50
-9.0E+001
  0
INSERT
  2
_AH13
  8
1
 62
4
 10
-5.2985046E+002
 20
-5.7029547E+001
 41
7.0
 42
7.0
 43
7.0
 50
9.0E+001
  0
ENDBLK
  0
BLOCK
  2
*D1685
  3
*D
 10
0.0
 20
0.0
 70
65
  0
LINE
  8
1
  6
CONTINUOUS
 62
4
 10
-3.7150107E+002
 20
1.1220418E+002
 11
-3.7150107E+002
 21
1.1109988E+002
  0
LINE
  8
1
  6
CONTINUOUS
 62
4
 10
-3.8616774E+002
 20
1.1404208E+002
 11
-3.8616774E+002
 21
1.1509988E+002
  0
LINE
  8
1
  6
CONTINUOUS
 62
4
 10
-3.5950107E+002
 20
1.1309988E+002
 11
-3.8616774E+002
 21
1.1309988E+002
  0
LINE
  8
1
  6
CONTINUOUS
 62
4
 10
-3.8616774E+002
 20
1.1309988E+002
 11
-4.1098597E+002
 21
1.1309988E+002
  0
TEXT
  8
1
  6
CONTINUOUS
 62
4
 10
-4.0787797E+002
 20
1.1620788E+002
 40
9.3333333
  1
11
 41
6.6666667E-001
  0
INSERT
  2
_AH13
  8
1
 62
4
 10
-3.7150107E+002
 20
1.1309988E+002
 41
7.0
 42
7.0
 43
7.0
 50
0.0
  0
INSERT
  2
_AH13
  8
1
 62
4
 10
-3.8616774E+002
 20
1.1309988E+002
 41
7.0
 42
7.0
 43
7.0
 50
1.8E+002
  0
ENDBLK
  0
BLOCK
  2
*D1694
  3
*D
 10
0.0
 20
0.0
 70
65
  0
LINE
  8
1
  6
CONTINUOUS
 62
4
 10
-3.8616774E+002
 20
6.2305507E+001
 11
-3.8616774E+002
 21
3.8111649E+001
  0
LINE
  8
1
  6
CONTINUOUS
 62
4
 10
-3.5416774E+002
 20
6.2305507E+001
 11
-3.5416774E+002
 21
3.8111649E+001
  0
LINE
  8
1
  6
CONTINUOUS
 62
4
 10
-3.8616774E+002
 20
4.0111649E+001
 11
-3.7031424E+002
 21
4.0111649E+001
  0
LINE
  8
1
  6
CONTINUOUS
 62
4
 10
-3.7031424E+002
 20
4.0111649E+001
 11
-3.5416774E+002
 21
4.0111649E+001
  0
TEXT
  8
1
  6
CONTINUOUS
 62
4
 10
-3.7653646E+002
 20
4.3219649E+001
 40
9.3333333
  1
24
 41
6.6666667E-001
  0
INSERT
  2
_AH13
  8
1
 62
4
 10
-3.8616774E+002
 20
4.0111649E+001
 41
7.0
 42
7.0
 43
7.0
 50
0.0
  0
INSERT
  2
_AH13
  8
1
 62
4
 10
-3.5416774E+002
 20
4.0111649E+001
 41
7.0
 42
7.0
 43
7.0
 50
1.8E+002
  0
ENDBLK
  0
BLOCK
  2
*D1703
  3
*D
 10
0.0
 20
0.0
 70
65
  0
LINE
  8
1
  6
CONTINUOUS
 62
4
 10
-3.9432318E+002
 20
3.6030551E+002
 11
-4.0416774E+002
 21
3.6030551E+002
  0
LINE
  8
1
  6
CONTINUOUS
 62
4
 10
-3.8816774E+002
 20
3.7763884E+002
 11
-4.0416774E+002
 21
3.7763884E+002
  0
LINE
  8
1
  6
CONTINUOUS
 62
4
 10
-4.0216774E+002
 20
3.7763884E+002
 11
-4.0216774E+002
 21
3.4830551E+002
  0
LINE
  8
1
  6
CONTINUOUS
 62
4
 10
-4.0216774E+002
 20
4.1283678E+002
 11
-4.0216774E+002
 21
3.7763884E+002
  0
TEXT
  8
1
  6
CONTINUOUS
 62
4
 10
-4.0527574E+002
 20
3.9728434E+002
 40
9.3333333
  1
13
 41
6.6666667E-001
 50
9.0E+001
  0
INSERT
  2
_AH13
  8
1
 62
4
 10
-4.0216774E+002
 20
3.6030551E+002
 41
7.0
 42
7.0
 43
7.0
 50
-9.0E+001
  0
INSERT
  2
_AH13
  8
1
 62
4
 10
-4.0216774E+002
 20
3.7763884E+002
 41
7.0
 42
7.0
 43
7.0
 50
9.0E+001
  0
ENDBLK
  0
BLOCK
  2
*D1714
  3
*D
 10
0.0
 20
0.0
 70
65
  0
LINE
  8
1
  6
CONTINUOUS
 62
4
 10
-3.9227136E+002
 20
8.163884E+001
 11
-4.0416774E+002
 21
8.163884E+001
  0
LINE
  8
1
  6
CONTINUOUS
 62
4
 10
-3.8816774E+002
 20
6.4305507E+001
 11
-4.0416774E+002
 21
6.4305507E+001
  0
LINE
  8
1
  6
CONTINUOUS
 62
4
 10
-4.0216774E+002
 20
9.363884E+001
 11
-4.0216774E+002
 21
6.4305507E+001
  0
LINE
  8
1
  6
CONTINUOUS
 62
4
 10
-4.0216774E+002
 20
6.4305507E+001
 11
-4.0216774E+002
 21
2.6793673E+001
  0
TEXT
  8
1
  6
CONTINUOUS
 62
4
 10
-4.0527574E+002
 20
2.9901673E+001
 40
9.3333333
  1
13
 41
6.6666667E-001
 50
9.0E+001
  0
INSERT
  2
_AH13
  8
1
 62
4
 10
-4.0216774E+002
 20
8.163884E+001
 41
7.0
 42
7.0
 43
7.0
 50
9.0E+001
  0
INSERT
  2
_AH13
  8
1
 62
4
 10
-4.0216774E+002
 20
6.4305507E+001
 41
7.0
 42
7.0
 43
7.0
 50
-9.0E+001
  0
ENDBLK
  0
BLOCK
  2
*D1725
  3
*D
 10
0.0
 20
0.0
 70
65
  0
LINE
  8
1
  6
CONTINUOUS
 62
4
 10
-3.7816774E+002
 20
3.0897217E+002
 11
-3.7816774E+002
 21
3.2401545E+002
  0
LINE
  8
1
  6
CONTINUOUS
 62
4
 10
-3.8616774E+002
 20
3.1237965E+002
 11
-3.8616774E+002
 21
3.2401545E+002
  0
LINE
  8
1
  6
CONTINUOUS
 62
4
 10
-3.6616774E+002
 20
3.2201545E+002
 11
-3.8616774E+002
 21
3.2201545E+002
  0
LINE
  8
1
  6
CONTINUOUS
 62
4
 10
-3.8616774E+002
 20
3.2201545E+002
 11
-4.0954939E+002
 21
3.2201545E+002
  0
TEXT
  8
1
  6
CONTINUOUS
 62
4
 10
-4.0644139E+002
 20
3.2512345E+002
 40
9.3333333
  1
6
 41
6.6666667E-001
  0
INSERT
  2
_AH13
  8
1
 62
4
 10
-3.7816774E+002
 20
3.2201545E+002
 41
7.0
 42
7.0
 43
7.0
 50
0.0
  0
INSERT
  2
_AH13
  8
1
 62
4
 10
-3.8616774E+002
 20
3.2201545E+002
 41
7.0
 42
7.0
 43
7.0
 50
1.8E+002
  0
ENDBLK
  0
BLOCK
  2
*D1736
  3
*D
 10
0.0
 20
0.0
 70
65
  0
LINE
  8
1
  6
CONTINUOUS
 62
4
 10
-3.7816774E+002
 20
2.6230551E+002
 11
-3.7816774E+002
 21
2.4438272E+002
  0
LINE
  8
1
  6
CONTINUOUS
 62
4
 10
-3.5950107E+002
 20
2.6497217E+002
 11
-3.5950107E+002
 21
2.4438272E+002
  0
LINE
  8
1
  6
CONTINUOUS
 62
4
 10
-3.5950107E+002
 20
2.4638272E+002
 11
-3.9016774E+002
 21
2.4638272E+002
  0
LINE
  8
1
  6
CONTINUOUS
 62
4
 10
-3.2430313E+002
 20
2.4638272E+002
 11
-3.5950107E+002
 21
2.4638272E+002
  0
TEXT
  8
1
  6
CONTINUOUS
 62
4
 10
-3.3985557E+002
 20
2.4949072E+002
 40
9.3333333
  1
14
 41
6.6666667E-001
  0
INSERT
  2
_AH13
  8
1
 62
4
 10
-3.7816774E+002
 20
2.4638272E+002
 41
7.0
 42
7.0
 43
7.0
 50
1.8E+002
  0
INSERT
  2
_AH13
  8
1
 62
4
 10
-3.5950107E+002
 20
2.4638272E+002
 41
7.0
 42
7.0
 43
7.0
 50
0.0
  0
ENDBLK
  0
BLOCK
  2
*D1747
  3
*D
 10
0.0
 20
0.0
 70
65
  0
LINE
  8
1
  6
CONTINUOUS
 62
4
 10
-3.7776774E+002
 20
1.9963884E+002
 11
-3.7776774E+002
 21
2.0871613E+002
  0
LINE
  8
1
  6
CONTINUOUS
 62
4
 10
-3.8616774E+002
 20
2.0289731E+002
 11
-3.8616774E+002
 21
2.0871613E+002
  0
LINE
  8
1
  6
CONTINUOUS
 62
4
 10
-3.6576774E+002
 20
2.0671613E+002
 11
-3.8616774E+002
 21
2.0671613E+002
  0
LINE
  8
1
  6
CONTINUOUS
 62
4
 10
-3.8616774E+002
 20
2.0671613E+002
 11
-4.1804062E+002
 21
2.0671613E+002
  0
TEXT
  8
1
  6
CONTINUOUS
 62
4
 10
-4.1493262E+002
 20
2.0982413E+002
 40
9.3333333
  1
6.3
 41
6.6666667E-001
  0
INSERT
  2
_AH13
  8
1
 62
4
 10
-3.7776774E+002
 20
2.0671613E+002
 41
7.0
 42
7.0
 43
7.0
 50
0.0
  0
INSERT
  2
_AH13
  8
1
 62
4
 10
-3.8616774E+002
 20
2.0671613E+002
 41
7.0
 42
7.0
 43
7.0
 50
1.8E+002
  0
ENDBLK
  0
BLOCK
  2
*D1758
  3
*D
 10
0.0
 20
0.0
 70
65
  0
LINE
  8
1
  6
CONTINUOUS
 62
4
 10
-6.7785046E+002
 20
1.9963884E+002
 11
-6.7785046E+002
 21
2.1563884E+002
  0
LINE
  8
1
  6
CONTINUOUS
 62
4
 10
-6.631838E+002
 20
2.0985805E+002
 11
-6.631838E+002
 21
2.1563884E+002
  0
LINE
  8
1
  6
CONTINUOUS
 62
4
 10
-6.7785046E+002
 20
2.1363884E+002
 11
-7.106463E+002
 21
2.1363884E+002
  0
LINE
  8
1
  6
CONTINUOUS
 62
4
 10
-6.511838E+002
 20
2.1363884E+002
 11
-6.7785046E+002
 21
2.1363884E+002
  0
TEXT
  8
1
  6
CONTINUOUS
 62
4
 10
-7.075383E+002
 20
2.1674684E+002
 40
9.3333333
  1
11
 41
6.6666667E-001
  0
INSERT
  2
_AH13
  8
1
 62
4
 10
-6.7785046E+002
 20
2.1363884E+002
 41
7.0
 42
7.0
 43
7.0
 50
1.8E+002
  0
INSERT
  2
_AH13
  8
1
 62
4
 10
-6.631838E+002
 20
2.1363884E+002
 41
7.0
 42
7.0
 43
7.0
 50
0.0
  0
ENDBLK
  0
BLOCK
  2
*D1772
  3
*D
 10
0.0
 20
0.0
 70
65
  0
LINE
  8
1
  6
CONTINUOUS
 62
4
 10
-6.631838E+002
 20
3.0897217E+002
 11
-6.631838E+002
 21
3.2497217E+002
  0
LINE
  8
1
  6
CONTINUOUS
 62
4
 10
-6.791838E+002
 20
3.0897217E+002
 11
-6.791838E+002
 21
3.2497217E+002
  0
LINE
  8
1
  6
CONTINUOUS
 62
4
 10
-6.511838E+002
 20
3.2297217E+002
 11
-6.791838E+002
 21
3.2297217E+002
  0
LINE
  8
1
  6
CONTINUOUS
 62
4
 10
-6.791838E+002
 20
3.2297217E+002
 11
-7.1669563E+002
 21
3.2297217E+002
  0
TEXT
  8
1
  6
CONTINUOUS
 62
4
 10
-7.1358763E+002
 20
3.2608017E+002
 40
9.3333333
  1
12
 41
6.6666667E-001
  0
INSERT
  2
_AH13
  8
1
 62
4
 10
-6.631838E+002
 20
3.2297217E+002
 41
7.0
 42
7.0
 43
7.0
 50
0.0
  0
INSERT
  2
_AH13
  8
1
 62
4
 10
-6.791838E+002
 20
3.2297217E+002
 41
7.0
 42
7.0
 43
7.0
 50
1.8E+002
  0
ENDBLK
  0
BLOCK
  2
*D1783
  3
*D
 10
0.0
 20
0.0
 70
65
  0
LINE
  8
1
  6
CONTINUOUS
 62
4
 10
-5.7625369E+002
 20
3.0830551E+002
 11
-5.2785046E+002
 21
3.0830551E+002
  0
LINE
  8
1
  6
CONTINUOUS
 62
4
 10
-5.5051713E+002
 20
3.3097217E+002
 11
-5.2785046E+002
 21
3.3097217E+002
  0
LINE
  8
1
  6
CONTINUOUS
 62
4
 10
-5.2985046E+002
 20
3.0830551E+002
 11
-5.2985046E+002
 21
3.1969419E+002
  0
LINE
  8
1
  6
CONTINUOUS
 62
4
 10
-5.2985046E+002
 20
3.1969419E+002
 11
-5.2985046E+002
 21
3.3097217E+002
  0
TEXT
  8
1
  6
CONTINUOUS
 62
4
 10
-5.3295846E+002
 20
3.1347196E+002
 40
9.3333333
  1
17
 41
6.6666667E-001
 50
9.0E+001
  0
INSERT
  2
_AH13
  8
1
 62
4
 10
-5.2985046E+002
 20
3.0830551E+002
 41
7.0
 42
7.0
 43
7.0
 50
9.0E+001
  0
INSERT
  2
_AH13
  8
1
 62
4
 10
-5.2985046E+002
 20
3.3097217E+002
 41
7.0
 42
7.0
 43
7.0
 50
-9.0E+001
  0
ENDBLK
  0
BLOCK
  2
*D1784
  3
*D
 10
0.0
 20
0.0
 70
65
  0
LINE
  8
1
  6
CONTINUOUS
 62
4
 10
-5.5371999E+002
 20
2.4697217E+002
 11
-5.2785046E+002
 21
2.4697217E+002
  0
LINE
  8
1
  6
CONTINUOUS
 62
4
 10
-5.7625369E+002
 20
3.0830551E+002
 11
-5.2785046E+002
 21
3.0830551E+002
  0
LINE
  8
1
  6
CONTINUOUS
 62
4
 10
-5.2985046E+002
 20
2.4697217E+002
 11
-5.2985046E+002
 21
2.764819E+002
  0
LINE
  8
1
  6
CONTINUOUS
 62
4
 10
-5.2985046E+002
 20
2.764819E+002
 11
-5.2985046E+002
 21
3.0830551E+002
  0
TEXT
  8
1
  6
CONTINUOUS
 62
4
 10
-5.3295846E+002
 20
2.7025967E+002
 40
9.3333333
  1
46
 41
6.6666667E-001
 50
9.0E+001
  0
INSERT
  2
_AH13
  8
1
 62
4
 10
-5.2985046E+002
 20
2.4697217E+002
 41
7.0
 42
7.0
 43
7.0
 50
9.0E+001
  0
INSERT
  2
_AH13
  8
1
 62
4
 10
-5.2985046E+002
 20
3.0830551E+002
 41
7.0
 42
7.0
 43
7.0
 50
-9.0E+001
  0
ENDBLK
  0
BLOCK
  2
*D1785
  3
*D
 10
0.0
 20
0.0
 70
65
  0
LINE
  8
1
  6
CONTINUOUS
 62
4
 10
-5.7625369E+002
 20
2.1830551E+002
 11
-5.2785046E+002
 21
2.1830551E+002
  0
LINE
  8
1
  6
CONTINUOUS
 62
4
 10
-5.5371999E+002
 20
2.4697217E+002
 11
-5.2785046E+002
 21
2.4697217E+002
  0
LINE
  8
1
  6
CONTINUOUS
 62
4
 10
-5.2985046E+002
 20
2.1830551E+002
 11
-5.2985046E+002
 21
2.3023156E+002
  0
LINE
  8
1
  6
CONTINUOUS
 62
4
 10
-5.2985046E+002
 20
2.3023156E+002
 11
-5.2985046E+002
 21
2.4697217E+002
  0
TEXT
  8
1
  6
CONTINUOUS
 62
4
 10
-5.3295846E+002
 20
2.1778712E+002
 40
9.3333333
  1
21.5
 41
6.6666667E-001
 50
9.0E+001
  0
INSERT
  2
_AH13
  8
1
 62
4
 10
-5.2985046E+002
 20
2.1830551E+002
 41
7.0
 42
7.0
 43
7.0
 50
9.0E+001
  0
INSERT
  2
_AH13
  8
1
 62
4
 10
-5.2985046E+002
 20
2.4697217E+002
 41
7.0
 42
7.0
 43
7.0
 50
-9.0E+001
  0
ENDBLK
  0
BLOCK
  2
*D1806
  3
*D
 10
0.0
 20
0.0
 70
65
  0
LINE
  8
1
  6
CONTINUOUS
 62
4
 10
-5.7518173E+002
 20
1.5097217E+002
 11
-4.9585046E+002
 21
1.5097217E+002
  0
LINE
  8
1
  6
CONTINUOUS
 62
4
 10
-5.3142789E+002
 20
2.4697217E+002
 11
-4.9585046E+002
 21
2.4697217E+002
  0
LINE
  8
1
  6
CONTINUOUS
 62
4
 10
-4.9785046E+002
 20
1.5097217E+002
 11
-4.9785046E+002
 21
1.9781523E+002
  0
LINE
  8
1
  6
CONTINUOUS
 62
4
 10
-4.9785046E+002
 20
1.9781523E+002
 11
-4.9785046E+002
 21
2.4697217E+002
  0
TEXT
  8
1
  6
CONTINUOUS
 62
4
 10
-5.0095846E+002
 20
1.9159301E+002
 40
9.3333333
  1
72
 41
6.6666667E-001
 50
9.0E+001
  0
INSERT
  2
_AH13
  8
1
 62
4
 10
-4.9785046E+002
 20
1.5097217E+002
 41
7.0
 42
7.0
 43
7.0
 50
9.0E+001
  0
INSERT
  2
_AH13
  8
1
 62
4
 10
-4.9785046E+002
 20
2.4697217E+002
 41
7.0
 42
7.0
 43
7.0
 50
-9.0E+001
  0
ENDBLK
  0
BLOCK
  2
*D1815
  3
*D
 10
0.0
 20
0.0
 70
65
  0
LINE
  8
1
  6
CONTINUOUS
 62
4
 10
-5.4792213E+002
 20
1.5097217E+002
 11
-5.1185046E+002
 21
1.5097217E+002
  0
LINE
  8
1
  6
CONTINUOUS
 62
4
 10
-5.5092036E+002
 20
1.4030551E+002
 11
-5.1185046E+002
 21
1.4030551E+002
  0
LINE
  8
1
  6
CONTINUOUS
 62
4
 10
-5.1385046E+002
 20
1.6297217E+002
 11
-5.1385046E+002
 21
1.4030551E+002
  0
LINE
  8
1
  6
CONTINUOUS
 62
4
 10
-5.1385046E+002
 20
1.4030551E+002
 11
-5.1385046E+002
 21
1.2508535E+002
  0
TEXT
  8
1
  6
CONTINUOUS
 62
4
 10
-5.1695846E+002
 20
1.2819335E+002
 40
9.3333333
  1
8
 41
6.6666667E-001
 50
9.0E+001
  0
INSERT
  2
_AH13
  8
1
 62
4
 10
-5.1385046E+002
 20
1.5097217E+002
 41
7.0
 42
7.0
 43
7.0
 50
9.0E+001
  0
INSERT
  2
_AH13
  8
1
 62
4
 10
-5.1385046E+002
 20
1.4030551E+002
 41
7.0
 42
7.0
 43
7.0
 50
-9.0E+001
  0
ENDBLK
  0
BLOCK
  2
*D1826
  3
*D
 10
0.0
 20
0.0
 70
65
  0
LINE
  8
1
  6
CONTINUOUS
 62
4
 10
-5.5051713E+002
 20
1.1097217E+002
 11
-4.7985046E+002
 21
1.1097217E+002
  0
LINE
  8
1
  6
CONTINUOUS
 62
4
 10
-5.3484049E+002
 20
3.3097217E+002
 11
-4.7985046E+002
 21
3.3097217E+002
  0
LINE
  8
1
  6
CONTINUOUS
 62
4
 10
-4.8185046E+002
 20
1.1097217E+002
 11
-4.8185046E+002
 21
2.245125E+002
  0
LINE
  8
1
  6
CONTINUOUS
 62
4
 10
-4.8185046E+002
 20
2.245125E+002
 11
-4.8185046E+002
 21
3.3097217E+002
  0
TEXT
  8
1
  6
CONTINUOUS
 62
4
 10
-4.8495846E+002
 20
2.1517917E+002
 40
9.3333333
  1
165
 41
6.6666667E-001
 50
9.0E+001
  0
INSERT
  2
_AH13
  8
1
 62
4
 10
-4.8185046E+002
 20
1.1097217E+002
 41
7.0
 42
7.0
 43
7.0
 50
9.0E+001
  0
INSERT
  2
_AH13
  8
1
 62
4
 10
-4.8185046E+002
 20
3.3097217E+002
 41
7.0
 42
7.0
 43
7.0
 50
-9.0E+001
  0
ENDBLK
  0
BLOCK
  2
*D1835
  3
*D
 10
0.0
 20
0.0
 70
65
  0
LINE
  8
1
  6
CONTINUOUS
 62
4
 10
-6.591838E+002
 20
6.2305507E+001
 11
-6.591838E+002
 21
4.6305507E+001
  0
LINE
  8
1
  6
CONTINUOUS
 62
4
 10
-6.631838E+002
 20
6.2305507E+001
 11
-6.631838E+002
 21
4.6305507E+001
  0
LINE
  8
1
  6
CONTINUOUS
 62
4
 10
-6.471838E+002
 20
4.8305507E+001
 11
-6.631838E+002
 21
4.8305507E+001
  0
LINE
  8
1
  6
CONTINUOUS
 62
4
 10
-6.631838E+002
 20
4.8305507E+001
 11
-6.9364702E+002
 21
4.8305507E+001
  0
TEXT
  8
1
  6
CONTINUOUS
 62
4
 10
-6.9053902E+002
 20
5.1413507E+001
 40
9.3333333
  1
3
 41
6.6666667E-001
  0
INSERT
  2
_AH13
  8
1
 62
4
 10
-6.591838E+002
 20
4.8305507E+001
 41
7.0
 42
7.0
 43
7.0
 50
0.0
  0
INSERT
  2
_AH13
  8
1
 62
4
 10
-6.631838E+002
 20
4.8305507E+001
 41
7.0
 42
7.0
 43
7.0
 50
1.8E+002
  0
ENDBLK
  0
BLOCK
  2
*D1846
  3
*D
 10
0.0
 20
0.0
 70
65
  0
LINE
  8
1
  6
CONTINUOUS
 62
4
 10
-6.651838E+002
 20
6.4305507E+001
 11
-7.4251713E+002
 21
6.4305507E+001
  0
LINE
  8
1
  6
CONTINUOUS
 62
4
 10
-6.9478752E+002
 20
3.7763884E+002
 11
-7.4251713E+002
 21
3.7763884E+002
  0
LINE
  8
1
  6
CONTINUOUS
 62
4
 10
-7.4051713E+002
 20
6.4305507E+001
 11
-7.4051713E+002
 21
2.1902773E+002
  0
LINE
  8
1
  6
CONTINUOUS
 62
4
 10
-7.4051713E+002
 20
2.1902773E+002
 11
-7.4051713E+002
 21
3.7763884E+002
  0
TEXT
  8
1
  6
CONTINUOUS
 62
4
 10
-7.4362513E+002
 20
2.096944E+002
 40
9.3333333
  1
235
 41
6.6666667E-001
 50
9.0E+001
  0
INSERT
  2
_AH13
  8
1
 62
4
 10
-7.4051713E+002
 20
6.4305507E+001
 41
7.0
 42
7.0
 43
7.0
 50
9.0E+001
  0
INSERT
  2
_AH13
  8
1
 62
4
 10
-7.4051713E+002
 20
3.7763884E+002
 41
7.0
 42
7.0
 43
7.0
 50
-9.0E+001
  0
ENDBLK
  0
BLOCK
  2
*D1855
  3
*D
 10
0.0
 20
0.0
 70
65
  0
LINE
  8
1
  6
CONTINUOUS
 62
4
 10
-6.811838E+002
 20
3.0697217E+002
 11
-7.2651713E+002
 21
3.0697217E+002
  0
LINE
  8
1
  6
CONTINUOUS
 62
4
 10
-6.651838E+002
 20
3.7763884E+002
 11
-7.2651713E+002
 21
3.7763884E+002
  0
LINE
  8
1
  6
CONTINUOUS
 62
4
 10
-7.2451713E+002
 20
3.0697217E+002
 11
-7.2451713E+002
 21
3.4114856E+002
  0
LINE
  8
1
  6
CONTINUOUS
 62
4
 10
-7.2451713E+002
 20
3.4114856E+002
 11
-7.2451713E+002
 21
3.7763884E+002
  0
TEXT
  8
1
  6
CONTINUOUS
 62
4
 10
-7.2762513E+002
 20
3.3492634E+002
 40
9.3333333
  1
53
 41
6.6666667E-001
 50
9.0E+001
  0
INSERT
  2
_AH13
  8
1
 62
4
 10
-7.2451713E+002
 20
3.0697217E+002
 41
7.0
 42
7.0
 43
7.0
 50
9.0E+001
  0
INSERT
  2
_AH13
  8
1
 62
4
 10
-7.2451713E+002
 20
3.7763884E+002
 41
7.0
 42
7.0
 43
7.0
 50
-9.0E+001
  0
ENDBLK
  0
BLOCK
  2
*D1856
  3
*D
 10
0.0
 20
0.0
 70
65
  0
LINE
  8
1
  6
CONTINUOUS
 62
4
 10
-6.811838E+002
 20
2.6430551E+002
 11
-7.2651713E+002
 21
2.6430551E+002
  0
LINE
  8
1
  6
CONTINUOUS
 62
4
 10
-6.811838E+002
 20
3.0697217E+002
 11
-7.2651713E+002
 21
3.0697217E+002
  0
LINE
  8
1
  6
CONTINUOUS
 62
4
 10
-7.2451713E+002
 20
2.6430551E+002
 11
-7.2451713E+002
 21
2.844819E+002
  0
LINE
  8
1
  6
CONTINUOUS
 62
4
 10
-7.2451713E+002
 20
2.844819E+002
 11
-7.2451713E+002
 21
3.0697217E+002
  0
TEXT
  8
1
  6
CONTINUOUS
 62
4
 10
-7.2762513E+002
 20
2.7825967E+002
 40
9.3333333
  1
32
 41
6.6666667E-001
 50
9.0E+001
  0
INSERT
  2
_AH13
  8
1
 62
4
 10
-7.2451713E+002
 20
2.6430551E+002
 41
7.0
 42
7.0
 43
7.0
 50
9.0E+001
  0
INSERT
  2
_AH13
  8
1
 62
4
 10
-7.2451713E+002
 20
3.0697217E+002
 41
7.0
 42
7.0
 43
7.0
 50
-9.0E+001
  0
ENDBLK
  0
BLOCK
  2
*D1857
  3
*D
 10
0.0
 20
0.0
 70
65
  0
LINE
  8
1
  6
CONTINUOUS
 62
4
 10
-6.9451713E+002
 20
1.9763884E+002
 11
-7.2651713E+002
 21
1.9763884E+002
  0
LINE
  8
1
  6
CONTINUOUS
 62
4
 10
-6.811838E+002
 20
2.6430551E+002
 11
-7.2651713E+002
 21
2.6430551E+002
  0
LINE
  8
1
  6
CONTINUOUS
 62
4
 10
-7.2451713E+002
 20
1.9763884E+002
 11
-7.2451713E+002
 21
2.2981523E+002
  0
LINE
  8
1
  6
CONTINUOUS
 62
4
 10
-7.2451713E+002
 20
2.2981523E+002
 11
-7.2451713E+002
 21
2.6430551E+002
  0
TEXT
  8
1
  6
CONTINUOUS
 62
4
 10
-7.2762513E+002
 20
2.2359301E+002
 40
9.3333333
  1
50
 41
6.6666667E-001
 50
9.0E+001
  0
INSERT
  2
_AH13
  8
1
 62
4
 10
-7.2451713E+002
 20
1.9763884E+002
 41
7.0
 42
7.0
 43
7.0
 50
9.0E+001
  0
INSERT
  2
_AH13
  8
1
 62
4
 10
-7.2451713E+002
 20
2.6430551E+002
 41
7.0
 42
7.0
 43
7.0
 50
-9.0E+001
  0
ENDBLK
  0
BLOCK
  2
*D1858
  3
*D
 10
0.0
 20
0.0
 70
65
  0
LINE
  8
1
  6
CONTINUOUS
 62
4
 10
-6.9451713E+002
 20
1.5097217E+002
 11
-7.2651713E+002
 21
1.5097217E+002
  0
LINE
  8
1
  6
CONTINUOUS
 62
4
 10
-6.9451713E+002
 20
1.9763884E+002
 11
-7.2651713E+002
 21
1.9763884E+002
  0
LINE
  8
1
  6
CONTINUOUS
 62
4
 10
-7.2451713E+002
 20
1.5097217E+002
 11
-7.2451713E+002
 21
1.7314856E+002
  0
LINE
  8
1
  6
CONTINUOUS
 62
4
 10
-7.2451713E+002
 20
1.7314856E+002
 11
-7.2451713E+002
 21
1.9763884E+002
  0
TEXT
  8
1
  6
CONTINUOUS
 62
4
 10
-7.2762513E+002
 20
1.6692634E+002
 40
9.3333333
  1
35
 41
6.6666667E-001
 50
9.0E+001
  0
INSERT
  2
_AH13
  8
1
 62
4
 10
-7.2451713E+002
 20
1.5097217E+002
 41
7.0
 42
7.0
 43
7.0
 50
9.0E+001
  0
INSERT
  2
_AH13
  8
1
 62
4
 10
-7.2451713E+002
 20
1.9763884E+002
 41
7.0
 42
7.0
 43
7.0
 50
-9.0E+001
  0
ENDBLK
  0
BLOCK
  2
*D1885
  3
*D
 10
0.0
 20
0.0
 70
65
  0
LINE
  8
1
  6
CONTINUOUS
 62
4
 10
-5.0171826E+002
 20
3.3097217E+002
 11
-4.7985046E+002
 21
3.3097217E+002
  0
LINE
  8
1
  6
CONTINUOUS
 62
4
 10
-6.571838E+002
 20
3.7763884E+002
 11
-4.7985046E+002
 21
3.7763884E+002
  0
LINE
  8
1
  6
CONTINUOUS
 62
4
 10
-4.8185046E+002
 20
3.3097217E+002
 11
-4.8185046E+002
 21
3.5314856E+002
  0
LINE
  8
1
  6
CONTINUOUS
 62
4
 10
-4.8185046E+002
 20
3.5314856E+002
 11
-4.8185046E+002
 21
3.7763884E+002
  0
TEXT
  8
1
  6
CONTINUOUS
 62
4
 10
-4.8495846E+002
 20
3.4692634E+002
 40
9.3333333
  1
35
 41
6.6666667E-001
 50
9.0E+001
  0
INSERT
  2
_AH13
  8
1
 62
4
 10
-4.8185046E+002
 20
3.3097217E+002
 41
7.0
 42
7.0
 43
7.0
 50
9.0E+001
  0
INSERT
  2
_AH13
  8
1
 62
4
 10
-4.8185046E+002
 20
3.7763884E+002
 41
7.0
 42
7.0
 43
7.0
 50
-9.0E+001
  0
ENDBLK
  0
BLOCK
  2
*D1894
  3
*D
 10
0.0
 20
0.0
 70
65
  0
LINE
  8
1
  6
CONTINUOUS
 62
4
 10
-5.6451713E+002
 20
1.2670874E+002
 11
-5.6451713E+002
 21
9.0305507E+001
  0
LINE
  8
1
  6
CONTINUOUS
 62
4
 10
-6.151838E+002
 20
1.2670874E+002
 11
-6.151838E+002
 21
9.0305507E+001
  0
LINE
  8
1
  6
CONTINUOUS
 62
4
 10
-5.8763161E+002
 20
9.2305507E+001
 11
-5.6451713E+002
 21
9.2305507E+001
  0
LINE
  8
1
  6
CONTINUOUS
 62
4
 10
-6.151838E+002
 20
9.2305507E+001
 11
-5.8763161E+002
 21
9.2305507E+001
  0
TEXT
  8
1
  6
CONTINUOUS
 62
4
 10
-5.9385384E+002
 20
9.5413507E+001
 40
9.3333333
  1
38
 41
6.6666667E-001
  0
INSERT
  2
_AH13
  8
1
 62
4
 10
-5.6451713E+002
 20
9.2305507E+001
 41
7.0
 42
7.0
 43
7.0
 50
1.8E+002
  0
INSERT
  2
_AH13
  8
1
 62
4
 10
-6.151838E+002
 20
9.2305507E+001
 41
7.0
 42
7.0
 43
7.0
 50
0.0
  0
ENDBLK
  0
BLOCK
  2
*D1903
  3
*D
 10
0.0
 20
0.0
 70
65
  0
LINE
  8
1
  6
CONTINUOUS
 62
4
 10
-5.8985046E+002
 20
1.0641954E+002
 11
-5.8985046E+002
 21
1.2316128E+001
  0
LINE
  8
1
  6
CONTINUOUS
 62
4
 10
-6.631838E+002
 20
5.076407E+001
 11
-6.631838E+002
 21
1.2316128E+001
  0
LINE
  8
1
  6
CONTINUOUS
 62
4
 10
-6.3664096E+002
 20
1.4316128E+001
 11
-5.8985046E+002
 21
1.4316128E+001
  0
LINE
  8
1
  6
CONTINUOUS
 62
4
 10
-6.631838E+002
 20
1.4316128E+001
 11
-6.3664096E+002
 21
1.4316128E+001
  0
TEXT
  8
1
  6
CONTINUOUS
 62
4
 10
-6.7708541E+002
 20
1.7424128E+001
 40
9.3333333
  1
(55) 65 (100)
 41
6.6666667E-001
  0
INSERT
  2
_AH13
  8
1
 62
4
 10
-5.8985046E+002
 20
1.4316128E+001
 41
7.0
 42
7.0
 43
7.0
 50
1.8E+002
  0
INSERT
  2
_AH13
  8
1
 62
4
 10
-6.631838E+002
 20
1.4316128E+001
 41
7.0
 42
7.0
 43
7.0
 50
0.0
  0
ENDBLK
  0
BLOCK
  2
*D1904
  3
*D
 10
0.0
 20
0.0
 70
65
  0
LINE
  8
1
  6
CONTINUOUS
 62
4
 10
-5.4585046E+002
 20
1.1563884E+002
 11
-5.4585046E+002
 21
3.0305507E+001
  0
LINE
  8
1
  6
CONTINUOUS
 62
4
 10
-5.8985046E+002
 20
1.0641954E+002
 11
-5.8985046E+002
 21
3.0305507E+001
  0
LINE
  8
1
  6
CONTINUOUS
 62
4
 10
-5.6900741E+002
 20
3.2305507E+001
 11
-5.4585046E+002
 21
3.2305507E+001
  0
LINE
  8
1
  6
CONTINUOUS
 62
4
 10
-5.8985046E+002
 20
3.2305507E+001
 11
-5.6900741E+002
 21
3.2305507E+001
  0
TEXT
  8
1
  6
CONTINUOUS
 62
4
 10
-5.7522963E+002
 20
3.5413507E+001
 40
9.3333333
  1
33
 41
6.6666667E-001
  0
INSERT
  2
_AH13
  8
1
 62
4
 10
-5.4585046E+002
 20
3.2305507E+001
 41
7.0
 42
7.0
 43
7.0
 50
1.8E+002
  0
INSERT
  2
_AH13
  8
1
 62
4
 10
-5.8985046E+002
 20
3.2305507E+001
 41
7.0
 42
7.0
 43
7.0
 50
0.0
  0
ENDBLK
  0
BLOCK
  2
*D1920
  3
*D
 10
0.0
 20
0.0
 70
65
  0
LINE
  8
1
  6
CONTINUOUS
 62
4
 10
-5.8385046E+002
 20
2.5497217E+002
 11
-5.8385046E+002
 21
2.7841177E+002
  0
LINE
  8
1
  6
CONTINUOUS
 62
4
 10
-5.9585046E+002
 20
2.5497217E+002
 11
-5.9585046E+002
 21
2.7841177E+002
  0
LINE
  8
1
  6
CONTINUOUS
 62
4
 10
-5.7185046E+002
 20
2.7641177E+002
 11
-5.9585046E+002
 21
2.7641177E+002
  0
LINE
  8
1
  6
CONTINUOUS
 62
4
 10
-5.9585046E+002
 20
2.7641177E+002
 11
-6.1416666E+002
 21
2.7641177E+002
  0
TEXT
  8
1
  6
CONTINUOUS
 62
4
 10
-6.1105866E+002
 20
2.7951977E+002
 40
9.3333333
  1
9
 41
6.6666667E-001
  0
INSERT
  2
_AH13
  8
1
 62
4
 10
-5.8385046E+002
 20
2.7641177E+002
 41
7.0
 42
7.0
 43
7.0
 50
0.0
  0
INSERT
  2
_AH13
  8
1
 62
4
 10
-5.9585046E+002
 20
2.7641177E+002
 41
7.0
 42
7.0
 43
7.0
 50
1.8E+002
  0
ENDBLK
  0
BLOCK
  2
*D1934
  3
*D
 10
0.0
 20
0.0
 70
65
  0
LINE
  8
1
  6
CONTINUOUS
 62
4
 10
-3.7776774E+002
 20
1.4897217E+002
 11
-3.7776774E+002
 21
1.3563879E+002
  0
LINE
  8
1
  6
CONTINUOUS
 62
4
 10
-3.6710111E+002
 20
1.4897217E+002
 11
-3.6710111E+002
 21
1.3563879E+002
  0
LINE
  8
1
  6
CONTINUOUS
 62
4
 10
-3.6710111E+002
 20
1.3763879E+002
 11
-3.8976774E+002
 21
1.3763879E+002
  0
LINE
  8
1
  6
CONTINUOUS
 62
4
 10
-3.3604434E+002
 20
1.3763879E+002
 11
-3.6710111E+002
 21
1.3763879E+002
  0
TEXT
  8
1
  6
CONTINUOUS
 62
4
 10
-3.4670745E+002
 20
1.411908E+002
 40
1.0666667E+001
  1
8
 41
6.6666667E-001
  0
INSERT
  2
_AH13
  8
1
 62
4
 10
-3.7776774E+002
 20
1.3763879E+002
 41
7.0
 42
7.0
 43
7.0
 50
1.8E+002
  0
INSERT
  2
_AH13
  8
1
 62
4
 10
-3.6710111E+002
 20
1.3763879E+002
 41
7.0
 42
7.0
 43
7.0
 50
0.0
  0
ENDBLK
  0
BLOCK
  2
*D1946
  3
*D
 10
0.0
 20
0.0
 70
65
  0
LINE
  8
1
  6
CONTINUOUS
 62
4
 10
-6.631838E+002
 20
1.4897217E+002
 11
-6.631838E+002
 21
1.2835897E+002
  0
LINE
  8
1
  6
CONTINUOUS
 62
4
 10
-6.9251713E+002
 20
1.4897217E+002
 11
-6.9251713E+002
 21
1.2835897E+002
  0
LINE
  8
1
  6
CONTINUOUS
 62
4
 10
-6.7975741E+002
 20
1.3035897E+002
 11
-6.631838E+002
 21
1.3035897E+002
  0
LINE
  8
1
  6
CONTINUOUS
 62
4
 10
-6.9251713E+002
 20
1.3035897E+002
 11
-6.7975741E+002
 21
1.3035897E+002
  0
TEXT
  8
1
  6
CONTINUOUS
 62
4
 10
-6.8686852E+002
 20
1.3391097E+002
 40
1.0666667E+001
  1
22
 41
6.6666667E-001
  0
INSERT
  2
_AH13
  8
1
 62
4
 10
-6.631838E+002
 20
1.3035897E+002
 41
7.0
 42
7.0
 43
7.0
 50
1.8E+002
  0
INSERT
  2
_AH13
  8
1
 62
4
 10
-6.9251713E+002
 20
1.3035897E+002
 41
7.0
 42
7.0
 43
7.0
 50
0.0
  0
ENDBLK
  0
BLOCK
  2
*D1955
  3
*D
 10
0.0
 20
0.0
 70
65
  0
LINE
  8
1
  6
CONTINUOUS
 62
4
 10
-4.0416774E+002
 20
6.4305507E+001
 11
-4.2513542E+002
 21
6.4305507E+001
  0
LINE
  8
1
  6
CONTINUOUS
 62
4
 10
-4.0416774E+002
 20
3.7763884E+002
 11
-4.2513542E+002
 21
3.7763884E+002
  0
LINE
  8
1
  6
CONTINUOUS
 62
4
 10
-4.2313542E+002
 20
6.4305507E+001
 11
-4.2313542E+002
 21
2.1782773E+002
  0
LINE
  8
1
  6
CONTINUOUS
 62
4
 10
-4.2313542E+002
 20
2.1782773E+002
 11
-4.2313542E+002
 21
3.7763884E+002
  0
TEXT
  8
1
  6
CONTINUOUS
 62
4
 10
-4.2668742E+002
 20
2.0716106E+002
 40
1.0666667E+001
  1
235
 41
6.6666667E-001
 50
9.0E+001
  0
INSERT
  2
_AH13
  8
1
 62
4
 10
-4.2313542E+002
 20
6.4305507E+001
 41
7.0
 42
7.0
 43
7.0
 50
9.0E+001
  0
INSERT
  2
_AH13
  8
1
 62
4
 10
-4.2313542E+002
 20
3.7763884E+002
 41
7.0
 42
7.0
 43
7.0
 50
-9.0E+001
  0
ENDBLK
  0
BLOCK
  2
*D1977
  3
*D
 10
0.0
 20
0.0
 70
65
  0
LINE
  8
1
  6
CONTINUOUS
 62
4
 10
2.4247039E+002
 20
4.8693804E+002
 11
2.5444096E+002
 21
4.8693804E+002
  0
LINE
  8
1
  6
CONTINUOUS
 62
4
 10
2.4852914E+002
 20
4.2393804E+002
 11
2.5444096E+002
 21
4.2393804E+002
  0
LINE
  8
1
  6
CONTINUOUS
 62
4
 10
2.5244096E+002
 20
4.8693804E+002
 11
2.5244096E+002
 21
4.5458204E+002
  0
LINE
  8
1
  6
CONTINUOUS
 62
4
 10
2.5244096E+002
 20
4.2393804E+002
 11
2.5244096E+002
 21
4.5458204E+002
  0
TEXT
  8
1
  6
CONTINUOUS
 62
4
 10
2.5022118E+002
 20
4.5014204E+002
 40
6.66
  1
63
 41
6.6666667E-001
 50
9.0E+001
  0
INSERT
  2
_AH13
  8
1
 62
4
 10
2.5244096E+002
 20
4.8693804E+002
 41
7.0
 42
7.0
 43
7.0
 50
2.7E+002
  0
INSERT
  2
_AH13
  8
1
 62
4
 10
2.5244096E+002
 20
4.2393804E+002
 41
7.0
 42
7.0
 43
7.0
 50
4.5E+002
  0
ENDBLK
  0
BLOCK
  2
*D1985
  3
*D
 10
0.0
 20
0.0
 70
65
  0
LINE
  8
1
  6
CONTINUOUS
 62
4
 10
2.5449429E+002
 20
4.2393804E+002
 11
2.6616096E+002
 21
4.2393804E+002
  0
LINE
  8
1
  6
CONTINUOUS
 62
4
 10
1.418621E+002
 20
5.0893804E+002
 11
2.6616096E+002
 21
5.0893804E+002
  0
LINE
  8
1
  6
CONTINUOUS
 62
4
 10
2.6416096E+002
 20
4.2393804E+002
 11
2.6416096E+002
 21
4.6558204E+002
  0
LINE
  8
1
  6
CONTINUOUS
 62
4
 10
2.6416096E+002
 20
5.0893804E+002
 11
2.6416096E+002
 21
4.6558204E+002
  0
TEXT
  8
1
  6
CONTINUOUS
 62
4
 10
2.6194118E+002
 20
4.6114204E+002
 40
6.66
  1
85
 41
6.6666667E-001
 50
9.0E+001
  0
INSERT
  2
_AH13
  8
1
 62
4
 10
2.6416096E+002
 20
4.2393804E+002
 41
7.0
 42
7.0
 43
7.0
 50
9.0E+001
  0
INSERT
  2
_AH13
  8
1
 62
4
 10
2.6416096E+002
 20
5.0893804E+002
 41
7.0
 42
7.0
 43
7.0
 50
2.7E+002
  0
ENDBLK
  0
BLOCK
  2
*D1994
  3
*D
 10
0.0
 20
0.0
 70
65
  0
LINE
  8
1
  6
CONTINUOUS
 62
4
 10
1.418621E+002
 20
5.2193804E+002
 11
1.441471E+002
 21
5.2193804E+002
  0
LINE
  8
1
  6
CONTINUOUS
 62
4
 10
1.574071E+002
 20
5.2193804E+002
 11
2.7786096E+002
 21
5.2193804E+002
  0
LINE
  8
1
  6
CONTINUOUS
 62
4
 10
2.628621E+002
 20
4.2393804E+002
 11
2.7786096E+002
 21
4.2393804E+002
  0
LINE
  8
1
  6
CONTINUOUS
 62
4
 10
2.7586096E+002
 20
5.2193804E+002
 11
2.7586096E+002
 21
4.7208204E+002
  0
LINE
  8
1
  6
CONTINUOUS
 62
4
 10
2.7586096E+002
 20
4.2393804E+002
 11
2.7586096E+002
 21
4.7208204E+002
  0
TEXT
  8
1
  6
CONTINUOUS
 62
4
 10
2.7364118E+002
 20
4.6764204E+002
 40
6.66
  1
98
 41
6.6666667E-001
 50
9.0E+001
  0
INSERT
  2
_AH13
  8
1
 62
4
 10
2.7586096E+002
 20
5.2193804E+002
 41
7.0
 42
7.0
 43
7.0
 50
2.7E+002
  0
INSERT
  2
_AH13
  8
1
 62
4
 10
2.7586096E+002
 20
4.2393804E+002
 41
7.0
 42
7.0
 43
7.0
 50
4.5E+002
  0
ENDBLK
  0
BLOCK
  2
*D2014
  3
*D
 10
0.0
 20
0.0
 70
65
  0
LINE
  8
1
  6
CONTINUOUS
 62
4
 10
9.8309587E+001
 20
3.8693804E+002
 11
9.9180958E+001
 21
3.8693804E+002
  0
LINE
  8
1
  6
CONTINUOUS
 62
4
 10
1.6098328E+002
 20
4.2393804E+002
 11
1.0318096E+002
 21
4.2393804E+002
  0
LINE
  8
1
  6
CONTINUOUS
 62
4
 10
1.0118096E+002
 20
3.8693804E+002
 11
1.0118096E+002
 21
4.0458204E+002
  0
LINE
  8
1
  6
CONTINUOUS
 62
4
 10
1.0118096E+002
 20
4.2393804E+002
 11
1.0118096E+002
 21
4.0458204E+002
  0
TEXT
  8
1
  6
CONTINUOUS
 62
4
 10
9.8961178E+001
 20
4.0014204E+002
 40
6.66
  1
37
 41
6.6666667E-001
 50
9.0E+001
  0
INSERT
  2
_AH13
  8
1
 62
4
 10
1.0118096E+002
 20
3.8693804E+002
 41
7.0
 42
7.0
 43
7.0
 50
9.0E+001
  0
INSERT
  2
_AH13
  8
1
 62
4
 10
1.0118096E+002
 20
4.2393804E+002
 41
7.0
 42
7.0
 43
7.0
 50
2.7E+002
  0
ENDBLK
  0
BLOCK
  2
*D2022
  3
*D
 10
0.0
 20
0.0
 70
65
  0
LINE
  8
1
  6
CONTINUOUS
 62
4
 10
1.968621E+002
 20
4.0043804E+002
 11
1.968621E+002
 21
3.8665921E+002
  0
LINE
  8
1
  6
CONTINUOUS
 62
4
 10
1.868621E+002
 20
4.0043804E+002
 11
1.868621E+002
 21
3.8665921E+002
  0
LINE
  8
1
  6
CONTINUOUS
 62
4
 10
2.088621E+002
 20
3.8865921E+002
 11
1.968621E+002
 21
3.8865921E+002
  0
LINE
  8
1
  6
CONTINUOUS
 62
4
 10
1.868621E+002
 20
3.8865921E+002
 11
1.6700979E+002
 21
3.8865921E+002
  0
TEXT
  8
1
  6
CONTINUOUS
 62
4
 10
1.7000979E+002
 20
3.9087899E+002
 40
6.66
  1
10
 41
6.6666667E-001
 50
3.6E+002
  0
INSERT
  2
_AH13
  8
1
 62
4
 10
1.968621E+002
 20
3.8865921E+002
 41
7.0
 42
7.0
 43
7.0
 50
3.6E+002
  0
INSERT
  2
_AH13
  8
1
 62
4
 10
1.868621E+002
 20
3.8865921E+002
 41
7.0
 42
7.0
 43
7.0
 50
5.4E+002
  0
ENDBLK
  0
BLOCK
  2
*D2046
  3
*D
 10
0.0
 20
0.0
 70
65
  0
LINE
  8
1
  6
CONTINUOUS
 62
4
 10
1.3213348E+002
 20
2.9993804E+002
 11
8.7246168E+001
 21
2.9993804E+002
  0
LINE
  8
1
  6
CONTINUOUS
 62
4
 10
1.348621E+002
 20
5.0893804E+002
 11
1.2765372E+002
 21
5.0893804E+002
  0
LINE
  8
1
  6
CONTINUOUS
 62
4
 10
9.2232138E+001
 20
5.0893804E+002
 11
8.7246168E+001
 21
5.0893804E+002
  0
LINE
  8
1
  6
CONTINUOUS
 62
4
 10
8.9246168E+001
 20
2.9993804E+002
 11
8.9246168E+001
 21
3.8911356E+002
  0
LINE
  8
1
  6
CONTINUOUS
 62
4
 10
8.9246168E+001
 20
5.0893804E+002
 11
8.9246168E+001
 21
3.8911356E+002
  0
TEXT
  8
1
  6
CONTINUOUS
 62
4
 10
8.7026388E+001
 20
3.8245356E+002
 40
6.66
  1
209
 41
6.6666667E-001
 50
9.0E+001
  0
INSERT
  2
_AH13
  8
1
 62
4
 10
8.9246168E+001
 20
2.9993804E+002
 41
7.0
 42
7.0
 43
7.0
 50
9.0E+001
  0
INSERT
  2
_AH13
  8
1
 62
4
 10
8.9246168E+001
 20
5.0893804E+002
 41
7.0
 42
7.0
 43
7.0
 50
2.7E+002
  0
ENDBLK
  0
BLOCK
  2
*D2065
  3
*D
 10
0.0
 20
0.0
 70
65
  0
LINE
  8
1
  6
CONTINUOUS
 62
4
 10
2.004621E+002
 20
3.5393859E+002
 11
2.004621E+002
 21
3.710823E+002
  0
LINE
  8
1
  6
CONTINUOUS
 62
4
 10
1.832621E+002
 20
3.5393748E+002
 11
1.832621E+002
 21
3.710823E+002
  0
LINE
  8
1
  6
CONTINUOUS
 62
4
 10
2.124621E+002
 20
3.690823E+002
 11
2.004621E+002
 21
3.690823E+002
  0
LINE
  8
1
  6
CONTINUOUS
 62
4
 10
1.712621E+002
 20
3.690823E+002
 11
2.004621E+002
 21
3.690823E+002
  0
TEXT
  8
1
  6
CONTINUOUS
 62
4
 10
1.829821E+002
 20
3.7130208E+002
 40
6.66
  1
17,2
 41
6.6666667E-001
 50
3.6E+002
  0
INSERT
  2
_AH13
  8
1
 62
4
 10
2.004621E+002
 20
3.690823E+002
 41
7.0
 42
7.0
 43
7.0
 50
3.6E+002
  0
INSERT
  2
_AH13
  8
1
 62
4
 10
1.832621E+002
 20
3.690823E+002
 41
7.0
 42
7.0
 43
7.0
 50
5.4E+002
  0
ENDBLK
  0
BLOCK
  2
*D2074
  3
*D
 10
0.0
 20
0.0
 70
65
  0
LINE
  8
1
  6
CONTINUOUS
 62
4
 10
1.938621E+002
 20
3.2683804E+002
 11
2.4138096E+002
 21
3.2683804E+002
  0
LINE
  8
1
  6
CONTINUOUS
 62
4
 10
1.938621E+002
 20
3.6053804E+002
 11
2.4138096E+002
 21
3.6053804E+002
  0
LINE
  8
1
  6
CONTINUOUS
 62
4
 10
2.3938096E+002
 20
3.2683804E+002
 11
2.3938096E+002
 21
3.4368804E+002
  0
LINE
  8
1
  6
CONTINUOUS
 62
4
 10
2.3938096E+002
 20
3.6053804E+002
 11
2.3938096E+002
 21
3.4368804E+002
  0
TEXT
  8
1
  6
CONTINUOUS
 62
4
 10
2.3716118E+002
 20
3.3480804E+002
 40
6.66
  1
33,7
 41
6.6666667E-001
 50
9.0E+001
  0
INSERT
  2
_AH13
  8
1
 62
4
 10
2.3938096E+002
 20
3.2683804E+002
 41
7.0
 42
7.0
 43
7.0
 50
9.0E+001
  0
INSERT
  2
_AH13
  8
1
 62
4
 10
2.3938096E+002
 20
3.6053804E+002
 41
7.0
 42
7.0
 43
7.0
 50
2.7E+002
  0
ENDBLK
  0
BLOCK
  2
*D2083
  3
*D
 10
0.0
 20
0.0
 70
65
  0
LINE
  8
1
  6
CONTINUOUS
 62
4
 10
1.969621E+002
 20
3.3022204E+002
 11
1.969621E+002
 21
3.0572921E+002
  0
LINE
  8
1
  6
CONTINUOUS
 62
4
 10
1.867621E+002
 20
3.2979198E+002
 11
1.867621E+002
 21
3.0572921E+002
  0
LINE
  8
1
  6
CONTINUOUS
 62
4
 10
1.969621E+002
 20
3.0772921E+002
 11
2.2471669E+002
 21
3.0772921E+002
  0
LINE
  8
1
  6
CONTINUOUS
 62
4
 10
1.747621E+002
 20
3.0772921E+002
 11
1.867621E+002
 21
3.0772921E+002
  0
TEXT
  8
1
  6
CONTINUOUS
 62
4
 10
2.0395669E+002
 20
3.0994899E+002
 40
6.66
  1
10,2
 41
6.6666667E-001
 50
3.6E+002
  0
INSERT
  2
_AH13
  8
1
 62
4
 10
1.969621E+002
 20
3.0772921E+002
 41
7.0
 42
7.0
 43
7.0
 50
3.6E+002
  0
INSERT
  2
_AH13
  8
1
 62
4
 10
1.867621E+002
 20
3.0772921E+002
 41
7.0
 42
7.0
 43
7.0
 50
5.4E+002
  0
ENDBLK
  0
BLOCK
  2
*D2100
  3
*D
 10
0.0
 20
0.0
 70
65
  0
LINE
  8
1
  6
CONTINUOUS
 62
4
 10
1.364741E+002
 20
3.2843785E+002
 11
1.2683103E+002
 21
3.2843785E+002
  0
LINE
  8
1
  6
CONTINUOUS
 62
4
 10
1.1268934E+002
 20
3.2843785E+002
 11
1.0893501E+002
 21
3.2843785E+002
  0
LINE
  8
1
  6
CONTINUOUS
 62
4
 10
1.3636216E+002
 20
3.3743823E+002
 11
1.265236E+002
 21
3.3743823E+002
  0
LINE
  8
1
  6
CONTINUOUS
 62
4
 10
1.127662E+002
 20
3.3743823E+002
 11
1.0893501E+002
 21
3.3743823E+002
  0
LINE
  8
1
  6
CONTINUOUS
 62
4
 10
1.1093501E+002
 20
3.1643785E+002
 11
1.1093501E+002
 21
3.2843785E+002
  0
LINE
  8
1
  6
CONTINUOUS
 62
4
 10
1.1093501E+002
 20
3.4943823E+002
 11
1.1093501E+002
 21
3.2843785E+002
  0
TEXT
  8
1
  6
CONTINUOUS
 62
4
 10
1.0871523E+002
 20
3.2849804E+002
 40
6.66
  1
%%c9
 41
6.6666667E-001
 50
9.0E+001
  0
INSERT
  2
_AH13
  8
1
 62
4
 10
1.1093501E+002
 20
3.2843785E+002
 41
7.0
 42
7.0
 43
7.0
 50
2.7E+002
  0
INSERT
  2
_AH13
  8
1
 62
4
 10
1.1093501E+002
 20
3.3743823E+002
 41
7.0
 42
7.0
 43
7.0
 50
4.5E+002
  0
ENDBLK
  0
BLOCK
  2
*D2112
  3
*D
 10
0.0
 20
0.0
 70
65
  0
LINE
  8
1
  6
CONTINUOUS
 62
4
 10
1.3626965E+002
 20
3.3803068E+002
 11
1.2696127E+002
 21
3.4733907E+002
  0
LINE
  8
1
  6
CONTINUOUS
 62
4
 10
1.362391E+002
 20
3.2781485E+002
 11
1.2696127E+002
 21
3.1853702E+002
  0
ARC
  8
1
  6
CONTINUOUS
 62
4
 10
1.4136229E+002
 20
3.3293804E+002
 40
1.8366123E+001
 50
1.35E+002
 51
1.8E+002
  0
ARC
  8
1
  6
CONTINUOUS
 62
4
 10
1.4136229E+002
 20
3.3293804E+002
 40
1.8366123E+001
 50
1.8E+002
 51
2.25E+002
  0
TEXT
  8
1
  6
CONTINUOUS
 62
4
 10
1.2077839E+002
 20
3.2627804E+002
 40
6.66
  1
90%%d
 41
6.6666667E-001
 50
8.9999999E+001
  0
INSERT
  2
_AH13
  8
1
 62
4
 10
1.2837548E+002
 20
3.4592485E+002
 41
7.0
 42
7.0
 43
7.0
 50
2.3598595E+002
  0
INSERT
  2
_AH13
  8
1
 62
4
 10
1.2837548E+002
 20
3.1995123E+002
 41
7.0
 42
7.0
 43
7.0
 50
1.2401405E+002
  0
ENDBLK
  0
BLOCK
  2
*D2143
  3
*D
 10
0.0
 20
0.0
 70
65
  0
LINE
  8
1
  6
CONTINUOUS
 62
4
 10
1.418621E+002
 20
5.0593804E+002
 11
1.5471477E+002
 21
5.0593804E+002
  0
LINE
  8
1
  6
CONTINUOUS
 62
4
 10
1.418621E+002
 20
5.1193804E+002
 11
1.5471477E+002
 21
5.1193804E+002
  0
LINE
  8
1
  6
CONTINUOUS
 62
4
 10
1.5271477E+002
 20
4.9393804E+002
 11
1.5271477E+002
 21
5.0593804E+002
  0
LINE
  8
1
  6
CONTINUOUS
 62
4
 10
1.5271477E+002
 20
5.1193804E+002
 11
1.5271477E+002
 21
5.3360608E+002
  0
TEXT
  8
1
  6
CONTINUOUS
 62
4
 10
1.5049499E+002
 20
5.2172608E+002
 40
6.66
  1
%%c6
 41
6.6666667E-001
 50
9.0E+001
  0
INSERT
  2
_AH13
  8
1
 62
4
 10
1.5271477E+002
 20
5.0593804E+002
 41
7.0
 42
7.0
 43
7.0
 50
2.7E+002
  0
INSERT
  2
_AH13
  8
1
 62
4
 10
1.5271477E+002
 20
5.1193804E+002
 41
7.0
 42
7.0
 43
7.0
 50
4.5E+002
  0
ENDBLK
  0
BLOCK
  2
*D2164
  3
*D
 10
0.0
 20
0.0
 70
65
  0
LINE
  8
1
  6
CONTINUOUS
 62
4
 10
1.348621E+002
 20
5.0393804E+002
 11
1.2699163E+002
 21
5.0393804E+002
  0
LINE
  8
1
  6
CONTINUOUS
 62
4
 10
1.1060501E+002
 20
5.0393804E+002
 11
1.0642656E+002
 21
5.0393804E+002
  0
LINE
  8
1
  6
CONTINUOUS
 62
4
 10
1.348621E+002
 20
5.1393804E+002
 11
1.2649507E+002
 21
5.1393804E+002
  0
LINE
  8
1
  6
CONTINUOUS
 62
4
 10
1.1060501E+002
 20
5.1393804E+002
 11
1.0642656E+002
 21
5.1393804E+002
  0
LINE
  8
1
  6
CONTINUOUS
 62
4
 10
1.0842656E+002
 20
4.9193804E+002
 11
1.0842656E+002
 21
5.0393804E+002
  0
LINE
  8
1
  6
CONTINUOUS
 62
4
 10
1.0842656E+002
 20
5.2593804E+002
 11
1.0842656E+002
 21
5.0393804E+002
  0
TEXT
  8
1
  6
CONTINUOUS
 62
4
 10
1.0620678E+002
 20
5.0227804E+002
 40
6.66
  1
%%c10
 41
6.6666667E-001
 50
9.0E+001
  0
INSERT
  2
_AH13
  8
1
 62
4
 10
1.0842656E+002
 20
5.0393804E+002
 41
7.0
 42
7.0
 43
7.0
 50
2.7E+002
  0
INSERT
  2
_AH13
  8
1
 62
4
 10
1.0842656E+002
 20
5.1393804E+002
 41
7.0
 42
7.0
 43
7.0
 50
4.5E+002
  0
ENDBLK
  0
ENDSEC
  0
SECTION
  2
ENTITIES
  0
TEXT
  8
1
  6
CONTINUOUS
 62
1
 10
1.9248772E+001
 20
9.7564516
 40
4.9896002
  1
Techn. Änderungen vorbehalten !
 41
6.6774196E-001
 50
9.0E+001
 11
1.9248772E+001
 21
1.2251252E+001
 73
2
  0
TEXT
  8
1
  6
CONTINUOUS
 62
1
 10
2.6039139E+001
 20
1.0462625E+001
 40
3.5640001
  1
Es gelten unsere Überlassungs- und Nutzungsbedingungen
 41
6.7083333E-001
 50
9.0E+001
 11
2.6039139E+001
 21
1.2244625E+001
 73
2
  0
TEXT
  8
1
  6
CONTINUOUS
 62
1
 10
3.2049359E+001
 20
9.9477102
 40
3.5640001
  1
für DORMA - Dokumente.
 41
6.6477273E-001
 50
9.0E+001
 11
3.2049359E+001
 21
1.172971E+001
 73
2
  0
LINE
  8
1
  6
CONTINUOUS
 62
40
 10
4.1858851E+001
 20
1.2274801E+001
 11
4.1858851E+001
 21
5.805348E+002
  0
LINE
  8
1
  6
CONTINUOUS
 62
40
 10
4.1858851E+001
 20
5.805348E+002
 11
4.0815885E+002
 21
5.805348E+002
  0
LINE
  8
1
  6
CONTINUOUS
 62
40
 10
4.0815885E+002
 20
5.805348E+002
 11
4.0815885E+002
 21
1.2274801E+001
  0
DIMENSION
  8
1
  6
CONTINUOUS
 62
4
  2
*D48
  3
DSTYLE1
 10
7.775203E+001
 20
5.2193804E+002
 11
7.220225E+001
 21
4.0635476E+002
 70
128
 13
1.368621E+002
 23
2.8693804E+002
 14
1.368621E+002
 24
5.2193804E+002
 40
3.0
 50
9.0E+001
1001
ACAD
1000
DSTYLE
1002
{
1070
173
1070
0
1070
5
1000
_AH13
1002
}
  0
LINE
  8
1
  6
CONTINUOUS
 62
4
 10
2.4894533E+002
 20
2.1219867E+002
 11
2.4894533E+002
 21
1.9668531E+002
  0
DIMENSION
  8
1
  6
CONTINUOUS
 62
4
  2
*D74
  3
DSTYLE1
 10
3.4942411E+002
 20
3.4193921E+002
 11
3.6737729E+002
 21
3.4748899E+002
 70
128
 13
3.4142414E+002
 23
3.5193804E+002
 14
3.4942411E+002
 24
3.5193804E+002
 40
3.0
 50
0.0
1001
ACAD
1000
DSTYLE
1002
{
1070
173
1070
0
1070
5
1000
_AH13
1002
}
  0
DIMENSION
  8
1
  6
CONTINUOUS
 62
4
  2
*D89
  3
DSTYLE1
 10
1.873621E+002
 20
4.3801921E+002
 11
1.918621E+002
 21
4.4356899E+002
 70
128
 13
1.963621E+002
 23
4.2722706E+002
 14
1.873621E+002
 24
4.2691445E+002
 40
3.0
 50
0.0
1001
ACAD
1000
DSTYLE
1002
{
1070
173
1070
0
1070
5
1000
_AH13
1002
}
  0
DIMENSION
  8
1
  6
CONTINUOUS
 62
4
  2
*D100
  3
DSTYLE1
 10
1.918621E+002
 20
2.6293921E+002
 11
2.0839979E+002
 21
2.6848899E+002
 70
128
 13
2.248621E+002
 23
3.2693804E+002
 14
1.918621E+002
 24
2.6293804E+002
 40
3.0
 50
0.0
1001
ACAD
1000
DSTYLE
1002
{
1070
173
1070
0
1070
5
1000
_AH13
1002
}
  0
DIMENSION
  8
1
  6
CONTINUOUS
 62
4
  2
*D115
  3
DSTYLE1
 10
1.728621E+002
 20
2.9493505E+002
 11
1.9194012E+002
 21
3.0048483E+002
 70
128
 13
2.108621E+002
 23
3.3680927E+002
 14
1.728621E+002
 24
3.3652256E+002
 40
3.0
 50
0.0
1001
ACAD
1000
DSTYLE
1002
{
1070
173
1070
0
1070
5
1000
_AH13
1002
}
  0
DIMENSION
  8
1
  6
CONTINUOUS
 62
4
  2
*D131
  3
DSTYLE1
 10
1.0116096E+002
 20
3.8693804E+002
 11
9.5611178E+001
 21
3.6948204E+002
 70
128
 13
1.148621E+002
 23
3.5193804E+002
 14
1.148621E+002
 24
3.8693804E+002
 40
3.0
 50
9.0E+001
1001
ACAD
1000
DSTYLE
1002
{
1070
173
1070
0
1070
5
1000
_AH13
1002
}
  0
DIMENSION
  8
1
  6
CONTINUOUS
 62
4
  2
*D160
  3
DSTYLE1
 10
1.368621E+002
 20
2.7456921E+002
 11
1.2320432E+002
 21
2.8011899E+002
 70
128
 13
1.398621E+002
 23
2.8693804E+002
 14
1.368621E+002
 24
2.8693804E+002
 40
3.0
 50
0.0
1001
ACAD
1000
DSTYLE
1002
{
1070
173
1070
0
1070
5
1000
_AH13
1002
}
  0
DIMENSION
  8
1
  6
CONTINUOUS
 62
4
  2
*D171
  3
DSTYLE1
 10
2.8706096E+002
 20
4.8693804E+002
 11
2.8151118E+002
 21
4.0859454E+002
 70
128
 13
2.198621E+002
 23
3.2193804E+002
 14
2.1996182E+002
 24
4.8693804E+002
 40
3.0
 50
9.0E+001
1001
ACAD
1000
DSTYLE
1002
{
1070
173
1070
0
1070
5
1000
_AH13
1002
}
  0
DIMENSION
  8
1
  6
CONTINUOUS
 62
4
  2
*D190
  3
DSTYLE1
 10
2.6396096E+002
 20
4.2393804E+002
 11
2.5841118E+002
 21
3.8798204E+002
 70
128
 13
2.0136365E+002
 23
3.5193804E+002
 14
2.3417903E+002
 24
4.2393804E+002
 40
3.0
 50
9.0E+001
1001
ACAD
1000
DSTYLE
1002
{
1070
173
1070
0
1070
5
1000
_AH13
1002
}
  0
DIMENSION
  8
1
  6
CONTINUOUS
 62
4
  2
*D200
  3
DSTYLE1
 10
2.4126096E+002
 20
4.6993804E+002
 11
2.3571118E+002
 21
4.4698204E+002
 70
128
 13
2.1745995E+002
 23
4.2393804E+002
 14
2.0055967E+002
 24
4.6993804E+002
 40
3.0
 50
9.0E+001
1001
ACAD
1000
DSTYLE
1002
{
1070
173
1070
0
1070
5
1000
_AH13
1002
}
  0
DIMENSION
  8
1
  6
CONTINUOUS
 62
4
  2
*D201
  3
DSTYLE2
 10
2.4126096E+002
 20
4.2393804E+002
 11
2.3571118E+002
 21
4.1318804E+002
 70
128
 13
2.0055967E+002
 23
4.0243804E+002
 14
2.1745995E+002
 24
4.2393804E+002
 40
3.0
 50
9.0E+001
1001
ACAD
1000
DSTYLE
1002
{
1070
173
1070
0
1070
5
1000
_AH13
1002
}
  0
DIMENSION
  8
1
  6
CONTINUOUS
 62
4
  1
(<>)
  2
*D218
  3
DSTYLE2
 10
3.3512414E+002
 20
3.9721601E+002
 11
3.1942463E+002
 21
4.0276579E+002
 70
128
 13
3.4142414E+002
 23
3.8548125E+002
 14
3.3512414E+002
 24
3.8938189E+002
 40
3.0
 50
0.0
1001
ACAD
1000
DSTYLE
1002
{
1070
173
1070
0
1070
5
1000
_AH13
1002
}
  0
DIMENSION
  8
1
  6
CONTINUOUS
 62
4
  2
*D224
  3
DSTYLE3
 10
1.368621E+002
 20
3.9753051E+002
 11
1.2624657E+002
 21
4.0386251E+002
 70
128
 13
1.148621E+002
 23
3.8693804E+002
 14
1.368621E+002
 24
2.8693804E+002
 40
1.0E+001
 50
0.0
1001
ACAD
1000
DSTYLE
1002
{
1070
173
1070
0
1070
5
1000
_AH13
1002
}
  0
DIMENSION
  8
1
  6
CONTINUOUS
 62
4
  2
*D225
  3
DSTYLE3
 10
1.368621E+002
 20
4.7736002E+002
 11
1.308621E+002
 21
4.8369202E+002
 70
128
 13
1.248621E+002
 23
4.6893804E+002
 14
1.368621E+002
 24
2.8693804E+002
 40
1.0E+001
 50
0.0
1001
ACAD
1000
DSTYLE
1002
{
1070
173
1070
0
1070
5
1000
_AH13
1002
}
  0
DIMENSION
  8
1
  6
CONTINUOUS
 62
4
  2
*D227
  3
DSTYLE4
 10
1.2730115E+002
 20
5.2349899E+002
 11
1.179398E+002
 21
5.0893804E+002
 70
130
 13
1.2730115E+002
 23
4.9437709E+002
 14
1.368621E+002
 24
5.0393804E+002
 15
1.368621E+002
 25
5.1393804E+002
 16
1.242698E+002
 26
5.0893804E+002
1001
ACAD
1000
DSTYLE
1002
{
1070
173
1070
0
1070
5
1000
_AH13
1002
}
  0
LINE
  8
1
  6
CONTINUOUS
 62
40
 10
1.398621E+002
 20
4.9937094E+002
 11
1.398621E+002
 21
2.8693804E+002
  0
DIMENSION
  8
1
  6
CONTINUOUS
 62
4
  2
*D229
  3
DSTYLE1
 10
3.5512414E+002
 20
4.2301921E+002
 11
3.6808979E+002
 21
4.2856899E+002
 70
128
 13
3.4112414E+002
 23
4.3693804E+002
 14
3.5512414E+002
 24
4.3893804E+002
 40
3.0
 50
0.0
1001
ACAD
1000
DSTYLE
1002
{
1070
173
1070
0
1070
5
1000
_AH13
1002
}
  0
LINE
  8
1
  6
CONTINUOUS
 62
40
 10
1.398621E+002
 20
5.0588021E+002
 11
1.398621E+002
 21
4.9937094E+002
  0
LINE
  8
1
  6
CONTINUOUS
 62
40
 10
1.368621E+002
 20
4.960669E+002
 11
1.368621E+002
 21
5.0385473E+002
  0
LINE
  8
1
  6
CONTINUOUS
 62
40
 10
1.368621E+002
 20
5.0385473E+002
 11
1.368621E+002
 21
5.2193804E+002
  0
INSERT
  2
*XH41
  8
1
 10
1.383621E+002
 20
4.9898111E+002
  0
DIMENSION
  8
1
  6
CONTINUOUS
 62
4
  2
*D237
  3
DSTYLE3
 10
1.1408851E+002
 20
4.3693804E+002
 11
1.0775651E+002
 21
4.5324309E+002
 70
128
 13
1.248621E+002
 23
4.6893804E+002
 14
1.248621E+002
 24
4.3693804E+002
 40
1.0E+001
 50
9.0E+001
1001
ACAD
1000
DSTYLE
1002
{
1070
173
1070
0
1070
5
1000
_AH13
1002
}
  0
DIMENSION
  8
1
  6
CONTINUOUS
 62
4
  2
*D238
  3
DSTYLE3
 10
1.0101523E+002
 20
4.6893804E+002
 11
9.4683233E+001
 21
4.4343813E+002
 70
128
 13
1.5898328E+002
 23
4.2393804E+002
 14
1.248621E+002
 24
4.6893804E+002
 40
1.0E+001
 50
9.0E+001
1001
ACAD
1000
DSTYLE
1002
{
1070
173
1070
0
1070
5
1000
_AH13
1002
}
  0
DIMENSION
  8
1
  6
CONTINUOUS
 62
4
  2
*D239
  3
DSTYLE5
 10
1.6080908E+002
 20
3.4043804E+002
 11
1.5480708E+002
 21
3.589763E+002
 70
129
 13
1.728621E+002
 23
3.4743804E+002
 14
1.728621E+002
 24
3.4043804E+002
 40
1.0E+001
1001
ACAD
1000
DSTYLE
1002
{
1070
173
1070
0
1070
5
1000
_AH13
1002
}
  0
DIMENSION
  8
1
  6
CONTINUOUS
 62
4
  1
(<>)
  2
*D240
  3
DSTYLE1
 10
3.3512414E+002
 20
4.7981365E+002
 11
3.2350711E+002
 21
4.8536343E+002
 70
128
 13
3.4112414E+002
 23
4.6893804E+002
 14
3.3512414E+002
 24
4.7149365E+002
 40
3.0
 50
0.0
1001
ACAD
1000
DSTYLE
1002
{
1070
173
1070
0
1070
5
1000
_AH13
1002
}
  0
DIMENSION
  8
1
  6
CONTINUOUS
 62
4
  2
*D241
  3
DSTYLE6
 10
1.918621E+002
 20
2.6296121E+002
 11
1.8249214E+002
 21
2.6946321E+002
 70
128
 13
1.368621E+002
 23
2.8693804E+002
 14
1.918621E+002
 24
3.2002357E+002
 40
1.0E+001
 50
0.0
1001
ACAD
1000
DSTYLE
1002
{
1070
173
1070
0
1070
5
1000
_AH13
1002
}
  0
DIMENSION
  8
1
  6
CONTINUOUS
 62
4
  2
*D244
  3
DSTYLE5
 10
1.6169199E+002
 20
4.2043804E+002
 11
1.5568999E+002
 21
4.1047055E+002
 70
128
 13
1.728621E+002
 23
4.2743804E+002
 14
1.728621E+002
 24
4.2043804E+002
 40
1.0E+001
 50
9.0E+001
1001
ACAD
1000
DSTYLE
1002
{
1070
173
1070
0
1070
5
1000
_AH13
1002
}
  0
DIMENSION
  8
1
  6
CONTINUOUS
 62
4
  2
*D245
  3
DSTYLE3
 10
2.108621E+002
 20
4.493E+002
 11
1.9204878E+002
 21
4.55632E+002
 70
128
 13
1.728621E+002
 23
4.3197557E+002
 14
2.108621E+002
 24
4.3197557E+002
 40
1.0E+001
 50
0.0
1001
ACAD
1000
DSTYLE
1002
{
1070
173
1070
0
1070
5
1000
_AH13
1002
}
  0
DIMENSION
  8
1
  6
CONTINUOUS
 62
4
  2
*D246
  3
DSTYLE3
 10
1.968621E+002
 20
4.950776E+002
 11
2.0867472E+002
 21
5.014096E+002
 70
128
 13
1.868621E+002
 23
4.6993804E+002
 14
1.968621E+002
 24
4.6993804E+002
 40
1.0E+001
 50
0.0
1001
ACAD
1000
DSTYLE
1002
{
1070
173
1070
0
1070
5
1000
_AH13
1002
}
  0
LINE
  8
1
  6
CONTINUOUS
 62
4
 10
1.8684851E+002
 20
4.9507794E+002
 11
1.9686256E+002
 21
4.9507794E+002
  0
DIMENSION
  8
1
  6
CONTINUOUS
 62
4
  2
*D256
  3
DSTYLE1
 10
3.3512414E+002
 20
3.196253E+002
 11
3.2353465E+002
 21
3.2517508E+002
 70
128
 13
3.4612414E+002
 23
3.2436205E+002
 14
3.3512414E+002
 24
3.2274047E+002
 40
3.0
 50
0.0
1001
ACAD
1000
DSTYLE
1002
{
1070
173
1070
0
1070
5
1000
_AH13
1002
}
  0
CIRCLE
  8
1
  6
CONTINUOUS
 62
40
 10
1.918621E+002
 20
4.2393804E+002
 40
3.0
  0
DIMENSION
  8
1
  6
CONTINUOUS
 62
4
  2
*D261
  3
DSTYLE3
 10
2.5353018E+002
 20
3.4393804E+002
 11
2.4719818E+002
 21
3.3215986E+002
 70
128
 13
2.0314679E+002
 23
3.5193804E+002
 14
2.1955967E+002
 24
3.4393804E+002
 40
1.0E+001
 50
9.0E+001
1001
ACAD
1000
DSTYLE
1002
{
1070
173
1070
0
1070
5
1000
_AH13
1002
}
  0
LINE
  8
1
  6
CONTINUOUS
 62
4
 10
3.4612414E+002
 20
3.1959824E+002
 11
3.3512414E+002
 21
3.1959824E+002
  0
DIMENSION
  8
1
  6
CONTINUOUS
 62
4
  1
20
  2
*D263
  3
DSTYLE3
 10
3.5912414E+002
 20
2.7039971E+002
 11
3.4762933E+002
 21
2.7673171E+002
 70
128
 13
3.3512414E+002
 23
2.8693804E+002
 14
3.5912414E+002
 24
2.8693804E+002
 40
1.0E+001
 50
0.0
1001
ACAD
1000
DSTYLE
1002
{
1070
173
1070
0
1070
5
1000
_AH13
1002
}
  0
DIMENSION
  8
1
  6
CONTINUOUS
 62
4
  1
(24)
  2
*D264
  3
DSTYLE6
 10
3.5912414E+002
 20
2.5288466E+002
 11
3.4734139E+002
 21
2.5938666E+002
 70
128
 13
3.3512414E+002
 23
2.8693804E+002
 14
3.5912414E+002
 24
2.8693804E+002
 40
1.0E+001
 50
0.0
1001
ACAD
1000
DSTYLE
1002
{
1070
173
1070
0
1070
5
1000
_AH13
1002
}
  0
DIMENSION
  8
1
  6
CONTINUOUS
 62
4
  2
*D265
  3
DSTYLE1
 10
2.3717096E+002
 20
2.1143675E+002
 11
2.3162118E+002
 21
2.2369204E+002
 70
128
 13
2.248621E+002
 23
1.9743675E+002
 14
2.248621E+002
 24
2.1143675E+002
 40
3.0
 50
9.0E+001
1001
ACAD
1000
DSTYLE
1002
{
1070
173
1070
0
1070
5
1000
_AH13
1002
}
  0
LINE
  8
1
  6
CONTINUOUS
 62
4
 10
2.3718293E+002
 20
2.113713E+002
 11
2.3718293E+002
 21
1.9743067E+002
  0
LINE
  8
1
  6
CONTINUOUS
 62
4
 10
1.3684861E+002
 20
2.7455967E+002
 11
1.3982638E+002
 21
2.7455967E+002
  0
LINE
  8
1
  6
CONTINUOUS
 62
4
 10
1.8676289E+002
 20
3.0772849E+002
 11
1.9696298E+002
 21
3.0772849E+002
  0
LINE
  8
1
  6
CONTINUOUS
 62
4
 10
1.8687712E+002
 20
3.8865895E+002
 11
1.9686315E+002
 21
3.8865895E+002
  0
LINE
  8
1
  6
CONTINUOUS
 62
4
 10
1.5271525E+002
 20
5.1192781E+002
 11
1.5271525E+002
 21
5.0591193E+002
  0
LINE
  8
1
  6
CONTINUOUS
 62
4
 10
1.6167968E+002
 20
2.1543708E+002
 11
1.6167968E+002
 21
2.1218581E+002
  0
LINE
  8
1
  6
CONTINUOUS
 62
4
 10
3.4143855E+002
 20
3.4192132E+002
 11
3.4940486E+002
 21
3.4192132E+002
  0
LINE
  8
1
  6
CONTINUOUS
 62
4
 10
3.414226E+002
 20
3.9721519E+002
 11
3.3512414E+002
 21
3.9721519E+002
  0
LINE
  8
1
  6
CONTINUOUS
 62
4
 10
3.4109887E+002
 20
4.2302049E+002
 11
3.5513627E+002
 21
4.2302049E+002
  0
LINE
  8
1
  6
CONTINUOUS
 62
4
 10
3.4112928E+002
 20
4.7981331E+002
 11
3.3512414E+002
 21
4.7981331E+002
  0
DIMENSION
  8
1
  6
CONTINUOUS
 62
4
  2
*D276
  3
DSTYLE2
 10
2.4894475E+002
 20
2.1218675E+002
 11
2.4339497E+002
 21
2.2890293E+002
 70
128
 13
2.028621E+002
 23
1.9668675E+002
 14
2.028621E+002
 24
2.1218675E+002
 40
3.0
 50
9.0E+001
1001
ACAD
1000
DSTYLE
1002
{
1070
173
1070
0
1070
5
1000
_AH13
1002
}
  0
DIMENSION
  8
1
  6
CONTINUOUS
 62
4
  1
(<>)
  2
*D289
  3
DSTYLE1
 10
1.6167976E+002
 20
2.1543675E+002
 11
1.5612998E+002
 21
2.3339449E+002
 70
128
 13
1.808621E+002
 23
2.1218675E+002
 14
1.398621E+002
 24
2.1543675E+002
 40
3.0
 50
9.0E+001
1001
ACAD
1000
DSTYLE
1002
{
1070
173
1070
0
1070
5
1000
_AH13
1002
}
  0
LINE
  8
1
  6
CONTINUOUS
 62
4
 10
1.8510912E+002
 20
4.4312442E+002
 11
1.8510912E+002
 21
4.4474442E+002
  0
LINE
  8
1
  6
CONTINUOUS
 62
4
 10
1.8510912E+002
 20
4.4474442E+002
 11
1.8510912E+002
 21
4.4555442E+002
  0
LINE
  8
1
  6
CONTINUOUS
 62
4
 10
1.8510912E+002
 20
4.4555442E+002
 11
1.8510912E+002
 21
4.4636442E+002
  0
LINE
  8
1
  6
CONTINUOUS
 62
4
 10
1.8510912E+002
 20
4.4636442E+002
 11
1.8834912E+002
 21
4.4636442E+002
  0
LINE
  8
1
  6
CONTINUOUS
 62
4
 10
1.8834912E+002
 20
4.4636442E+002
 11
1.8834912E+002
 21
4.4312442E+002
  0
LINE
  8
1
  6
CONTINUOUS
 62
4
 10
1.8834912E+002
 20
4.4312442E+002
 11
1.8510912E+002
 21
4.4312442E+002
  0
LINE
  8
1
  6
CENTERLINE
 62
1
 10
1.728621E+002
 20
2.1688714E+002
 11
1.728621E+002
 21
1.922393E+002
  0
LINE
  8
1
  6
CENTERLINE
 62
1
 10
2.108621E+002
 20
2.1635421E+002
 11
2.108621E+002
 21
1.9157314E+002
  0
LINE
  8
1
  6
CONTINUOUS
 62
40
 10
1.248621E+002
 20
2.0913675E+002
 11
1.148621E+002
 21
2.0913675E+002
  0
LINE
  8
1
  6
CONTINUOUS
 62
40
 10
1.148621E+002
 20
2.0913675E+002
 11
1.148621E+002
 21
2.0113671E+002
  0
LINE
  8
1
  6
CONTINUOUS
 62
40
 10
1.148621E+002
 20
2.0113671E+002
 11
1.3116214E+002
 21
2.0113671E+002
  0
TEXT
  8
1
  6
CONTINUOUS
 62
1
 10
2.9494712E+002
 20
1.4764E+002
 40
6.4
  1
ohne Wechsel
 41
6.5625002E-001
 72
1
 11
3.2014712E+002
 21
1.5084E+002
 73
2
  0
LINE
  8
1
  6
CENTERLINE
 62
1
 10
1.918621E+002
 20
1.9399946E+002
 11
1.918621E+002
 21
2.1483986E+002
  0
LINE
  8
1
  6
CONTINUOUS
 62
40
 10
1.368621E+002
 20
2.0943675E+002
 11
1.248621E+002
 21
2.0943675E+002
  0
LINE
  8
1
  6
CONTINUOUS
 62
40
 10
1.248621E+002
 20
2.0943675E+002
 11
1.248621E+002
 21
2.0743675E+002
  0
LINE
  8
1
  6
CONTINUOUS
 62
40
 10
1.248621E+002
 20
2.0743675E+002
 11
1.368621E+002
 21
1.9543675E+002
  0
LINE
  8
1
  6
CONTINUOUS
 62
40
 10
1.368621E+002
 20
2.0743675E+002
 11
1.248621E+002
 21
2.0743675E+002
  0
LINE
  8
1
  6
CONTINUOUS
 62
40
 10
1.368621E+002
 20
1.9143675E+002
 11
1.368621E+002
 21
2.1543675E+002
  0
LINE
  8
1
  6
CONTINUOUS
 62
40
 10
1.368621E+002
 20
2.1543675E+002
 11
1.398621E+002
 21
2.1543675E+002
  0
LINE
  8
1
  6
CONTINUOUS
 62
40
 10
1.398621E+002
 20
2.1543675E+002
 11
1.398621E+002
 21
2.1143675E+002
  0
LINE
  8
1
  6
CONTINUOUS
 62
40
 10
1.398621E+002
 20
2.1143675E+002
 11
1.398621E+002
 21
1.9143675E+002
  0
LINE
  8
1
  6
CONTINUOUS
 62
40
 10
1.398621E+002
 20
1.9143675E+002
 11
1.368621E+002
 21
1.9143675E+002
  0
LINE
  8
1
  6
CONTINUOUS
 62
40
 10
1.808621E+002
 20
2.1143675E+002
 11
1.808621E+002
 21
2.1218675E+002
  0
LINE
  8
1
  6
CONTINUOUS
 62
40
 10
1.808621E+002
 20
2.1218675E+002
 11
2.028621E+002
 21
2.1218675E+002
  0
LINE
  8
1
  6
CONTINUOUS
 62
40
 10
2.028621E+002
 20
2.1218675E+002
 11
2.028621E+002
 21
2.1143675E+002
  0
LINE
  8
1
  6
CONTINUOUS
 62
40
 10
1.808621E+002
 20
1.9743675E+002
 11
1.808621E+002
 21
1.9668675E+002
  0
LINE
  8
1
  6
CONTINUOUS
 62
40
 10
1.808621E+002
 20
1.9668675E+002
 11
2.028621E+002
 21
1.9668675E+002
  0
LINE
  8
1
  6
CONTINUOUS
 62
40
 10
2.028621E+002
 20
1.9668675E+002
 11
2.028621E+002
 21
1.9743675E+002
  0
LINE
  8
1
  6
CONTINUOUS
 62
40
 10
1.398621E+002
 20
2.1143675E+002
 11
2.248621E+002
 21
2.1143675E+002
  0
LINE
  8
1
  6
CONTINUOUS
 62
40
 10
2.248621E+002
 20
2.1143675E+002
 11
2.248621E+002
 21
1.9743675E+002
  0
LINE
  8
1
  6
CONTINUOUS
 62
40
 10
2.248621E+002
 20
1.9743675E+002
 11
1.398621E+002
 21
1.9743675E+002
  0
LINE
  8
1
  6
CONTINUOUS
 62
40
 10
1.398621E+002
 20
1.9743675E+002
 11
1.398621E+002
 21
2.1143675E+002
  0
LINE
  8
1
  6
CONTINUOUS
 62
40
 10
1.398621E+002
 20
2.1143675E+002
 11
1.398621E+002
 21
2.1143675E+002
  0
LINE
  8
1
  6
CONTINUOUS
 62
40
 10
2.198621E+002
 20
1.9743675E+002
 11
2.198621E+002
 21
2.1143675E+002
  0
TEXT
  8
1
  6
CONTINUOUS
 62
1
 10
2.9538339E+002
 20
1.3775407E+002
 40
6.4
  1
without latch lever
 41
6.6315791E-001
 72
1
 11
3.3570339E+002
 21
1.4095407E+002
 73
2
  0
LINE
  8
1
  6
CENTERLINE
 62
1
 10
3.3097148E+002
 20
2.9893804E+002
 11
3.6273605E+002
 21
2.9893804E+002
  0
CIRCLE
  8
1
  6
CONTINUOUS
 62
40
 10
3.4612414E+002
 20
3.3293804E+002
 40
4.5
  0
LINE
  8
1
  6
CENTERLINE
 62
1
 10
3.3132053E+002
 20
5.0993804E+002
 11
3.6207924E+002
 21
5.0993804E+002
  0
LINE
  8
1
  6
CONTINUOUS
 62
40
 10
3.4142414E+002
 20
3.8693804E+002
 11
3.4142414E+002
 21
3.5193804E+002
  0
LINE
  8
1
  6
CONTINUOUS
 62
40
 10
3.4142414E+002
 20
3.5193804E+002
 11
3.4942411E+002
 21
3.5193804E+002
  0
LINE
  8
1
  6
CONTINUOUS
 62
40
 10
3.4942411E+002
 20
3.5193804E+002
 11
3.4942411E+002
 21
3.8693804E+002
  0
LINE
  8
1
  6
CONTINUOUS
 62
40
 10
3.4942411E+002
 20
3.8693804E+002
 11
3.4142414E+002
 21
3.8693804E+002
  0
LINE
  8
1
  6
CONTINUOUS
 62
40
 10
3.4142414E+002
 20
3.8693804E+002
 11
3.4142414E+002
 21
3.8693804E+002
  0
LINE
  8
1
  6
CONTINUOUS
 62
40
 10
3.4312414E+002
 20
4.3893804E+002
 11
3.4312414E+002
 21
4.6693804E+002
  0
LINE
  8
1
  6
CONTINUOUS
 62
40
 10
3.4112414E+002
 20
4.3693804E+002
 11
3.4112414E+002
 21
4.6893804E+002
  0
LINE
  8
1
  6
CONTINUOUS
 62
40
 10
3.4112414E+002
 20
4.6893804E+002
 11
3.4312414E+002
 21
4.6893804E+002
  0
LINE
  8
1
  6
CONTINUOUS
 62
40
 10
3.4312414E+002
 20
4.6893804E+002
 11
3.4312414E+002
 21
4.6693804E+002
  0
LINE
  8
1
  6
CONTINUOUS
 62
40
 10
3.4312414E+002
 20
4.6693804E+002
 11
3.5512414E+002
 21
4.6693804E+002
  0
LINE
  8
1
  6
CONTINUOUS
 62
40
 10
3.5512414E+002
 20
4.6693804E+002
 11
3.5512414E+002
 21
4.3893804E+002
  0
LINE
  8
1
  6
CONTINUOUS
 62
40
 10
3.5512414E+002
 20
4.3893804E+002
 11
3.4312414E+002
 21
4.3893804E+002
  0
LINE
  8
1
  6
CONTINUOUS
 62
40
 10
3.4312414E+002
 20
4.3893804E+002
 11
3.4312414E+002
 21
4.3693804E+002
  0
LINE
  8
1
  6
CONTINUOUS
 62
40
 10
3.4312414E+002
 20
4.3693804E+002
 11
3.4112414E+002
 21
4.3693804E+002
  0
CIRCLE
  8
1
  6
CONTINUOUS
 62
40
 10
3.4612414E+002
 20
3.3293804E+002
 40
3.0
  0
LINE
  8
1
  6
CENTERLINE
 62
1
 10
3.4612414E+002
 20
3.1702764E+002
 11
3.4612414E+002
 21
3.3983337E+002
  0
LINE
  8
1
  6
CENTERLINE
 62
1
 10
3.3970338E+002
 20
3.3293804E+002
 11
3.5373551E+002
 21
3.3293804E+002
  0
CIRCLE
  8
1
  6
CONTINUOUS
 62
40
 10
3.4712414E+002
 20
5.0893804E+002
 40
5.0
  0
CIRCLE
  8
1
  6
CONTINUOUS
 62
40
 10
3.4712414E+002
 20
2.9993804E+002
 40
5.0
  0
CIRCLE
  8
1
  6
CONTINUOUS
 62
40
 10
3.4712414E+002
 20
2.9993804E+002
 40
3.0
  0
CIRCLE
  8
1
  6
CONTINUOUS
 62
40
 10
3.4712414E+002
 20
5.0893804E+002
 40
3.0
  0
LINE
  8
1
  6
CENTERLINE
 62
1
 10
3.3906327E+002
 20
2.9993804E+002
 11
3.5524684E+002
 21
2.9993804E+002
  0
LINE
  8
1
  6
CENTERLINE
 62
1
 10
3.3898532E+002
 20
5.0893804E+002
 11
3.5491216E+002
 21
5.0893804E+002
  0
LINE
  8
1
  6
CENTERLINE
 62
1
 10
3.4712414E+002
 20
5.2776963E+002
 11
3.4712414E+002
 21
5.212496E+002
  0
LINE
  8
1
  6
CENTERLINE
 62
1
 10
3.4712414E+002
 20
5.1462187E+002
 11
3.4712414E+002
 21
5.0232174E+002
  0
LINE
  8
1
  6
CENTERLINE
 62
1
 10
3.4712414E+002
 20
5.0232174E+002
 11
3.4712414E+002
 21
3.4690322E+002
  0
LINE
  8
1
  6
CENTERLINE
 62
1
 10
3.4712414E+002
 20
2.807826E+002
 11
3.4712414E+002
 21
3.1664815E+002
  0
LINE
  8
1
  6
CENTERLINE
 62
1
 10
3.4712414E+002
 20
3.1664815E+002
 11
3.4712414E+002
 21
3.4690322E+002
  0
ARC
  8
1
  6
SHORT_DASH
 62
3
 10
3.4712414E+002
 20
2.9893804E+002
 40
1.2E+001
 50
1.8E+002
 51
2.7E+002
  0
LINE
  8
1
  6
CONTINUOUS
 62
40
 10
3.3512414E+002
 20
2.9893804E+002
 11
3.3512414E+002
 21
5.0993804E+002
  0
ARC
  8
1
  6
SHORT_DASH
 62
3
 10
3.4712414E+002
 20
5.0993804E+002
 40
1.2000001E+001
 50
9.0000005E+001
 51
1.7999999E+002
  0
LINE
  8
1
  6
CONTINUOUS
 62
40
 10
3.4712414E+002
 20
5.2193804E+002
 11
3.4722414E+002
 21
5.2193804E+002
  0
ARC
  8
1
  6
SHORT_DASH
 62
3
 10
3.4722414E+002
 20
5.1003804E+002
 40
1.1900002E+001
 50
8.2388E-006
 51
8.9999996E+001
  0
LINE
  8
1
  6
CONTINUOUS
 62
40
 10
3.5912414E+002
 20
5.1003804E+002
 11
3.5912414E+002
 21
2.9883804E+002
  0
ARC
  8
1
  6
SHORT_DASH
 62
3
 10
3.4722414E+002
 20
2.9883804E+002
 40
1.19E+001
 50
2.7E+002
 51
3.6E+002
  0
LINE
  8
1
  6
CONTINUOUS
 62
40
 10
3.4722414E+002
 20
2.8693804E+002
 11
3.4712414E+002
 21
2.8693804E+002
  0
TEXT
  8
1
  6
CONTINUOUS
 62
1
 10
3.4471011E+002
 20
5.1496917E+002
 40
5.2488
  1
P
 72
1
 11
3.4733451E+002
 21
5.1759357E+002
 73
2
  0
LINE
  8
1
  6
CONTINUOUS
 62
40
 10
3.3512414E+002
 20
2.9993804E+002
 11
3.3512414E+002
 21
2.8693804E+002
  0
LINE
  8
1
  6
CONTINUOUS
 62
40
 10
3.3512414E+002
 20
2.8693804E+002
 11
3.5912414E+002
 21
2.8693804E+002
  0
LINE
  8
1
  6
CONTINUOUS
 62
40
 10
3.5912414E+002
 20
2.8693804E+002
 11
3.5912414E+002
 21
2.9993804E+002
  0
LINE
  8
1
  6
CONTINUOUS
 62
40
 10
3.3512414E+002
 20
5.0893804E+002
 11
3.3512414E+002
 21
5.2193804E+002
  0
LINE
  8
1
  6
CONTINUOUS
 62
40
 10
3.3512414E+002
 20
5.2193804E+002
 11
3.5912414E+002
 21
5.2193804E+002
  0
LINE
  8
1
  6
CONTINUOUS
 62
40
 10
3.5912414E+002
 20
5.2193804E+002
 11
3.5912414E+002
 21
5.0893804E+002
  0
ARC
  8
1
  6
CONTINUOUS
 62
1
 10
1.386726E+002
 20
4.9606645E+002
 40
1.8104975
 50
1.1892552E+002
 51
1.8001416E+002
  0
ARC
  8
1
  6
CONTINUOUS
 62
1
 10
1.3867261E+002
 20
4.9606642E+002
 40
1.8105324
 50
9.6930564E+001
 51
1.1892539E+002
  0
ARC
  8
1
  6
CONTINUOUS
 62
1
 10
1.3823376E+002
 20
4.9973699E+002
 40
1.8861826
 50
2.7670966E+002
 51
2.8770708E+002
  0
ARC
  8
1
  6
CONTINUOUS
 62
1
 10
1.3832561E+002
 20
4.9943514E+002
 40
1.570708
 50
2.8786424E+002
 51
2.9407405E+002
  0
ARC
  8
1
  6
CONTINUOUS
 62
1
 10
1.3839855E+002
 20
4.9927202E+002
 40
1.3920185
 50
2.9407186E+002
 51
3.0080224E+002
  0
ARC
  8
1
  6
CONTINUOUS
 62
1
 10
1.3832005E+002
 20
4.9940021E+002
 40
1.542324
 50
3.0086839E+002
 51
3.6108738E+002
  0
LINE
  8
1
  6
CONTINUOUS
 62
1
 10
1.398621E+002
 20
4.9942948E+002
 11
1.398621E+002
 21
5.0593804E+002
  0
LINE
  8
1
  6
CONTINUOUS
 62
1
 10
1.398621E+002
 20
5.0593804E+002
 11
1.388621E+002
 21
5.0593804E+002
  0
LINE
  8
1
  6
CONTINUOUS
 62
1
 10
1.388621E+002
 20
5.0593804E+002
 11
1.368621E+002
 21
5.0393804E+002
  0
LINE
  8
1
  6
CONTINUOUS
 62
1
 10
1.368621E+002
 20
5.0393804E+002
 11
1.368621E+002
 21
4.9649127E+002
  0
LINE
  8
1
  6
CONTINUOUS
 62
1
 10
1.368621E+002
 20
5.2193804E+002
 11
1.368621E+002
 21
5.1393804E+002
  0
LINE
  8
1
  6
CONTINUOUS
 62
1
 10
1.368621E+002
 20
5.1393804E+002
 11
1.388621E+002
 21
5.1193804E+002
  0
LINE
  8
1
  6
CONTINUOUS
 62
1
 10
1.388621E+002
 20
5.1193804E+002
 11
1.398621E+002
 21
5.1193804E+002
  0
LINE
  8
1
  6
CONTINUOUS
 62
1
 10
1.398621E+002
 20
5.1193804E+002
 11
1.398621E+002
 21
5.2193804E+002
  0
LINE
  8
1
  6
CONTINUOUS
 62
1
 10
1.398621E+002
 20
5.2193804E+002
 11
1.368621E+002
 21
5.2193804E+002
  0
LINE
  8
1
  6
CONTINUOUS
 62
40
 10
1.368621E+002
 20
5.1393804E+002
 11
1.388621E+002
 21
5.1193804E+002
  0
LINE
  8
1
  6
CONTINUOUS
 62
40
 10
1.388621E+002
 20
5.1193804E+002
 11
1.388621E+002
 21
5.0593804E+002
  0
LINE
  8
1
  6
CONTINUOUS
 62
40
 10
1.388621E+002
 20
5.0593804E+002
 11
1.368621E+002
 21
5.0393804E+002
  0
LINE
  8
1
  6
CONTINUOUS
 62
40
 10
1.388621E+002
 20
5.1193804E+002
 11
1.398621E+002
 21
5.1193804E+002
  0
LINE
  8
1
  6
CONTINUOUS
 62
40
 10
1.388621E+002
 20
5.0593804E+002
 11
1.398621E+002
 21
5.0593804E+002
  0
LINE
  8
1
  6
HIDDEN
 62
150
 10
1.368621E+002
 20
3.0493804E+002
 11
1.388621E+002
 21
3.0293804E+002
  0
LINE
  8
1
  6
HIDDEN
 62
150
 10
1.388621E+002
 20
3.0293804E+002
 11
1.388621E+002
 21
2.9693804E+002
  0
LINE
  8
1
  6
HIDDEN
 62
150
 10
1.388621E+002
 20
2.9693804E+002
 11
1.368621E+002
 21
2.9493804E+002
  0
LINE
  8
1
  6
HIDDEN
 62
150
 10
1.388621E+002
 20
3.0293804E+002
 11
1.398621E+002
 21
3.0293804E+002
  0
LINE
  8
1
  6
HIDDEN
 62
150
 10
1.388621E+002
 20
2.9693804E+002
 11
1.398621E+002
 21
2.9693804E+002
  0
CIRCLE
  8
1
  6
CONTINUOUS
 62
40
 10
1.728621E+002
 20
4.2393804E+002
 40
3.5
  0
CIRCLE
  8
1
  6
CONTINUOUS
 62
40
 10
2.108621E+002
 20
4.2393804E+002
 40
3.5
  0
CIRCLE
  8
1
  6
CONTINUOUS
 62
40
 10
1.728621E+002
 20
3.4393804E+002
 40
3.5
  0
CIRCLE
  8
1
  6
CONTINUOUS
 62
40
 10
2.108621E+002
 20
3.4393804E+002
 40
3.5
  0
LINE
  8
1
  6
CONTINUOUS
 62
40
 10
1.368621E+002
 20
3.8693804E+002
 11
1.148621E+002
 21
3.8693804E+002
  0
LINE
  8
1
  6
CONTINUOUS
 62
40
 10
1.148621E+002
 20
3.8693804E+002
 11
1.148621E+002
 21
3.5193804E+002
  0
LINE
  8
1
  6
CONTINUOUS
 62
40
 10
1.148621E+002
 20
3.5193804E+002
 11
1.368621E+002
 21
3.5193804E+002
  0
LINE
  8
1
  6
CONTINUOUS
 62
40
 10
1.398621E+002
 20
4.6993804E+002
 11
1.538621E+002
 21
4.6993804E+002
  0
LINE
  8
1
  6
CONTINUOUS
 62
40
 10
1.538621E+002
 20
4.6993804E+002
 11
1.538621E+002
 21
4.3593804E+002
  0
LINE
  8
1
  6
CONTINUOUS
 62
40
 10
1.538621E+002
 20
4.3593804E+002
 11
1.398621E+002
 21
4.3593804E+002
  0
LINE
  8
1
  6
CONTINUOUS
 62
40
 10
1.368621E+002
 20
4.6893804E+002
 11
1.248621E+002
 21
4.6893804E+002
  0
LINE
  8
1
  6
CONTINUOUS
 62
40
 10
1.248621E+002
 20
4.6893804E+002
 11
1.248621E+002
 21
4.3693804E+002
  0
LINE
  8
1
  6
CONTINUOUS
 62
40
 10
1.248621E+002
 20
4.3693804E+002
 11
1.368621E+002
 21
4.3693804E+002
  0
LINE
  8
1
  6
CONTINUOUS
 62
40
 10
1.368621E+002
 20
4.3893804E+002
 11
1.248621E+002
 21
4.3893804E+002
  0
LINE
  8
1
  6
CONTINUOUS
 62
40
 10
1.368621E+002
 20
4.6693804E+002
 11
1.248621E+002
 21
4.6693804E+002
  0
LINE
  8
1
  6
CENTERLINE
 62
1
 10
1.3366777E+002
 20
5.0893804E+002
 11
1.4288697E+002
 21
5.0893804E+002
  0
LINE
  8
1
  6
CENTERLINE
 62
1
 10
1.3256146E+002
 20
2.9993804E+002
 11
1.4288697E+002
 21
2.9993804E+002
  0
LINE
  8
1
  6
CENTERLINE
 62
1
 10
1.8415912E+002
 20
3.3193804E+002
 11
1.9949781E+002
 21
3.3193804E+002
  0
LINE
  8
1
  6
CENTERLINE
 62
1
 10
1.8115515E+002
 20
3.5193804E+002
 11
2.0314679E+002
 21
3.5193804E+002
  0
ARC
  8
1
  6
CONTINUOUS
 62
40
 10
1.918621E+002
 20
3.5193804E+002
 40
8.5999985
 50
3.0637185E+002
 51
5.9362815E+002
  0
LINE
  8
1
  6
CONTINUOUS
 62
40
 10
1.969621E+002
 20
3.4501345E+002
 11
1.969621E+002
 21
3.3193804E+002
  0
ARC
  8
1
  6
CONTINUOUS
 62
40
 10
1.918621E+002
 20
3.3193804E+002
 40
5.1
 50
1.8E+002
 51
3.6E+002
  0
LINE
  8
1
  6
CONTINUOUS
 62
40
 10
1.867621E+002
 20
3.3193804E+002
 11
1.867621E+002
 21
3.4501345E+002
  0
LINE
  8
1
  6
CONTINUOUS
 62
40
 10
1.873621E+002
 20
4.1943804E+002
 11
1.873621E+002
 21
4.2843804E+002
  0
LINE
  8
1
  6
CONTINUOUS
 62
40
 10
1.873621E+002
 20
4.2843804E+002
 11
1.963621E+002
 21
4.2843804E+002
  0
LINE
  8
1
  6
CONTINUOUS
 62
40
 10
1.963621E+002
 20
4.2843804E+002
 11
1.963621E+002
 21
4.1943804E+002
  0
LINE
  8
1
  6
CONTINUOUS
 62
40
 10
1.963621E+002
 20
4.1943804E+002
 11
1.873621E+002
 21
4.1943804E+002
  0
LINE
  8
1
  6
CENTERLINE
 62
1
 10
1.728621E+002
 20
4.3197557E+002
 11
1.728621E+002
 21
4.1524046E+002
  0
LINE
  8
1
  6
CENTERLINE
 62
1
 10
2.0282457E+002
 20
3.4393804E+002
 11
2.1955967E+002
 21
3.4393804E+002
  0
LINE
  8
1
  6
CENTERLINE
 62
1
 10
1.6482457E+002
 20
3.4393804E+002
 11
1.8155968E+002
 21
3.4393804E+002
  0
LINE
  8
1
  6
CENTERLINE
 62
1
 10
1.8382457E+002
 20
4.6993804E+002
 11
2.0055967E+002
 21
4.6993804E+002
  0
LINE
  8
1
  6
CENTERLINE
 62
1
 10
1.8382457E+002
 20
4.0243804E+002
 11
2.0055967E+002
 21
4.0243804E+002
  0
LINE
  8
1
  6
CENTERLINE
 62
1
 10
2.108621E+002
 20
3.5078485E+002
 11
2.108621E+002
 21
3.3524046E+002
  0
LINE
  8
1
  6
CENTERLINE
 62
1
 10
1.728621E+002
 20
3.5197557E+002
 11
1.728621E+002
 21
3.3524046E+002
  0
LINE
  8
1
  6
CENTERLINE
 62
1
 10
2.108621E+002
 20
4.3197557E+002
 11
2.108621E+002
 21
4.1524046E+002
  0
CIRCLE
  8
1
  6
CONTINUOUS
 62
40
 10
1.918621E+002
 20
4.0243804E+002
 40
5.0
  0
CIRCLE
  8
1
  6
CONTINUOUS
 62
40
 10
1.918621E+002
 20
4.2393804E+002
 40
1.1E+001
  0
CIRCLE
  8
1
  6
CONTINUOUS
 62
40
 10
1.918621E+002
 20
4.6993804E+002
 40
5.0
  0
LINE
  8
1
  6
CENTERLINE
 62
1
 10
2.1745995E+002
 20
4.2393804E+002
 11
1.5898328E+002
 21
4.2393804E+002
  0
LINE
  8
1
  6
CONTINUOUS
 62
40
 10
1.398621E+002
 20
4.8693804E+002
 11
2.198621E+002
 21
4.8693804E+002
  0
LINE
  8
1
  6
CONTINUOUS
 62
40
 10
2.198621E+002
 20
4.8693804E+002
 11
2.248621E+002
 21
4.8193804E+002
  0
LINE
  8
1
  6
CONTINUOUS
 62
40
 10
2.248621E+002
 20
4.8193804E+002
 11
2.248621E+002
 21
3.2693804E+002
  0
LINE
  8
1
  6
CONTINUOUS
 62
40
 10
2.248621E+002
 20
3.2693804E+002
 11
2.198621E+002
 21
3.2193804E+002
  0
LINE
  8
1
  6
CONTINUOUS
 62
40
 10
2.198621E+002
 20
3.2193804E+002
 11
1.398621E+002
 21
3.2193804E+002
  0
LINE
  8
1
  6
CONTINUOUS
 62
40
 10
1.368621E+002
 20
3.3743823E+002
 11
1.3836216E+002
 21
3.3593817E+002
  0
LINE
  8
1
  6
CONTINUOUS
 62
40
 10
1.3836216E+002
 20
3.3593817E+002
 11
1.3836216E+002
 21
3.2993791E+002
  0
LINE
  8
1
  6
CONTINUOUS
 62
40
 10
1.3836216E+002
 20
3.2993791E+002
 11
1.368621E+002
 21
3.2843785E+002
  0
LINE
  8
1
  6
CONTINUOUS
 62
1
 10
1.3986223E+002
 20
3.2346925E+002
 11
1.3986223E+002
 21
3.2993791E+002
  0
LINE
  8
1
  6
CONTINUOUS
 62
40
 10
1.3986223E+002
 20
3.2993791E+002
 11
1.3836216E+002
 21
3.2993791E+002
  0
LINE
  8
1
  6
CONTINUOUS
 62
1
 10
1.3836216E+002
 20
3.2993791E+002
 11
1.368621E+002
 21
3.2843785E+002
  0
LINE
  8
1
  6
CONTINUOUS
 62
1
 10
1.368621E+002
 20
3.2843785E+002
 11
1.368621E+002
 21
3.2377166E+002
  0
LINE
  8
1
  6
CONTINUOUS
 62
1
 10
1.368621E+002
 20
3.2377166E+002
 11
1.3688841E+002
 21
3.2361392E+002
  0
LINE
  8
1
  6
CONTINUOUS
 62
1
 10
1.3688841E+002
 20
3.2361392E+002
 11
1.3694922E+002
 21
3.2349164E+002
  0
LINE
  8
1
  6
CONTINUOUS
 62
1
 10
1.3694922E+002
 20
3.2349164E+002
 11
1.3700908E+002
 21
3.2341929E+002
  0
LINE
  8
1
  6
CONTINUOUS
 62
1
 10
1.3700908E+002
 20
3.2341929E+002
 11
1.3700909E+002
 21
3.2341929E+002
  0
LINE
  8
1
  6
CONTINUOUS
 62
1
 10
1.3700909E+002
 20
3.2341929E+002
 11
1.3714794E+002
 21
3.2332103E+002
  0
LINE
  8
1
  6
CONTINUOUS
 62
1
 10
1.3714794E+002
 20
3.2332103E+002
 11
1.3714796E+002
 21
3.2332103E+002
  0
LINE
  8
1
  6
CONTINUOUS
 62
1
 10
1.3714796E+002
 20
3.2332103E+002
 11
1.3731402E+002
 21
3.2327448E+002
  0
LINE
  8
1
  6
CONTINUOUS
 62
1
 10
1.3731402E+002
 20
3.2327448E+002
 11
1.3731404E+002
 21
3.2327448E+002
  0
LINE
  8
1
  6
CONTINUOUS
 62
1
 10
1.3731404E+002
 20
3.2327448E+002
 11
1.3731405E+002
 21
3.2327448E+002
  0
LINE
  8
1
  6
CONTINUOUS
 62
1
 10
1.3731405E+002
 20
3.2327448E+002
 11
1.3755907E+002
 21
3.2331108E+002
  0
LINE
  8
1
  6
CONTINUOUS
 62
1
 10
1.3755907E+002
 20
3.2331108E+002
 11
1.3755907E+002
 21
3.2331108E+002
  0
LINE
  8
1
  6
CONTINUOUS
 62
1
 10
1.3755907E+002
 20
3.2331108E+002
 11
1.3774845E+002
 21
3.2339057E+002
  0
LINE
  8
1
  6
CONTINUOUS
 62
1
 10
1.3774845E+002
 20
3.2339057E+002
 11
1.3771992E+002
 21
3.2341911E+002
  0
LINE
  8
1
  6
CONTINUOUS
 62
1
 10
1.3771992E+002
 20
3.2341911E+002
 11
1.3782794E+002
 21
3.2357996E+002
  0
LINE
  8
1
  6
CONTINUOUS
 62
1
 10
1.3782794E+002
 20
3.2357996E+002
 11
1.3790554E+002
 21
3.2372288E+002
  0
LINE
  8
1
  6
CONTINUOUS
 62
1
 10
1.3790554E+002
 20
3.2372288E+002
 11
1.3794264E+002
 21
3.2385323E+002
  0
LINE
  8
1
  6
CONTINUOUS
 62
1
 10
1.3794264E+002
 20
3.2385323E+002
 11
1.3809682E+002
 21
3.2384884E+002
  0
LINE
  8
1
  6
CONTINUOUS
 62
1
 10
1.3809682E+002
 20
3.2384884E+002
 11
1.3820368E+002
 21
3.2381983E+002
  0
LINE
  8
1
  6
CONTINUOUS
 62
1
 10
1.3820368E+002
 20
3.2381983E+002
 11
1.3828793E+002
 21
3.2374697E+002
  0
LINE
  8
1
  6
CONTINUOUS
 62
1
 10
1.3828793E+002
 20
3.2374697E+002
 11
1.3834988E+002
 21
3.2356414E+002
  0
LINE
  8
1
  6
CONTINUOUS
 62
1
 10
1.3834988E+002
 20
3.2356414E+002
 11
1.3837742E+002
 21
3.2344542E+002
  0
LINE
  8
1
  6
CONTINUOUS
 62
1
 10
1.3837742E+002
 20
3.2344542E+002
 11
1.3843736E+002
 21
3.2336072E+002
  0
LINE
  8
1
  6
CONTINUOUS
 62
1
 10
1.3843736E+002
 20
3.2336072E+002
 11
1.3860294E+002
 21
3.2327945E+002
  0
LINE
  8
1
  6
CONTINUOUS
 62
1
 10
1.3860294E+002
 20
3.2327945E+002
 11
1.3879699E+002
 21
3.2335586E+002
  0
LINE
  8
1
  6
CONTINUOUS
 62
1
 10
1.3879699E+002
 20
3.2335586E+002
 11
1.388974E+002
 21
3.2349381E+002
  0
LINE
  8
1
  6
CONTINUOUS
 62
1
 10
1.388974E+002
 20
3.2349381E+002
 11
1.3894481E+002
 21
3.2360454E+002
  0
LINE
  8
1
  6
CONTINUOUS
 62
1
 10
1.3894481E+002
 20
3.2360454E+002
 11
1.390218E+002
 21
3.2381792E+002
  0
LINE
  8
1
  6
CONTINUOUS
 62
1
 10
1.390218E+002
 20
3.2381792E+002
 11
1.3906391E+002
 21
3.2377137E+002
  0
LINE
  8
1
  6
CONTINUOUS
 62
1
 10
1.3906391E+002
 20
3.2377137E+002
 11
1.3926722E+002
 21
3.2388047E+002
  0
LINE
  8
1
  6
CONTINUOUS
 62
1
 10
1.3926722E+002
 20
3.2388047E+002
 11
1.3943355E+002
 21
3.2389292E+002
  0
LINE
  8
1
  6
CONTINUOUS
 62
1
 10
1.3943355E+002
 20
3.2389292E+002
 11
1.3955422E+002
 21
3.2386472E+002
  0
LINE
  8
1
  6
CONTINUOUS
 62
1
 10
1.3955422E+002
 20
3.2386472E+002
 11
1.3970439E+002
 21
3.2377407E+002
  0
LINE
  8
1
  6
CONTINUOUS
 62
1
 10
1.3970439E+002
 20
3.2377407E+002
 11
1.3979553E+002
 21
3.2366473E+002
  0
LINE
  8
1
  6
CONTINUOUS
 62
1
 10
1.3979553E+002
 20
3.2366473E+002
 11
1.3986223E+002
 21
3.2346925E+002
  0
INSERT
  2
*XH64
  8
1
 10
-1.4241042E+001
 20
1.31207E-001
  0
INSERT
  2
*XH98
  8
1
 10
-1.4241042E+001
 20
1.31207E-001
  0
LINE
  8
1
  6
CONTINUOUS
 62
1
 10
1.3986223E+002
 20
3.4842206E+002
 11
1.3986223E+002
 21
3.3593817E+002
  0
LINE
  8
1
  6
CONTINUOUS
 62
40
 10
1.3986223E+002
 20
3.3593817E+002
 11
1.3836216E+002
 21
3.3593817E+002
  0
LINE
  8
1
  6
CONTINUOUS
 62
1
 10
1.3836216E+002
 20
3.3593817E+002
 11
1.368621E+002
 21
3.3743823E+002
  0
LINE
  8
1
  6
CONTINUOUS
 62
1
 10
1.368621E+002
 20
3.3743823E+002
 11
1.368621E+002
 21
3.4761982E+002
  0
LINE
  8
1
  6
CONTINUOUS
 62
1
 10
1.368621E+002
 20
3.4761982E+002
 11
1.3691091E+002
 21
3.4766735E+002
  0
LINE
  8
1
  6
CONTINUOUS
 62
1
 10
1.3691091E+002
 20
3.4766735E+002
 11
1.3699194E+002
 21
3.4773452E+002
  0
LINE
  8
1
  6
CONTINUOUS
 62
1
 10
1.3699194E+002
 20
3.4773452E+002
 11
1.370786E+002
 21
3.4779319E+002
  0
LINE
  8
1
  6
CONTINUOUS
 62
1
 10
1.370786E+002
 20
3.4779319E+002
 11
1.3717758E+002
 21
3.478458E+002
  0
LINE
  8
1
  6
CONTINUOUS
 62
1
 10
1.3717758E+002
 20
3.478458E+002
 11
1.3730157E+002
 21
3.4789166E+002
  0
LINE
  8
1
  6
CONTINUOUS
 62
1
 10
1.3730157E+002
 20
3.4789166E+002
 11
1.3738831E+002
 21
3.4791251E+002
  0
LINE
  8
1
  6
CONTINUOUS
 62
1
 10
1.3738831E+002
 20
3.4791251E+002
 11
1.3752931E+002
 21
3.4792951E+002
  0
LINE
  8
1
  6
CONTINUOUS
 62
1
 10
1.3752931E+002
 20
3.4792951E+002
 11
1.3762233E+002
 21
3.4793075E+002
  0
LINE
  8
1
  6
CONTINUOUS
 62
1
 10
1.3762233E+002
 20
3.4793075E+002
 11
1.3770907E+002
 21
3.4792623E+002
  0
LINE
  8
1
  6
CONTINUOUS
 62
1
 10
1.3770907E+002
 20
3.4792623E+002
 11
1.3776012E+002
 21
3.4792098E+002
  0
LINE
  8
1
  6
CONTINUOUS
 62
1
 10
1.3776012E+002
 20
3.4792098E+002
 11
1.3788942E+002
 21
3.479014E+002
  0
LINE
  8
1
  6
CONTINUOUS
 62
1
 10
1.3788942E+002
 20
3.479014E+002
 11
1.379923E+002
 21
3.4788034E+002
  0
LINE
  8
1
  6
CONTINUOUS
 62
1
 10
1.379923E+002
 20
3.4788034E+002
 11
1.3809067E+002
 21
3.4785686E+002
  0
LINE
  8
1
  6
CONTINUOUS
 62
1
 10
1.3809067E+002
 20
3.4785686E+002
 11
1.381707E+002
 21
3.478363E+002
  0
LINE
  8
1
  6
CONTINUOUS
 62
1
 10
1.381707E+002
 20
3.478363E+002
 11
1.3829002E+002
 21
3.4780375E+002
  0
LINE
  8
1
  6
CONTINUOUS
 62
1
 10
1.3829002E+002
 20
3.4780375E+002
 11
1.383826E+002
 21
3.4777872E+002
  0
LINE
  8
1
  6
CONTINUOUS
 62
1
 10
1.383826E+002
 20
3.4777872E+002
 11
1.3845393E+002
 21
3.4775974E+002
  0
LINE
  8
1
  6
CONTINUOUS
 62
1
 10
1.3845393E+002
 20
3.4775974E+002
 11
1.3856373E+002
 21
3.4773264E+002
  0
LINE
  8
1
  6
CONTINUOUS
 62
1
 10
1.3856373E+002
 20
3.4773264E+002
 11
1.3867998E+002
 21
3.477083E+002
  0
LINE
  8
1
  6
CONTINUOUS
 62
1
 10
1.3867998E+002
 20
3.477083E+002
 11
1.387638E+002
 21
3.4769449E+002
  0
LINE
  8
1
  6
CONTINUOUS
 62
1
 10
1.387638E+002
 20
3.4769449E+002
 11
1.3890058E+002
 21
3.4768179E+002
  0
LINE
  8
1
  6
CONTINUOUS
 62
1
 10
1.3890058E+002
 20
3.4768179E+002
 11
1.3898297E+002
 21
3.4768112E+002
  0
LINE
  8
1
  6
CONTINUOUS
 62
1
 10
1.3898297E+002
 20
3.4768112E+002
 11
1.3911402E+002
 21
3.4769445E+002
  0
LINE
  8
1
  6
CONTINUOUS
 62
1
 10
1.3911402E+002
 20
3.4769445E+002
 11
1.3918646E+002
 21
3.4771077E+002
  0
LINE
  8
1
  6
CONTINUOUS
 62
1
 10
1.3918646E+002
 20
3.4771077E+002
 11
1.3926336E+002
 21
3.4773638E+002
  0
LINE
  8
1
  6
CONTINUOUS
 62
1
 10
1.3926336E+002
 20
3.4773638E+002
 11
1.3931862E+002
 21
3.4776055E+002
  0
LINE
  8
1
  6
CONTINUOUS
 62
1
 10
1.3931862E+002
 20
3.4776055E+002
 11
1.3940613E+002
 21
3.4781116E+002
  0
LINE
  8
1
  6
CONTINUOUS
 62
1
 10
1.3940613E+002
 20
3.4781116E+002
 11
1.3947066E+002
 21
3.4785826E+002
  0
LINE
  8
1
  6
CONTINUOUS
 62
1
 10
1.3947066E+002
 20
3.4785826E+002
 11
1.3951265E+002
 21
3.4789434E+002
  0
LINE
  8
1
  6
CONTINUOUS
 62
1
 10
1.3951265E+002
 20
3.4789434E+002
 11
1.3959025E+002
 21
3.4797461E+002
  0
LINE
  8
1
  6
CONTINUOUS
 62
1
 10
1.3959025E+002
 20
3.4797461E+002
 11
1.3965967E+002
 21
3.480605E+002
  0
LINE
  8
1
  6
CONTINUOUS
 62
1
 10
1.3965967E+002
 20
3.480605E+002
 11
1.3969442E+002
 21
3.4811009E+002
  0
LINE
  8
1
  6
CONTINUOUS
 62
1
 10
1.3969442E+002
 20
3.4811009E+002
 11
1.3976063E+002
 21
3.4821898E+002
  0
LINE
  8
1
  6
CONTINUOUS
 62
1
 10
1.3976063E+002
 20
3.4821898E+002
 11
1.3981425E+002
 21
3.4831945E+002
  0
LINE
  8
1
  6
CONTINUOUS
 62
1
 10
1.3981425E+002
 20
3.4831945E+002
 11
1.3986223E+002
 21
3.4842206E+002
  0
LINE
  8
1
  6
CENTERLINE
 62
1
 10
1.918621E+002
 20
3.2002357E+002
 11
1.918621E+002
 21
3.6454895E+002
  0
LINE
  8
1
  6
CENTERLINE
 62
1
 10
1.918621E+002
 20
3.7970213E+002
 11
1.918621E+002
 21
4.3649505E+002
  0
LINE
  8
1
  6
CENTERLINE
 62
1
 10
1.918621E+002
 20
4.6266397E+002
 11
1.918621E+002
 21
4.7966036E+002
  0
LINE
  8
1
  6
CONTINUOUS
 62
40
 10
1.368621E+002
 20
2.8693804E+002
 11
1.368621E+002
 21
4.960669E+002
  0
LINE
  8
1
  6
CONTINUOUS
 62
40
 10
1.368621E+002
 20
5.2193804E+002
 11
1.398621E+002
 21
5.2193804E+002
  0
LINE
  8
1
  6
CONTINUOUS
 62
40
 10
1.398621E+002
 20
5.2193804E+002
 11
1.398621E+002
 21
5.0588021E+002
  0
LINE
  8
1
  6
CONTINUOUS
 62
40
 10
1.398621E+002
 20
2.8693804E+002
 11
1.368621E+002
 21
2.8693804E+002
  0
LINE
  8
1
  6
CENTERLINE
 62
1
 10
1.3372251E+002
 20
3.3293804E+002
 11
1.4360335E+002
 21
3.3293804E+002
  0
INSERT
  2
*XH130
  8
1
 10
-1.4241042E+001
 20
1.31207E-001
  0
LINE
  8
1
  6
CONTINUOUS
 62
40
 10
3.4142414E+002
 20
3.8693804E+002
 11
3.4142414E+002
 21
3.5193804E+002
  0
LINE
  8
1
  6
CONTINUOUS
 62
40
 10
3.4142414E+002
 20
3.5193804E+002
 11
3.4942411E+002
 21
3.5193804E+002
  0
LINE
  8
1
  6
CONTINUOUS
 62
40
 10
3.4942411E+002
 20
3.5193804E+002
 11
3.4942411E+002
 21
3.8693804E+002
  0
LINE
  8
1
  6
CONTINUOUS
 62
40
 10
3.4942411E+002
 20
3.8693804E+002
 11
3.4142414E+002
 21
3.8693804E+002
  0
INSERT
  2
*XH148
  8
1
 10
7.8388562E+001
 20
6.2630315E+001
  0
LINE
  8
1
  6
CONTINUOUS
 62
1
 10
9.3763442E+001
 20
6.1643712E+001
 11
9.5256614E+001
 21
6.1643712E+001
  0
LINE
  8
1
  6
CONTINUOUS
 62
1
 10
9.5256614E+001
 20
6.1643712E+001
 11
9.4733577E+001
 21
6.4549661E+001
  0
LINE
  8
1
  6
CONTINUOUS
 62
1
 10
9.4733577E+001
 20
6.4549661E+001
 11
9.4286479E+001
 21
6.4549661E+001
  0
LINE
  8
1
  6
CONTINUOUS
 62
1
 10
9.4286479E+001
 20
6.4549661E+001
 11
9.3763442E+001
 21
6.1643712E+001
  0
LINE
  8
1
  6
CONTINUOUS
 62
1
 10
9.0598201E+001
 20
5.8961334E+001
 11
9.2386436E+001
 21
6.6561475E+001
  0
LINE
  8
1
  6
CONTINUOUS
 62
1
 10
9.2386436E+001
 20
6.6561475E+001
 11
9.6633574E+001
 21
6.6561475E+001
  0
LINE
  8
1
  6
CONTINUOUS
 62
1
 10
9.6633574E+001
 20
6.6561475E+001
 11
9.8421854E+001
 21
5.8961334E+001
  0
LINE
  8
1
  6
CONTINUOUS
 62
1
 10
9.8421854E+001
 20
5.8961334E+001
 11
9.5739476E+001
 21
5.8961334E+001
  0
LINE
  8
1
  6
CONTINUOUS
 62
1
 10
9.5739476E+001
 20
5.8961334E+001
 11
9.5498019E+001
 21
6.0302523E+001
  0
LINE
  8
1
  6
CONTINUOUS
 62
1
 10
9.5498019E+001
 20
6.0302523E+001
 11
9.3521984E+001
 21
6.0302523E+001
  0
LINE
  8
1
  6
CONTINUOUS
 62
1
 10
9.3521984E+001
 20
6.0302523E+001
 11
9.3280579E+001
 21
5.8961334E+001
  0
LINE
  8
1
  6
CONTINUOUS
 62
1
 10
9.3280579E+001
 20
5.8961334E+001
 11
9.0598201E+001
 21
5.8961334E+001
  0
LINE
  8
1
  6
CONTINUOUS
 62
1
 10
8.2998015E+001
 20
5.8961334E+001
 11
8.0762682E+001
 21
5.8961334E+001
  0
LINE
  8
1
  6
CONTINUOUS
 62
1
 10
8.0762682E+001
 20
5.8961334E+001
 11
8.0762682E+001
 21
6.6561475E+001
  0
LINE
  8
1
  6
CONTINUOUS
 62
1
 10
8.0762682E+001
 20
6.6561475E+001
 11
8.4339204E+001
 21
6.6561475E+001
  0
LINE
  8
1
  6
CONTINUOUS
 62
1
 10
8.4339204E+001
 20
6.6561475E+001
 11
8.5322776E+001
 21
6.2090795E+001
  0
LINE
  8
1
  6
CONTINUOUS
 62
1
 10
8.5322776E+001
 20
6.2090795E+001
 11
8.5456866E+001
 21
6.2090795E+001
  0
LINE
  8
1
  6
CONTINUOUS
 62
1
 10
8.5456866E+001
 20
6.2090795E+001
 11
8.5591009E+001
 21
6.2090795E+001
  0
LINE
  8
1
  6
CONTINUOUS
 62
1
 10
8.5591009E+001
 20
6.2090795E+001
 11
8.6574582E+001
 21
6.6561475E+001
  0
LINE
  8
1
  6
CONTINUOUS
 62
1
 10
8.6574582E+001
 20
6.6561475E+001
 11
9.0151103E+001
 21
6.6561475E+001
  0
LINE
  8
1
  6
CONTINUOUS
 62
1
 10
9.0151103E+001
 20
6.6561475E+001
 11
9.0151103E+001
 21
5.8961334E+001
  0
LINE
  8
1
  6
CONTINUOUS
 62
1
 10
9.0151103E+001
 20
5.8961334E+001
 11
8.7915771E+001
 21
5.8961334E+001
  0
LINE
  8
1
  6
CONTINUOUS
 62
1
 10
8.7915771E+001
 20
5.8961334E+001
 11
8.7915771E+001
 21
6.4549661E+001
  0
LINE
  8
1
  6
CONTINUOUS
 62
1
 10
8.7915771E+001
 20
6.4549661E+001
 11
8.7692252E+001
 21
6.4549661E+001
  0
LINE
  8
1
  6
CONTINUOUS
 62
1
 10
8.7692252E+001
 20
6.4549661E+001
 11
8.6462773E+001
 21
5.8961334E+001
  0
LINE
  8
1
  6
CONTINUOUS
 62
1
 10
8.6462773E+001
 20
5.8961334E+001
 11
8.4450967E+001
 21
5.8961334E+001
  0
LINE
  8
1
  6
CONTINUOUS
 62
1
 10
8.4450967E+001
 20
5.8961334E+001
 11
8.3221541E+001
 21
6.4549661E+001
  0
LINE
  8
1
  6
CONTINUOUS
 62
1
 10
8.3221541E+001
 20
6.4549661E+001
 11
8.2998015E+001
 21
6.4549661E+001
  0
LINE
  8
1
  6
CONTINUOUS
 62
1
 10
8.2998015E+001
 20
6.4549661E+001
 11
8.2998015E+001
 21
5.8961334E+001
  0
ARC
  8
1
  6
CONTINUOUS
 62
1
 10
7.6426101E+001
 20
6.4247907E+001
 40
7.6001465E-001
 50
2.7000106E+002
 51
3.599995E+002
  0
LINE
  8
1
  6
CONTINUOUS
 62
1
 10
7.6426115E+001
 20
6.3487892E+001
 11
7.5397881E+001
 21
6.3487892E+001
  0
LINE
  8
1
  6
CONTINUOUS
 62
1
 10
7.5397881E+001
 20
6.3487892E+001
 11
7.5397881E+001
 21
6.5164393E+001
  0
LINE
  8
1
  6
CONTINUOUS
 62
1
 10
7.5397881E+001
 20
6.5164393E+001
 11
7.6426115E+001
 21
6.5164393E+001
  0
ARC
  8
1
  6
CONTINUOUS
 62
1
 10
7.6426114E+001
 20
6.4404358E+001
 40
7.6003534E-001
 50
9.153818E-004
 51
8.9999944E+001
  0
LINE
  8
1
  6
CONTINUOUS
 62
1
 10
7.7186149E+001
 20
6.440437E+001
 11
7.7186115E+001
 21
6.42479E+001
  0
LINE
  8
1
  6
CONTINUOUS
 62
1
 10
7.3162499E+001
 20
5.8961334E+001
 11
7.3162499E+001
 21
6.6561475E+001
  0
LINE
  8
1
  6
CONTINUOUS
 62
1
 10
7.3162499E+001
 20
6.6561475E+001
 11
7.7633206E+001
 21
6.6561475E+001
  0
ARC
  8
1
  6
CONTINUOUS
 62
1
 10
7.7633195E+001
 20
6.4326131E+001
 40
2.2353439
 50
3.5999971E+002
 51
4.4999971E+002
  0
ARC
  8
1
  6
CONTINUOUS
 62
1
 10
7.7413971E+001
 20
6.4323985E+001
 40
2.4545686
 50
3.4224213E+002
 51
3.6004983E+002
  0
ARC
  8
1
  6
CONTINUOUS
 62
1
 10
7.7518748E+001
 20
6.4288868E+001
 40
2.3440732
 50
3.2391516E+002
 51
3.422785E+002
  0
ARC
  8
1
  6
CONTINUOUS
 62
1
 10
7.7625771E+001
 20
6.4210654E+001
 40
2.2115165
 50
3.0482971E+002
 51
3.2391966E+002
  0
ARC
  8
1
  6
CONTINUOUS
 62
1
 10
7.7684095E+001
 20
6.4129184E+001
 40
2.111331
 50
2.8510451E+002
 51
3.0479323E+002
  0
LINE
  8
1
  6
CONTINUOUS
 62
1
 10
7.8234267E+001
 20
6.2090795E+001
 11
7.9868539E+001
 21
5.8961334E+001
  0
LINE
  8
1
  6
CONTINUOUS
 62
1
 10
7.9868539E+001
 20
5.8961334E+001
 11
7.7409687E+001
 21
5.8961334E+001
  0
LINE
  8
1
  6
CONTINUOUS
 62
1
 10
7.7409687E+001
 20
5.8961334E+001
 11
7.6157874E+001
 21
6.2090795E+001
  0
LINE
  8
1
  6
CONTINUOUS
 62
1
 10
7.6157874E+001
 20
6.2090795E+001
 11
7.5397881E+001
 21
6.2090795E+001
  0
LINE
  8
1
  6
CONTINUOUS
 62
1
 10
7.5397881E+001
 20
6.2090795E+001
 11
7.5397881E+001
 21
5.8961334E+001
  0
LINE
  8
1
  6
CONTINUOUS
 62
1
 10
7.5397881E+001
 20
5.8961334E+001
 11
7.3162499E+001
 21
5.8961334E+001
  0
ARC
  8
1
  6
CONTINUOUS
 62
1
 10
6.8993623E+001
 20
6.1286068E+001
 40
7.600001E-001
 50
2.6999996E+002
 51
3.6000145E+002
  0
LINE
  8
1
  6
CONTINUOUS
 62
1
 10
6.8993622E+001
 20
6.0526068E+001
 11
6.8837148E+001
 21
6.0526068E+001
  0
ARC
  8
1
  6
CONTINUOUS
 62
1
 10
6.8837155E+001
 20
6.1286081E+001
 40
7.6001249E-001
 50
1.7999948E+002
 51
2.6999953E+002
  0
LINE
  8
1
  6
CONTINUOUS
 62
1
 10
6.8077142E+001
 20
6.1286088E+001
 11
6.8077142E+001
 21
6.4236721E+001
  0
ARC
  8
1
  6
CONTINUOUS
 62
1
 10
6.8837156E+001
 20
6.4236729E+001
 40
7.6001371E-001
 50
9.0000566E+001
 51
1.8000058E+002
  0
LINE
  8
1
  6
CONTINUOUS
 62
1
 10
6.8837148E+001
 20
6.4996743E+001
 11
6.8993622E+001
 21
6.4996743E+001
  0
ARC
  8
1
  6
CONTINUOUS
 62
1
 10
6.8993601E+001
 20
6.4236741E+001
 40
7.6000132E-001
 50
3.5999849E+002
 51
4.4999838E+002
  0
LINE
  8
1
  6
CONTINUOUS
 62
1
 10
6.9753602E+001
 20
6.4236721E+001
 11
6.9753623E+001
 21
6.1286088E+001
  0
ARC
  8
1
  6
CONTINUOUS
 62
1
 10
6.9585971E+001
 20
6.1643693E+001
 40
2.6823851
 50
2.7000015E+002
 51
3.6000041E+002
  0
LINE
  8
1
  6
CONTINUOUS
 62
1
 10
6.9585978E+001
 20
5.8961307E+001
 11
6.8244789E+001
 21
5.8961307E+001
  0
ARC
  8
1
  6
CONTINUOUS
 62
1
 10
6.8244759E+001
 20
6.1643721E+001
 40
2.6824139
 50
1.800002E+002
 51
2.7000064E+002
  0
LINE
  8
1
  6
CONTINUOUS
 62
1
 10
6.5562345E+001
 20
6.1643712E+001
 11
6.5562345E+001
 21
6.3879067E+001
  0
ARC
  8
1
  6
CONTINUOUS
 62
1
 10
6.8244775E+001
 20
6.3879053E+001
 40
2.6824302
 50
8.9999705E+001
 51
1.7999971E+002
  0
LINE
  8
1
  6
CONTINUOUS
 62
1
 10
6.8244789E+001
 20
6.6561484E+001
 11
6.9585978E+001
 21
6.6561484E+001
  0
ARC
  8
1
  6
CONTINUOUS
 62
1
 10
6.958598E+001
 20
6.3879064E+001
 40
2.6824196
 50
6.32617E-005
 51
9.0000039E+001
  0
LINE
  8
1
  6
CONTINUOUS
 62
1
 10
7.2268399E+001
 20
6.3879067E+001
 11
7.2268356E+001
 21
6.1643712E+001
  0
ARC
  8
1
  6
CONTINUOUS
 62
1
 10
6.2209355E+001
 20
6.1420194E+001
 40
2.4588671
 50
2.7000028E+002
 51
3.6000014E+002
  0
LINE
  8
1
  6
CONTINUOUS
 62
1
 10
6.2209367E+001
 20
5.8961327E+001
 11
5.8185751E+001
 21
5.8961327E+001
  0
LINE
  8
1
  6
CONTINUOUS
 62
1
 10
5.8185751E+001
 20
5.8961327E+001
 11
5.8185751E+001
 21
6.6561475E+001
  0
LINE
  8
1
  6
CONTINUOUS
 62
1
 10
5.8185751E+001
 20
6.6561475E+001
 11
6.2209367E+001
 21
6.6561475E+001
  0
ARC
  8
1
  6
CONTINUOUS
 62
1
 10
6.2209359E+001
 20
6.4102607E+001
 40
2.4588683
 50
4.001E-005
 51
8.999983E+001
  0
LINE
  8
1
  6
CONTINUOUS
 62
1
 10
6.4668228E+001
 20
6.4102609E+001
 11
6.4668222E+001
 21
6.14202E+001
  0
ARC
  8
1
  6
CONTINUOUS
 62
1
 10
6.1762304E+001
 20
6.0973131E+001
 40
4.4706314E-001
 50
2.6999599E+002
 51
3.5999819E+002
  0
LINE
  8
1
  6
CONTINUOUS
 62
1
 10
6.1762272E+001
 20
6.0526068E+001
 11
6.0644606E+001
 21
6.0526068E+001
  0
LINE
  8
1
  6
CONTINUOUS
 62
1
 10
6.0644606E+001
 20
6.0526068E+001
 11
6.0644606E+001
 21
6.4996745E+001
  0
LINE
  8
1
  6
CONTINUOUS
 62
1
 10
6.0644606E+001
 20
6.4996745E+001
 11
6.1762272E+001
 21
6.4996745E+001
  0
ARC
  8
1
  6
CONTINUOUS
 62
1
 10
6.1762268E+001
 20
6.4549665E+001
 40
4.4707957E-001
 50
3.5999953E+002
 51
4.4999949E+002
  0
LINE
  8
1
  6
CONTINUOUS
 62
1
 10
6.2209348E+001
 20
6.4549661E+001
 11
6.2209367E+001
 21
6.0973117E+001
  0
INSERT
  2
*XH149
  8
1
 10
7.7219276E+001
 20
7.4944167E+001
  0
ARC
  8
1
  6
CONTINUOUS
 62
1
 10
7.7219265E+001
 20
1.0989972E+002
 40
3.6495373E+001
 50
2.3080505E+002
 51
2.6231282E+002
  0
LINE
  8
1
  6
CONTINUOUS
 62
1
 10
5.4155613E+001
 20
8.1615802E+001
 11
5.8059199E+001
 21
6.7930067E+001
  0
LINE
  8
1
  6
CONTINUOUS
 62
1
 10
5.8059199E+001
 20
6.7930067E+001
 11
6.0927394E+001
 21
6.7930067E+001
  0
LINE
  8
1
  6
CONTINUOUS
 62
1
 10
6.0927394E+001
 20
6.7930067E+001
 11
5.9003952E+001
 21
7.4637915E+001
  0
ARC
  8
1
  6
CONTINUOUS
 62
1
 10
7.7219246E+001
 20
1.0989973E+002
 40
3.9688693E+001
 50
2.4268035E+002
 51
2.604333E+002
  0
ARC
  8
1
  6
CONTINUOUS
 62
1
 10
7.7219795E+001
 20
1.0989965E+002
 40
3.9688707E+001
 50
2.604325E+002
 51
2.6471274E+002
  0
LINE
  8
1
  6
CONTINUOUS
 62
1
 10
7.3562512E+001
 20
7.0379809E+001
 11
7.7219281E+001
 21
7.6713507E+001
  0
LINE
  8
1
  6
CONTINUOUS
 62
1
 10
7.7219281E+001
 20
7.6713507E+001
 11
8.0876039E+001
 21
7.0379809E+001
  0
ARC
  8
1
  6
CONTINUOUS
 62
1
 10
7.7219281E+001
 20
1.0989972E+002
 40
3.9688725E+001
 50
2.752865E+002
 51
2.9731967E+002
  0
LINE
  8
1
  6
CONTINUOUS
 62
1
 10
9.5434603E+001
 20
7.4637885E+001
 11
9.351116E+001
 21
6.7930067E+001
  0
LINE
  8
1
  6
CONTINUOUS
 62
1
 10
9.351116E+001
 20
6.7930067E+001
 11
9.6379352E+001
 21
6.7930067E+001
  0
LINE
  8
1
  6
CONTINUOUS
 62
1
 10
9.6379352E+001
 20
6.7930067E+001
 11
1.0028294E+002
 21
8.1615802E+001
  0
ARC
  8
1
  6
CONTINUOUS
 62
1
 10
7.7219288E+001
 20
1.0989972E+002
 40
3.6495369E+001
 50
2.7768718E+002
 51
3.0919495E+002
  0
LINE
  8
1
  6
CONTINUOUS
 62
1
 10
8.2101069E+001
 20
7.3732328E+001
 11
7.7219281E+001
 21
8.2187813E+001
  0
LINE
  8
1
  6
CONTINUOUS
 62
1
 10
7.7219281E+001
 20
8.2187813E+001
 11
7.2337482E+001
 21
7.3732328E+001
  0
LINE
  8
1
  6
HIDDEN
 62
40
 10
5.9440461E+001
 20
7.3115723E+001
 11
6.0465265E+001
 21
6.9541747E+001
  0
TEXT
  8
1
  6
CONTINUOUS
 62
40
 10
2.889367E+002
 20
2.11767E+001
 40
9.9
  1
DSM_0182_55_01
 41
6.5892857E-001
  0
TEXT
  8
1
  6
CONTINUOUS
 62
3
 10
1.1865326E+002
 20
8.0229469E+001
 40
6.0
  1
Schloss für FS-Türen, DIN 18250 mit Panik-Durchgangsfunktion
 41
6.7021279E-001
 72
1
 11
2.3929156E+002
 21
8.3229469E+001
 73
2
  0
LINE
  8
1
  6
CONTINUOUS
 62
1
 10
5.5403893E-001
 20
2.6259563
 11
4.1635404E+002
 21
2.6259563
  0
LINE
  8
1
  6
CONTINUOUS
 62
1
 10
4.1635404E+002
 20
2.6259563
 11
4.1635404E+002
 21
5.9068596E+002
  0
LINE
  8
1
  6
CONTINUOUS
 62
1
 10
4.1635404E+002
 20
5.9068596E+002
 11
5.5403893E-001
 21
5.9068596E+002
  0
LINE
  8
1
  6
CONTINUOUS
 62
1
 10
5.5403893E-001
 20
5.9068596E+002
 11
5.5403893E-001
 21
2.6259563
  0
LINE
  8
1
  6
CONTINUOUS
 62
1
 10
5.5403893E-001
 20
2.6259563
 11
5.5403893E-001
 21
2.6259563
  0
TEXT
  8
1
  6
CONTINUOUS
 62
40
 10
1.1745305E+002
 20
4.4458349E+001
 40
9.9
  1
  = 55, 65, 100 mm
 41
6.6250002E-001
 72
1
 11
1.764818E+002
 21
4.9408349E+001
 73
2
  0
TEXT
  8
1
  6
CONTINUOUS
 62
6
 10
1.175871E+002
 20
4.4212217E+001
 40
1.2E+001
  1
X
 72
1
 11
1.235871E+002
 21
5.0212217E+001
 73
2
  0
TEXT
  8
1
  6
CONTINUOUS
 62
1
 10
1.1737957E+002
 20
6.8859324E+001
 40
6.2
  1
lock for protection doors, DIN 18250 with panic- 
 41
6.6964286E-001
 72
1
 11
2.1909832E+002
 21
7.1959324E+001
 73
2
  0
LINE
  8
1
  6
CONTINUOUS
 62
40
 10
4.1858851E+001
 20
1.2274801E+001
 11
4.0815885E+002
 21
1.2274801E+001
  0
LINE
  8
1
  6
CONTINUOUS
 62
40
 10
3.8773513E+002
 20
3.9994801E+001
 11
3.8773513E+002
 21
1.2274801E+001
  0
LINE
  8
1
  6
CONTINUOUS
 62
1
 10
2.2588514
 20
2.964048E+002
 11
2.6018851E+001
 21
2.964048E+002
  0
TEXT
  8
1
  6
CONTINUOUS
 62
1
 10
5.7282191E+001
 20
4.996419E+001
 40
3.96
  1
 Schlosstechnik 
 41
6.66E-001
 72
1
 11
7.8381071E+001
 21
5.194419E+001
 73
2
  0
LINE
  8
1
  6
CONTINUOUS
 62
40
 10
4.1891236E+001
 20
9.1487503E+001
 11
4.0819124E+002
 21
9.1487503E+001
  0
LINE
  8
1
  6
CONTINUOUS
 62
40
 10
1.1313885E+002
 20
9.1474801E+001
 11
1.1313885E+002
 21
1.2274801E+001
  0
LINE
  8
1
  6
CONTINUOUS
 62
40
 10
2.7945885E+002
 20
3.9994801E+001
 11
2.7945885E+002
 21
1.2274801E+001
  0
LINE
  8
1
  6
CONTINUOUS
 62
1
 10
4.1858851E+001
 20
3.2074801E+001
 11
1.1313885E+002
 21
3.2074801E+001
  0
LINE
  8
1
  6
CONTINUOUS
 62
1
 10
4.1858851E+001
 20
2.2174801E+001
 11
1.1313885E+002
 21
2.2174801E+001
  0
LINE
  8
1
  6
CONTINUOUS
 62
40
 10
4.1858851E+001
 20
3.9994801E+001
 11
4.0815885E+002
 21
3.9994801E+001
  0
TEXT
  8
1
  6
CONTINUOUS
 62
1
 10
4.3386791E+001
 20
2.5837362E+001
 40
2.97
  1
Gezeichn.
 41
6.5E-001
 72
1
 11
5.2074041E+001
 21
2.7322362E+001
 73
2
  0
TEXT
  8
1
  6
CONTINUOUS
 62
1
 10
4.3427784E+001
 20
1.6242947E+001
 40
2.97
  1
Geprüft
 41
6.4285714E-001
 72
1
 11
5.0110284E+001
 21
1.7727947E+001
 73
2
  0
TEXT
  8
1
  6
CONTINUOUS
 62
1
 10
6.9685013E+001
 20
3.4710928E+001
 40
2.97
  1
Datum
 41
6.3E-001
 72
1
 11
7.4362763E+001
 21
3.6195928E+001
 73
2
  0
TEXT
  8
1
  6
CONTINUOUS
 62
1
 10
9.635309E+001
 20
3.4710928E+001
 40
2.97
  1
Name
 41
6.1875E-001
 72
1
 11
1.0002847E+002
 21
3.6195928E+001
 73
2
  0
LINE
  8
1
  6
CONTINUOUS
 62
1
 10
6.1658851E+001
 20
3.9994801E+001
 11
6.1658851E+001
 21
1.2274801E+001
  0
LINE
  8
1
  6
CONTINUOUS
 62
1
 10
8.7398851E+001
 20
3.9994801E+001
 11
8.7398851E+001
 21
1.2274801E+001
  0
TEXT
  8
1
  6
CONTINUOUS
 62
1
 10
6.3818808E+001
 20
2.5076233E+001
 40
3.96
  1
10.07.03
 41
6.46875E-001
 72
1
 11
7.4065308E+001
 21
2.7056233E+001
 73
2
  0
TEXT
  8
1
  6
CONTINUOUS
 62
1
 10
7.2785274E+001
 20
1.4716745E+001
 40
3.96
  1
*
 72
1
 11
7.4765274E+001
 21
1.6696745E+001
 73
2
  0
TEXT
  8
1
  6
CONTINUOUS
 62
1
 10
8.9997515E+001
 20
2.5216226E+001
 40
3.96
  1
Hartmann
 41
6.46875E-001
 72
1
 11
1.0024401E+002
 21
2.7196226E+001
 73
2
  0
TEXT
  8
1
  6
CONTINUOUS
 62
1
 10
9.8404008E+001
 20
1.4856738E+001
 40
3.96
  1
*
 72
1
 11
1.0038401E+002
 21
1.6836738E+001
 73
2
  0
TEXT
  8
1
  6
CONTINUOUS
 62
221
 10
1.1827201E+002
 20
2.7439511E+001
 40
7.92
  1
Einsteckschlösser
 41
6.6176471E-001
 72
1
 11
1.6282201E+002
 21
3.1399511E+001
 73
2
  0
TEXT
  8
1
  6
CONTINUOUS
 62
150
 10
1.1900142E+002
 20
1.5829271E+001
 40
7.0
  1
mortice locks
 41
6.5769231E-001
 72
1
 11
1.4892642E+002
 21
1.9329271E+001
 73
2
  0
LINE
  8
1
  6
CONTINUOUS
 62
40
 10
3.6261885E+002
 20
9.1474801E+001
 11
3.6261885E+002
 21
3.9994801E+001
  0
TEXT
  8
1
  6
CONTINUOUS
 62
1
 10
3.9028579E+002
 20
3.6021807E+001
 40
2.97
  1
Version:
 41
6.46875E-001
 72
1
 11
3.9797067E+002
 21
3.7506807E+001
 73
2
  0
TEXT
  8
1
  6
CONTINUOUS
 62
40
 10
3.9320028E+002
 20
2.0995672E+001
 40
9.9
  1
A
 72
1
 11
3.9815028E+002
 21
2.5945672E+001
 73
2
  0
TEXT
  8
1
  6
CONTINUOUS
 62
1
 10
8.4157175
 20
3.8934933E+001
 40
3.56
  1
Copyright    DORMA 1999 
 41
6.65625E-001
 50
9.0E+001
 72
1
 11
3.6851217E+001
 21
4.0714933E+001
 73
2
  0
CIRCLE
  8
1
  6
CONTINUOUS
 62
40
 10
3.6697604E+001
 20
3.8188126E+001
 40
1.9851937
  0
TEXT
  8
1
  6
CONTINUOUS
 62
1
 10
3.5707604E+001
 20
3.7198126E+001
 40
1.98
  1
C
 50
9.0E+001
 72
1
 11
3.6697604E+001
 21
3.8188126E+001
 73
2
  0
TEXT
  8
1
  6
CONTINUOUS
 62
6
 10
3.68648E+002
 20
5.6753333E+001
 40
1.584E+001
  1
182
 41
7.0E-001
 72
1
 11
3.8528E+002
 21
6.4673333E+001
 73
2
  0
TEXT
  8
1
  6
CONTINUOUS
 62
150
 10
3.6710443E+002
 20
9.8851553E+001
 40
7.6
  1
M. 1:2
 41
6.375E-001
 72
2
 11
3.9617443E+002
 21
9.8851553E+001
  0
TEXT
  8
1
  6
CONTINUOUS
 62
1
 10
1.1896686E+002
 20
5.953926E+001
 40
6.2
  1
way through function
 41
6.6477273E-001
 72
1
 11
1.6018277E+002
 21
6.263926E+001
 73
2
  0
LINE
  8
1
  6
CONTINUOUS
 62
40
 10
-3.7776774E+002
 20
1.9763884E+002
 11
-3.7776774E+002
 21
1.5097217E+002
  0
LINE
  8
1
  6
CONTINUOUS
 62
40
 10
-3.7776774E+002
 20
1.5097217E+002
 11
-3.6710111E+002
 21
1.5097217E+002
  0
LINE
  8
1
  6
CONTINUOUS
 62
40
 10
-3.6710111E+002
 20
1.5097217E+002
 11
-3.6710111E+002
 21
1.9763884E+002
  0
LINE
  8
1
  6
CONTINUOUS
 62
40
 10
-3.6710111E+002
 20
1.9763884E+002
 11
-3.7776774E+002
 21
1.9763884E+002
  0
LINE
  8
1
  6
CENTERLINE
 62
1
 10
-6.7088474E+002
 20
1.2563884E+002
 11
-6.5220048E+002
 21
1.2563884E+002
  0
LINE
  8
1
  6
LONG_DASH
 62
2
 10
-6.7785046E+002
 20
1.4630551E+002
 11
-6.7785046E+002
 21
1.9763884E+002
  0
LINE
  8
1
  6
CONTINUOUS
 62
40
 10
-6.631838E+002
 20
1.9763884E+002
 11
-6.9251713E+002
 21
1.9763884E+002
  0
LINE
  8
1
  6
CONTINUOUS
 62
40
 10
-6.9251713E+002
 20
1.9763884E+002
 11
-6.9251713E+002
 21
1.5097217E+002
  0
LINE
  8
1
  6
CONTINUOUS
 62
40
 10
-6.9251713E+002
 20
1.5097217E+002
 11
-6.631838E+002
 21
1.5097217E+002
  0
LINE
  8
1
  6
CONTINUOUS
 62
40
 10
-6.591838E+002
 20
3.0830551E+002
 11
-6.4051713E+002
 21
3.0830551E+002
  0
LINE
  8
1
  6
CONTINUOUS
 62
40
 10
-6.4051713E+002
 20
3.0830551E+002
 11
-6.4051713E+002
 21
2.6297217E+002
  0
LINE
  8
1
  6
CONTINUOUS
 62
40
 10
-6.4051713E+002
 20
2.6297217E+002
 11
-6.591838E+002
 21
2.6297217E+002
  0
LINE
  8
1
  6
CONTINUOUS
 62
40
 10
-6.631838E+002
 20
3.0697217E+002
 11
-6.791838E+002
 21
3.0697217E+002
  0
LINE
  8
1
  6
CONTINUOUS
 62
40
 10
-6.791838E+002
 20
3.0697217E+002
 11
-6.791838E+002
 21
2.6430551E+002
  0
LINE
  8
1
  6
CONTINUOUS
 62
40
 10
-6.791838E+002
 20
2.6430551E+002
 11
-6.631838E+002
 21
2.6430551E+002
  0
LINE
  8
1
  6
CONTINUOUS
 62
40
 10
-6.631838E+002
 20
2.6697217E+002
 11
-6.791838E+002
 21
2.6697217E+002
  0
LINE
  8
1
  6
CONTINUOUS
 62
40
 10
-6.631838E+002
 20
3.0430551E+002
 11
-6.791838E+002
 21
3.0430551E+002
  0
LINE
  8
1
  6
CENTERLINE
 62
1
 10
-6.674429E+002
 20
3.6030551E+002
 11
-6.5515063E+002
 21
3.6030551E+002
  0
LINE
  8
1
  6
CENTERLINE
 62
1
 10
-6.6891798E+002
 20
8.163884E+001
 11
-6.5515063E+002
 21
8.163884E+001
  0
LINE
  8
1
  6
CENTERLINE
 62
1
 10
-6.001211E+002
 20
1.2430551E+002
 11
-5.8155113E+002
 21
1.2430551E+002
  0
LINE
  8
1
  6
CENTERLINE
 62
1
 10
-6.0412639E+002
 20
1.5097217E+002
 11
-5.7718173E+002
 21
1.5097217E+002
  0
ARC
  8
1
  6
CONTINUOUS
 62
40
 10
-5.8985046E+002
 20
1.5097217E+002
 40
1.1466667E+001
 50
3.0637184E+002
 51
5.9362816E+002
  0
LINE
  8
1
  6
CONTINUOUS
 62
40
 10
-5.8305046E+002
 20
1.4173938E+002
 11
-5.8305046E+002
 21
1.2430551E+002
  0
ARC
  8
1
  6
CONTINUOUS
 62
40
 10
-5.8985046E+002
 20
1.2430551E+002
 40
6.8
 50
1.8E+002
 51
3.6E+002
  0
LINE
  8
1
  6
CONTINUOUS
 62
40
 10
-5.9665046E+002
 20
1.2430551E+002
 11
-5.9665046E+002
 21
1.4173938E+002
  0
LINE
  8
1
  6
CONTINUOUS
 62
40
 10
-5.9585046E+002
 20
2.4097217E+002
 11
-5.9585046E+002
 21
2.5297217E+002
  0
LINE
  8
1
  6
CONTINUOUS
 62
40
 10
-5.9585046E+002
 20
2.5297217E+002
 11
-5.8385046E+002
 21
2.5297217E+002
  0
LINE
  8
1
  6
CONTINUOUS
 62
40
 10
-5.8385046E+002
 20
2.5297217E+002
 11
-5.8385046E+002
 21
2.4097217E+002
  0
LINE
  8
1
  6
CONTINUOUS
 62
40
 10
-5.8385046E+002
 20
2.4097217E+002
 11
-5.9585046E+002
 21
2.4097217E+002
  0
LINE
  8
1
  6
CENTERLINE
 62
1
 10
-6.151838E+002
 20
2.5768887E+002
 11
-6.151838E+002
 21
2.353754E+002
  0
LINE
  8
1
  6
CENTERLINE
 62
1
 10
-5.7523383E+002
 20
1.4030551E+002
 11
-5.5292036E+002
 21
1.4030551E+002
  0
LINE
  8
1
  6
CENTERLINE
 62
1
 10
-6.259005E+002
 20
1.4030551E+002
 11
-6.0358703E+002
 21
1.4030551E+002
  0
LINE
  8
1
  6
CENTERLINE
 62
1
 10
-6.0056716E+002
 20
3.0830551E+002
 11
-5.7825369E+002
 21
3.0830551E+002
  0
LINE
  8
1
  6
CENTERLINE
 62
1
 10
-6.0056716E+002
 20
2.1830551E+002
 11
-5.7825369E+002
 21
2.1830551E+002
  0
LINE
  8
1
  6
CENTERLINE
 62
1
 10
-5.6451713E+002
 20
1.5102221E+002
 11
-5.6451713E+002
 21
1.2870874E+002
  0
LINE
  8
1
  6
CENTERLINE
 62
1
 10
-6.151838E+002
 20
1.5102221E+002
 11
-6.151838E+002
 21
1.2870874E+002
  0
LINE
  8
1
  6
CENTERLINE
 62
1
 10
-5.6451713E+002
 20
2.5768887E+002
 11
-5.6451713E+002
 21
2.353754E+002
  0
CIRCLE
  8
1
  6
CONTINUOUS
 62
40
 10
-5.6451713E+002
 20
2.4697217E+002
 40
6.666668
  0
CIRCLE
  8
1
  6
CONTINUOUS
 62
40
 10
-5.8985046E+002
 20
2.1830551E+002
 40
6.666666
  0
CIRCLE
  8
1
  6
CONTINUOUS
 62
40
 10
-6.151838E+002
 20
1.4030551E+002
 40
6.666666
  0
CIRCLE
  8
1
  6
CONTINUOUS
 62
40
 10
-5.6451713E+002
 20
1.4030551E+002
 40
6.666668
  0
CIRCLE
  8
1
  6
CONTINUOUS
 62
40
 10
-5.8985046E+002
 20
2.4697217E+002
 40
1.4666666E+001
  0
CIRCLE
  8
1
  6
CONTINUOUS
 62
40
 10
-6.151838E+002
 20
2.4697217E+002
 40
6.666666
  0
CIRCLE
  8
1
  6
CONTINUOUS
 62
40
 10
-5.8985046E+002
 20
3.0830551E+002
 40
6.666666
  0
LINE
  8
1
  6
CENTERLINE
 62
1
 10
-5.5571999E+002
 20
2.4697217E+002
 11
-6.3368888E+002
 21
2.4697217E+002
  0
LINE
  8
1
  6
CONTINUOUS
 62
40
 10
-6.591838E+002
 20
3.3097217E+002
 11
-5.5251713E+002
 21
3.3097217E+002
  0
LINE
  8
1
  6
CONTINUOUS
 62
40
 10
-5.5251713E+002
 20
3.3097217E+002
 11
-5.4585046E+002
 21
3.2430551E+002
  0
LINE
  8
1
  6
CONTINUOUS
 62
40
 10
-5.4585046E+002
 20
3.2430551E+002
 11
-5.4585046E+002
 21
1.1763884E+002
  0
LINE
  8
1
  6
CONTINUOUS
 62
40
 10
-5.4585046E+002
 20
1.1763884E+002
 11
-5.5251713E+002
 21
1.1097217E+002
  0
LINE
  8
1
  6
CONTINUOUS
 62
40
 10
-5.5251713E+002
 20
1.1097217E+002
 11
-6.591838E+002
 21
1.1097217E+002
  0
LINE
  8
1
  6
CENTERLINE
 62
1
 10
-5.8985046E+002
 20
1.0841954E+002
 11
-5.8985046E+002
 21
3.3770955E+002
  0
LINE
  8
1
  6
CONTINUOUS
 62
40
 10
-6.631838E+002
 20
6.4305507E+001
 11
-6.631838E+002
 21
3.7763884E+002
  0
LINE
  8
1
  6
CONTINUOUS
 62
40
 10
-6.631838E+002
 20
3.7763884E+002
 11
-6.591838E+002
 21
3.7763884E+002
  0
LINE
  8
1
  6
CONTINUOUS
 62
40
 10
-6.591838E+002
 20
3.7763884E+002
 11
-6.591838E+002
 21
6.4305507E+001
  0
LINE
  8
1
  6
CONTINUOUS
 62
40
 10
-6.591838E+002
 20
6.4305507E+001
 11
-6.631838E+002
 21
6.4305507E+001
  0
LINE
  8
1
  6
CONTINUOUS
 62
40
 10
-3.7776774E+002
 20
1.9763884E+002
 11
-3.7776774E+002
 21
1.5097217E+002
  0
LINE
  8
1
  6
CONTINUOUS
 62
40
 10
-3.7776774E+002
 20
1.5097217E+002
 11
-3.6710111E+002
 21
1.5097217E+002
  0
LINE
  8
1
  6
CONTINUOUS
 62
40
 10
-3.6710111E+002
 20
1.5097217E+002
 11
-3.6710111E+002
 21
1.9763884E+002
  0
LINE
  8
1
  6
CONTINUOUS
 62
40
 10
-3.6710111E+002
 20
1.9763884E+002
 11
-3.7776774E+002
 21
1.9763884E+002
  0
LINE
  8
1
  6
CONTINUOUS
 62
40
 10
-3.7776774E+002
 20
1.9763884E+002
 11
-3.7776774E+002
 21
1.9763884E+002
  0
LINE
  8
1
  6
CONTINUOUS
 62
40
 10
-3.7550107E+002
 20
2.6697217E+002
 11
-3.7550107E+002
 21
3.0430551E+002
  0
LINE
  8
1
  6
CONTINUOUS
 62
40
 10
-3.7816774E+002
 20
2.6430551E+002
 11
-3.7816774E+002
 21
3.0697217E+002
  0
LINE
  8
1
  6
CONTINUOUS
 62
40
 10
-3.7816774E+002
 20
3.0697217E+002
 11
-3.7550107E+002
 21
3.0697217E+002
  0
LINE
  8
1
  6
CONTINUOUS
 62
40
 10
-3.7550107E+002
 20
3.0697217E+002
 11
-3.7550107E+002
 21
3.0430551E+002
  0
LINE
  8
1
  6
CONTINUOUS
 62
40
 10
-3.7550107E+002
 20
3.0430551E+002
 11
-3.5950107E+002
 21
3.0430551E+002
  0
LINE
  8
1
  6
CONTINUOUS
 62
40
 10
-3.5950107E+002
 20
3.0430551E+002
 11
-3.5950107E+002
 21
2.6697217E+002
  0
LINE
  8
1
  6
CONTINUOUS
 62
40
 10
-3.5950107E+002
 20
2.6697217E+002
 11
-3.7550107E+002
 21
2.6697217E+002
  0
LINE
  8
1
  6
CONTINUOUS
 62
40
 10
-3.7550107E+002
 20
2.6697217E+002
 11
-3.7550107E+002
 21
2.6430551E+002
  0
LINE
  8
1
  6
CONTINUOUS
 62
40
 10
-3.7550107E+002
 20
2.6430551E+002
 11
-3.7816774E+002
 21
2.6430551E+002
  0
LINE
  8
1
  6
HIDDEN
 62
1
 10
-3.8616774E+002
 20
8.163884E+001
 11
-3.8616774E+002
 21
6.4305507E+001
  0
LINE
  8
1
  6
HIDDEN
 62
1
 10
-3.8616774E+002
 20
6.4305507E+001
 11
-3.5416774E+002
 21
6.4305507E+001
  0
LINE
  8
1
  6
HIDDEN
 62
1
 10
-3.5416774E+002
 20
6.4305507E+001
 11
-3.5416774E+002
 21
8.163884E+001
  0
LINE
  8
1
  6
HIDDEN
 62
1
 10
-3.5416774E+002
 20
3.6030551E+002
 11
-3.5416774E+002
 21
3.7763884E+002
  0
LINE
  8
1
  6
HIDDEN
 62
1
 10
-3.5416774E+002
 20
3.7763884E+002
 11
-3.8616774E+002
 21
3.7763884E+002
  0
LINE
  8
1
  6
HIDDEN
 62
1
 10
-3.8616774E+002
 20
3.7763884E+002
 11
-3.8616774E+002
 21
3.6030551E+002
  0
CIRCLE
  8
1
  6
CONTINUOUS
 62
40
 10
-3.7150107E+002
 20
1.2563884E+002
 40
4.0
  0
CIRCLE
  8
1
  6
CONTINUOUS
 62
40
 10
-3.7150107E+002
 20
1.2563884E+002
 40
6.666666
  0
LINE
  8
1
  6
CENTERLINE
 62
1
 10
-3.7150107E+002
 20
1.1420418E+002
 11
-3.7150107E+002
 21
1.3483261E+002
  0
LINE
  8
1
  6
CENTERLINE
 62
1
 10
-3.8006208E+002
 20
1.2563884E+002
 11
-3.6135258E+002
 21
1.2563884E+002
  0
CIRCLE
  8
1
  6
CONTINUOUS
 62
40
 10
-3.7016774E+002
 20
3.6030551E+002
 40
6.666668
  0
CIRCLE
  8
1
  6
CONTINUOUS
 62
40
 10
-3.7016774E+002
 20
8.163884E+001
 40
6.666668
  0
CIRCLE
  8
1
  6
CONTINUOUS
 62
40
 10
-3.7016774E+002
 20
8.163884E+001
 40
4.0
  0
CIRCLE
  8
1
  6
CONTINUOUS
 62
40
 10
-3.7016774E+002
 20
3.6030551E+002
 40
4.0
  0
LINE
  8
1
  6
CENTERLINE
 62
1
 10
-3.9027136E+002
 20
8.163884E+001
 11
-3.5128691E+002
 21
8.163884E+001
  0
LINE
  8
1
  6
CENTERLINE
 62
1
 10
-3.9232318E+002
 20
3.6030551E+002
 11
-3.5128691E+002
 21
3.6030551E+002
  0
LINE
  8
1
  6
CENTERLINE
 62
1
 10
-3.7016774E+002
 20
1.4425908E+002
 11
-3.7016774E+002
 21
3.8541429E+002
  0
LINE
  8
1
  6
CENTERLINE
 62
1
 10
-3.7016774E+002
 20
5.6098253E+001
 11
-3.7016774E+002
 21
1.0391898E+002
  0
LINE
  8
1
  6
CENTERLINE
 62
1
 10
-3.7016774E+002
 20
1.0391898E+002
 11
-3.7016774E+002
 21
1.4425908E+002
  0
ARC
  8
1
  6
CONTINUOUS
 62
40
 10
-3.7016774E+002
 20
8.0305507E+001
 40
1.6E+001
 50
1.8E+002
 51
2.7E+002
  0
LINE
  8
1
  6
CONTINUOUS
 62
40
 10
-3.8616774E+002
 20
8.0305507E+001
 11
-3.8616774E+002
 21
3.6163884E+002
  0
ARC
  8
1
  6
CONTINUOUS
 62
40
 10
-3.7016774E+002
 20
3.6163884E+002
 40
1.6E+001
 50
8.9999999E+001
 51
1.8E+002
  0
LINE
  8
1
  6
CONTINUOUS
 62
40
 10
-3.7016774E+002
 20
3.7763884E+002
 11
-3.700344E+002
 21
3.7763884E+002
  0
ARC
  8
1
  6
CONTINUOUS
 62
40
 10
-3.700344E+002
 20
3.6177217E+002
 40
1.5866666E+001
 50
1.5673E-006
 51
8.9999998E+001
  0
LINE
  8
1
  6
CONTINUOUS
 62
40
 10
-3.5416774E+002
 20
3.6177217E+002
 11
-3.5416774E+002
 21
8.0172173E+001
  0
ARC
  8
1
  6
CONTINUOUS
 62
40
 10
-3.7003441E+002
 20
8.0172173E+001
 40
1.5866668E+001
 50
2.7000001E+002
 51
3.6E+002
  0
LINE
  8
1
  6
CONTINUOUS
 62
40
 10
-3.700344E+002
 20
6.4305507E+001
 11
-3.7016774E+002
 21
6.4305507E+001
  0
LINE
  8
1
  6
CONTINUOUS
 62
40
 10
-6.791838E+002
 20
-6.0096214E+001
 11
-6.9251713E+002
 21
-6.0096214E+001
  0
LINE
  8
1
  6
CONTINUOUS
 62
40
 10
-6.9251713E+002
 20
-6.0096214E+001
 11
-6.9251713E+002
 21
-7.0762938E+001
  0
LINE
  8
1
  6
CONTINUOUS
 62
40
 10
-6.9251713E+002
 20
-7.0762938E+001
 11
-6.7078374E+002
 21
-7.0762938E+001
  0
LINE
  8
1
  6
CENTERLINE
 62
1
 10
-5.8985046E+002
 20
-8.0279263E+001
 11
-5.8985046E+002
 21
-5.2492076E+001
  0
LINE
  8
1
  6
CONTINUOUS
 62
40
 10
-6.631838E+002
 20
-5.9696214E+001
 11
-6.791838E+002
 21
-5.9696214E+001
  0
LINE
  8
1
  6
CONTINUOUS
 62
40
 10
-6.791838E+002
 20
-5.9696214E+001
 11
-6.791838E+002
 21
-6.2362881E+001
  0
LINE
  8
1
  6
CONTINUOUS
 62
40
 10
-6.791838E+002
 20
-6.2362881E+001
 11
-6.631838E+002
 21
-7.8362881E+001
  0
LINE
  8
1
  6
CONTINUOUS
 62
40
 10
-6.631838E+002
 20
-6.2362881E+001
 11
-6.791838E+002
 21
-6.2362881E+001
  0
LINE
  8
1
  6
CONTINUOUS
 62
40
 10
-6.631838E+002
 20
-8.3696214E+001
 11
-6.631838E+002
 21
-5.1696214E+001
  0
LINE
  8
1
  6
CONTINUOUS
 62
40
 10
-6.631838E+002
 20
-5.1696214E+001
 11
-6.591838E+002
 21
-5.1696214E+001
  0
LINE
  8
1
  6
CONTINUOUS
 62
40
 10
-6.591838E+002
 20
-5.1696214E+001
 11
-6.591838E+002
 21
-5.7029547E+001
  0
LINE
  8
1
  6
CONTINUOUS
 62
40
 10
-6.591838E+002
 20
-5.7029547E+001
 11
-6.591838E+002
 21
-8.3696214E+001
  0
LINE
  8
1
  6
CONTINUOUS
 62
40
 10
-6.591838E+002
 20
-8.3696214E+001
 11
-6.631838E+002
 21
-8.3696214E+001
  0
LINE
  8
1
  6
CONTINUOUS
 62
40
 10
-6.0451713E+002
 20
-5.7029547E+001
 11
-6.0451713E+002
 21
-5.6029547E+001
  0
LINE
  8
1
  6
CONTINUOUS
 62
40
 10
-6.0451713E+002
 20
-5.6029547E+001
 11
-5.751838E+002
 21
-5.6029547E+001
  0
LINE
  8
1
  6
CONTINUOUS
 62
40
 10
-5.751838E+002
 20
-5.6029547E+001
 11
-5.751838E+002
 21
-5.7029547E+001
  0
LINE
  8
1
  6
CONTINUOUS
 62
40
 10
-6.0451713E+002
 20
-7.5696214E+001
 11
-6.0451713E+002
 21
-7.6696214E+001
  0
LINE
  8
1
  6
CONTINUOUS
 62
40
 10
-6.0451713E+002
 20
-7.6696214E+001
 11
-5.751838E+002
 21
-7.6696214E+001
  0
LINE
  8
1
  6
CONTINUOUS
 62
40
 10
-5.751838E+002
 20
-7.6696214E+001
 11
-5.751838E+002
 21
-7.5696214E+001
  0
LINE
  8
1
  6
CONTINUOUS
 62
40
 10
-6.591838E+002
 20
-5.7029547E+001
 11
-5.4585046E+002
 21
-5.7029547E+001
  0
LINE
  8
1
  6
CONTINUOUS
 62
40
 10
-5.4585046E+002
 20
-5.7029547E+001
 11
-5.4585046E+002
 21
-7.5696214E+001
  0
LINE
  8
1
  6
CONTINUOUS
 62
40
 10
-5.4585046E+002
 20
-7.5696214E+001
 11
-6.591838E+002
 21
-7.5696214E+001
  0
LINE
  8
1
  6
CONTINUOUS
 62
40
 10
-6.591838E+002
 20
-7.5696214E+001
 11
-6.591838E+002
 21
-5.7029547E+001
  0
LINE
  8
1
  6
CONTINUOUS
 62
40
 10
-6.591838E+002
 20
-5.7029547E+001
 11
-6.591838E+002
 21
-5.7029547E+001
  0
LINE
  8
1
  6
CONTINUOUS
 62
40
 10
-5.5251713E+002
 20
-7.5696214E+001
 11
-5.5251713E+002
 21
-5.7029547E+001
  0
LINE
  8
1
  6
CONTINUOUS
 62
40
 10
-6.2176278E+002
 20
2.7974596E+002
 11
-6.2176278E+002
 21
2.8241263E+002
  0
LINE
  8
1
  6
CONTINUOUS
 62
40
 10
-6.2176278E+002
 20
2.8241263E+002
 11
-6.2176278E+002
 21
2.8374596E+002
  0
LINE
  8
1
  6
CONTINUOUS
 62
40
 10
-6.2176278E+002
 20
2.8374596E+002
 11
-6.2176278E+002
 21
2.850793E+002
  0
LINE
  8
1
  6
CONTINUOUS
 62
40
 10
-6.2176278E+002
 20
2.850793E+002
 11
-6.1642945E+002
 21
2.850793E+002
  0
LINE
  8
1
  6
CONTINUOUS
 62
40
 10
-6.1642945E+002
 20
2.850793E+002
 11
-6.1642945E+002
 21
2.7974596E+002
  0
LINE
  8
1
  6
CONTINUOUS
 62
40
 10
-6.1642945E+002
 20
2.7974596E+002
 11
-6.2176278E+002
 21
2.7974596E+002
  0
TEXT
  8
1
  6
CONTINUOUS
 62
40
 10
-3.8201725E+002
 20
2.4300149E+001
 40
9.3333333
  1
(20)
 41
6.1875E-001
 72
1
 11
-3.7046725E+002
 21
2.8966816E+001
 73
2
  0
TEXT
  8
1
  6
CONTINUOUS
 62
40
 10
-4.0456983E+002
 20
3.042062E+002
 40
9.3333333
  1
(3)
 41
6.0E-001
 72
1
 11
-3.9616983E+002
 21
3.0887286E+002
 73
2
  0
TEXT
  8
1
  6
CONTINUOUS
 62
40
 10
-4.1860951E+002
 20
1.9010279E+002
 40
9.3333333
  1
(3.3)
 41
6.3E-001
 72
1
 11
-4.0390951E+002
 21
1.9476946E+002
 73
2
  0
TEXT
  8
1
  6
CONTINUOUS
 62
40
 10
-6.4700285E+002
 20
-1.9230538E+001
 40
9.3333333
  1
(1)
 41
6.0E-001
 50
9.0E+001
 72
1
 11
-6.3860285E+002
 21
-1.4563872E+001
 73
2
  0
TEXT
  8
1
  6
CONTINUOUS
 62
6
 10
-6.298796E+002
 20
3.4382004E+001
 40
1.0666667E+001
  1
D=
 41
5.625E-001
 72
1
 11
-6.238796E+002
 21
3.9715337E+001
 73
2
  0
DIMENSION
  8
1
  6
CONTINUOUS
 62
4
  2
*D1650
  3
DSTYLE7
 10
-6.2991221E+002
 20
-5.1696214E+001
 11
-6.3768688E+002
 21
-2.9689046E+001
 70
128
 13
-6.0451713E+002
 23
-5.6029547E+001
 14
-6.591838E+002
 24
-5.1696214E+001
 40
3.0
 50
9.0E+001
1001
ACAD
1000
DSTYLE
1002
{
1070
173
1070
0
1070
5
1000
_AH13
1002
}
  0
DIMENSION
  8
1
  6
CONTINUOUS
 62
4
  1
15.5
  2
*D1661
  3
DSTYLE8
 10
-5.1385046E+002
 20
-5.6029547E+001
 11
-5.2162513E+002
 21
-2.5436824E+001
 70
128
 13
-5.751838E+002
 23
-7.6696214E+001
 14
-5.751838E+002
 24
-5.6029547E+001
 40
3.0
 50
9.0E+001
1001
ACAD
1000
DSTYLE
1002
{
1070
173
1070
0
1070
5
1000
_AH13
1002
}
  0
DIMENSION
  8
1
  6
CONTINUOUS
 62
4
  1
14
  2
*D1674
  3
DSTYLE7
 10
-5.2985046E+002
 20
-5.7029547E+001
 11
-5.3762513E+002
 21
-3.1161825E+001
 70
128
 13
-5.4585046E+002
 23
-7.5696214E+001
 14
-5.4585046E+002
 24
-5.7029547E+001
 40
3.0
 50
9.0E+001
1001
ACAD
1000
DSTYLE
1002
{
1070
173
1070
0
1070
5
1000
_AH13
1002
}
  0
DIMENSION
  8
1
  6
CONTINUOUS
 62
4
  1
11
  2
*D1685
  3
DSTYLE7
 10
-3.8616774E+002
 20
1.1309988E+002
 11
-4.0165574E+002
 21
1.2087454E+002
 70
128
 13
-3.7150107E+002
 23
1.1420418E+002
 14
-3.8616774E+002
 24
1.1204208E+002
 40
3.0
 50
1.8E+002
1001
ACAD
1000
DSTYLE
1002
{
1070
173
1070
0
1070
5
1000
_AH13
1002
}
  0
DIMENSION
  8
1
  6
CONTINUOUS
 62
4
  1
24
  2
*D1694
  3
DSTYLE7
 10
-3.5416774E+002
 20
4.0111649E+001
 11
-3.7031424E+002
 21
4.7886316E+001
 70
128
 13
-3.8616774E+002
 23
6.4305507E+001
 14
-3.5416774E+002
 24
6.4305507E+001
 40
3.0
 50
0.0
1001
ACAD
1000
DSTYLE
1002
{
1070
173
1070
0
1070
5
1000
_AH13
1002
}
  0
DIMENSION
  8
1
  6
CONTINUOUS
 62
4
  1
13
  2
*D1703
  3
DSTYLE7
 10
-4.0216774E+002
 20
3.7763884E+002
 11
-4.099424E+002
 21
4.0350656E+002
 70
128
 13
-3.9232318E+002
 23
3.6030551E+002
 14
-3.8616774E+002
 24
3.7763884E+002
 40
3.0
 50
9.0E+001
1001
ACAD
1000
DSTYLE
1002
{
1070
173
1070
0
1070
5
1000
_AH13
1002
}
  0
DIMENSION
  8
1
  6
CONTINUOUS
 62
4
  1
13
  2
*D1714
  3
DSTYLE7
 10
-4.0216774E+002
 20
6.4305507E+001
 11
-4.099424E+002
 21
3.6123895E+001
 70
128
 13
-3.9027136E+002
 23
8.163884E+001
 14
-3.8616774E+002
 24
6.4305507E+001
 40
3.0
 50
-9.0E+001
1001
ACAD
1000
DSTYLE
1002
{
1070
173
1070
0
1070
5
1000
_AH13
1002
}
  0
DIMENSION
  8
1
  6
CONTINUOUS
 62
4
  1
6
  2
*D1725
  3
DSTYLE7
 10
-3.8616774E+002
 20
3.2201545E+002
 11
-4.0333028E+002
 21
3.2979012E+002
 70
128
 13
-3.7816774E+002
 23
3.0697217E+002
 14
-3.8616774E+002
 24
3.1037965E+002
 40
3.0
 50
1.8E+002
1001
ACAD
1000
DSTYLE
1002
{
1070
173
1070
0
1070
5
1000
_AH13
1002
}
  0
DIMENSION
  8
1
  6
CONTINUOUS
 62
4
  1
14
  2
*D1736
  3
DSTYLE7
 10
-3.5950107E+002
 20
2.4638272E+002
 11
-3.3363335E+002
 21
2.5415739E+002
 70
128
 13
-3.7816774E+002
 23
2.6430551E+002
 14
-3.5950107E+002
 24
2.6697217E+002
 40
3.0
 50
0.0
1001
ACAD
1000
DSTYLE
1002
{
1070
173
1070
0
1070
5
1000
_AH13
1002
}
  0
DIMENSION
  8
1
  6
CONTINUOUS
 62
4
  1
6.3
  2
*D1747
  3
DSTYLE8
 10
-3.8616774E+002
 20
2.0671613E+002
 11
-4.0559929E+002
 21
2.144908E+002
 70
128
 13
-3.7776774E+002
 23
1.9763884E+002
 14
-3.8616774E+002
 24
2.0089731E+002
 40
3.0
 50
1.8E+002
1001
ACAD
1000
DSTYLE
1002
{
1070
173
1070
0
1070
5
1000
_AH13
1002
}
  0
DIMENSION
  8
1
  6
CONTINUOUS
 62
4
  1
11
  2
*D1758
  3
DSTYLE7
 10
-6.631838E+002
 20
2.1363884E+002
 11
-7.0131607E+002
 21
2.2141351E+002
 70
128
 13
-6.7785046E+002
 23
1.9763884E+002
 14
-6.631838E+002
 24
2.0785805E+002
 40
3.0
 50
0.0
1001
ACAD
1000
DSTYLE
1002
{
1070
173
1070
0
1070
5
1000
_AH13
1002
}
  0
INSERT
  2
_D40
  8
1
 10
0.0
 20
0.0
  0
DIMENSION
  8
1
  6
CONTINUOUS
 62
4
  1
12
  2
*D1772
  3
DSTYLE7
 10
-6.791838E+002
 20
3.2297217E+002
 11
-7.0736541E+002
 21
3.3074684E+002
 70
128
 13
-6.631838E+002
 23
3.0697217E+002
 14
-6.791838E+002
 24
3.0697217E+002
 40
3.0
 50
1.8E+002
1001
ACAD
1000
DSTYLE
1002
{
1070
173
1070
0
1070
5
1000
_AH13
1002
}
  0
DIMENSION
  8
1
  6
CONTINUOUS
 62
4
  1
17
  2
*D1783
  3
DSTYLE7
 10
-5.2985046E+002
 20
3.3097217E+002
 11
-5.3762513E+002
 21
3.1969419E+002
 70
128
 13
-5.7825369E+002
 23
3.0830551E+002
 14
-5.5251713E+002
 24
3.3097217E+002
 40
3.0
 50
9.0E+001
1001
ACAD
1000
DSTYLE
1002
{
1070
173
1070
0
1070
5
1000
_AH13
1002
}
  0
DIMENSION
  8
1
  6
CONTINUOUS
 62
4
  1
46
  2
*D1784
  3
DSTYLE7
 10
-5.2985046E+002
 20
3.0830551E+002
 11
-5.3762513E+002
 21
2.764819E+002
 70
128
 13
-5.5571999E+002
 23
2.4697217E+002
 14
-5.7825369E+002
 24
3.0830551E+002
 40
3.0
 50
9.0E+001
1001
ACAD
1000
DSTYLE
1002
{
1070
173
1070
0
1070
5
1000
_AH13
1002
}
  0
DIMENSION
  8
1
  6
CONTINUOUS
 62
4
  1
21.5
  2
*D1785
  3
DSTYLE8
 10
-5.2985046E+002
 20
2.4697217E+002
 11
-5.3762513E+002
 21
2.3023156E+002
 70
128
 13
-5.7825369E+002
 23
2.1830551E+002
 14
-5.5571999E+002
 24
2.4697217E+002
 40
3.0
 50
9.0E+001
1001
ACAD
1000
DSTYLE
1002
{
1070
173
1070
0
1070
5
1000
_AH13
1002
}
  0
DIMENSION
  8
1
  6
CONTINUOUS
 62
4
  1
72
  2
*D1806
  3
DSTYLE7
 10
-4.9785046E+002
 20
2.4697217E+002
 11
-5.0562513E+002
 21
1.9781523E+002
 70
128
 13
-5.7718173E+002
 23
1.5097217E+002
 14
-5.3342789E+002
 24
2.4697217E+002
 40
3.0
 50
9.0E+001
1001
ACAD
1000
DSTYLE
1002
{
1070
173
1070
0
1070
5
1000
_AH13
1002
}
  0
DIMENSION
  8
1
  6
CONTINUOUS
 62
4
  1
8
  2
*D1815
  3
DSTYLE7
 10
-5.1385046E+002
 20
1.4030551E+002
 11
-5.2162513E+002
 21
1.3130447E+002
 70
128
 13
-5.4992213E+002
 23
1.5097217E+002
 14
-5.5292036E+002
 24
1.4030551E+002
 40
3.0
 50
-9.0E+001
1001
ACAD
1000
DSTYLE
1002
{
1070
173
1070
0
1070
5
1000
_AH13
1002
}
  0
DIMENSION
  8
1
  6
CONTINUOUS
 62
4
  1
165
  2
*D1826
  3
DSTYLE7
 10
-4.8185046E+002
 20
3.3097217E+002
 11
-4.8962513E+002
 21
2.245125E+002
 70
128
 13
-5.5251713E+002
 23
1.1097217E+002
 14
-5.3684049E+002
 24
3.3097217E+002
 40
3.0
 50
9.0E+001
1001
ACAD
1000
DSTYLE
1002
{
1070
173
1070
0
1070
5
1000
_AH13
1002
}
  0
DIMENSION
  8
1
  6
CONTINUOUS
 62
4
  1
3
  2
*D1835
  3
DSTYLE7
 10
-6.631838E+002
 20
4.8305507E+001
 11
-6.8742791E+002
 21
5.6080173E+001
 70
128
 13
-6.591838E+002
 23
6.4305507E+001
 14
-6.631838E+002
 24
6.4305507E+001
 40
3.0
 50
1.8E+002
1001
ACAD
1000
DSTYLE
1002
{
1070
173
1070
0
1070
5
1000
_AH13
1002
}
  0
DIMENSION
  8
1
  6
CONTINUOUS
 62
4
  1
235
  2
*D1846
  3
DSTYLE7
 10
-7.4051713E+002
 20
3.7763884E+002
 11
-7.482918E+002
 21
2.1902773E+002
 70
128
 13
-6.631838E+002
 23
6.4305507E+001
 14
-6.9278752E+002
 24
3.7763884E+002
 40
3.0
 50
9.0E+001
1001
ACAD
1000
DSTYLE
1002
{
1070
173
1070
0
1070
5
1000
_AH13
1002
}
  0
DIMENSION
  8
1
  6
CONTINUOUS
 62
4
  1
53
  2
*D1855
  3
DSTYLE7
 10
-7.2451713E+002
 20
3.7763884E+002
 11
-7.322918E+002
 21
3.4114856E+002
 70
128
 13
-6.791838E+002
 23
3.0697217E+002
 14
-6.631838E+002
 24
3.7763884E+002
 40
3.0
 50
9.0E+001
1001
ACAD
1000
DSTYLE
1002
{
1070
173
1070
0
1070
5
1000
_AH13
1002
}
  0
DIMENSION
  8
1
  6
CONTINUOUS
 62
4
  1
32
  2
*D1856
  3
DSTYLE7
 10
-7.2451713E+002
 20
3.0697217E+002
 11
-7.322918E+002
 21
2.844819E+002
 70
128
 13
-6.791838E+002
 23
2.6430551E+002
 14
-6.791838E+002
 24
3.0697217E+002
 40
3.0
 50
9.0E+001
1001
ACAD
1000
DSTYLE
1002
{
1070
173
1070
0
1070
5
1000
_AH13
1002
}
  0
DIMENSION
  8
1
  6
CONTINUOUS
 62
4
  1
50
  2
*D1857
  3
DSTYLE7
 10
-7.2451713E+002
 20
2.6430551E+002
 11
-7.322918E+002
 21
2.2981523E+002
 70
128
 13
-6.9251713E+002
 23
1.9763884E+002
 14
-6.791838E+002
 24
2.6430551E+002
 40
3.0
 50
9.0E+001
1001
ACAD
1000
DSTYLE
1002
{
1070
173
1070
0
1070
5
1000
_AH13
1002
}
  0
DIMENSION
  8
1
  6
CONTINUOUS
 62
4
  1
35
  2
*D1858
  3
DSTYLE7
 10
-7.2451713E+002
 20
1.9763884E+002
 11
-7.322918E+002
 21
1.7314856E+002
 70
128
 13
-6.9251713E+002
 23
1.5097217E+002
 14
-6.9251713E+002
 24
1.9763884E+002
 40
3.0
 50
9.0E+001
1001
ACAD
1000
DSTYLE
1002
{
1070
173
1070
0
1070
5
1000
_AH13
1002
}
  0
DIMENSION
  8
1
  6
CONTINUOUS
 62
4
  1
35
  2
*D1885
  3
DSTYLE7
 10
-4.8185046E+002
 20
3.7763884E+002
 11
-4.8962513E+002
 21
3.5314856E+002
 70
128
 13
-5.0371826E+002
 23
3.3097217E+002
 14
-6.591838E+002
 24
3.7763884E+002
 40
3.0
 50
9.0E+001
1001
ACAD
1000
DSTYLE
1002
{
1070
173
1070
0
1070
5
1000
_AH13
1002
}
  0
DIMENSION
  8
1
  6
CONTINUOUS
 62
4
  1
38
  2
*D1894
  3
DSTYLE7
 10
-6.151838E+002
 20
9.2305507E+001
 11
-5.8763161E+002
 21
1.0008017E+002
 70
128
 13
-5.6451713E+002
 23
1.2870874E+002
 14
-6.151838E+002
 24
1.2870874E+002
 40
3.0
 50
1.8E+002
1001
ACAD
1000
DSTYLE
1002
{
1070
173
1070
0
1070
5
1000
_AH13
1002
}
  0
DIMENSION
  8
1
  6
CONTINUOUS
 62
4
  1
(55) 65 (100)
  2
*D1903
  3
DSTYLE7
 10
-6.631838E+002
 20
1.4316128E+001
 11
-6.3664096E+002
 21
2.2090795E+001
 70
128
 13
-5.8985046E+002
 23
1.0841954E+002
 14
-6.631838E+002
 24
5.276407E+001
 40
3.0
 50
1.8E+002
1001
ACAD
1000
DSTYLE
1002
{
1070
173
1070
0
1070
5
1000
_AH13
1002
}
  0
DIMENSION
  8
1
  6
CONTINUOUS
 62
4
  1
33
  2
*D1904
  3
DSTYLE7
 10
-5.8985046E+002
 20
3.2305507E+001
 11
-5.6900741E+002
 21
4.0080173E+001
 70
128
 13
-5.4585046E+002
 23
1.1763884E+002
 14
-5.8985046E+002
 24
1.0841954E+002
 40
3.0
 50
1.8E+002
1001
ACAD
1000
DSTYLE
1002
{
1070
173
1070
0
1070
5
1000
_AH13
1002
}
  0
DIMENSION
  8
1
  6
CONTINUOUS
 62
4
  1
9
  2
*D1920
  3
DSTYLE7
 10
-5.9585046E+002
 20
2.7641177E+002
 11
-6.0794754E+002
 21
2.8418643E+002
 70
128
 13
-5.8385046E+002
 23
2.5297217E+002
 14
-5.9585046E+002
 24
2.5297217E+002
 40
3.0
 50
1.8E+002
1001
ACAD
1000
DSTYLE
1002
{
1070
173
1070
0
1070
5
1000
_AH13
1002
}
  0
INSERT
  2
_D59
  8
1
 10
0.0
 20
0.0
  0
DIMENSION
  8
1
  6
CONTINUOUS
 62
4
  1
8
  2
*D1934
  3
DSTYLE9
 10
-3.6710111E+002
 20
1.3763879E+002
 11
-3.4315189E+002
 21
1.4652413E+002
 70
128
 13
-3.7776774E+002
 23
1.5097217E+002
 14
-3.6710111E+002
 24
1.5097217E+002
 40
3.0
 50
0.0
1001
ACAD
1000
DSTYLE
1002
{
1070
173
1070
0
1070
5
1000
_AH13
1002
}
  0
DIMENSION
  8
1
  6
CONTINUOUS
 62
4
  1
22
  2
*D1946
  3
DSTYLE9
 10
-6.9251713E+002
 20
1.3035897E+002
 11
-6.7975741E+002
 21
1.392443E+002
 70
128
 13
-6.631838E+002
 23
1.5097217E+002
 14
-6.9251713E+002
 24
1.5097217E+002
 40
3.0
 50
1.8E+002
1001
ACAD
1000
DSTYLE
1002
{
1070
173
1070
0
1070
5
1000
_AH13
1002
}
  0
DIMENSION
  8
1
  6
CONTINUOUS
 62
4
  1
235
  2
*D1955
  3
DSTYLE9
 10
-4.2313542E+002
 20
3.7763884E+002
 11
-4.3202076E+002
 21
2.1782773E+002
 70
128
 13
-4.0216774E+002
 23
6.4305507E+001
 14
-4.0216774E+002
 24
3.7763884E+002
 40
3.0
 50
9.0E+001
1001
ACAD
1000
DSTYLE
1002
{
1070
173
1070
0
1070
5
1000
_AH13
1002
}
  0
DIMENSION
  8
1
  6
CONTINUOUS
 62
4
  2
*D1977
  3
DSTYLE1
 10
2.5244096E+002
 20
4.2393804E+002
 11
2.4689118E+002
 21
4.5458204E+002
 70
128
 13
2.4047039E+002
 23
4.8693804E+002
 14
2.4652914E+002
 24
4.2393804E+002
 40
3.0
 50
9.0E+001
1001
ACAD
1000
DSTYLE
1002
{
1070
173
1070
0
1070
5
1000
_AH13
1002
}
  0
DIMENSION
  8
1
  6
CONTINUOUS
 62
4
  2
*D1985
  3
DSTYLE1
 10
2.6416096E+002
 20
5.0893804E+002
 11
2.5861118E+002
 21
4.6558204E+002
 70
128
 13
2.5249429E+002
 23
4.2393804E+002
 14
1.398621E+002
 24
5.0893804E+002
 40
3.0
 50
9.0E+001
1001
ACAD
1000
DSTYLE
1002
{
1070
173
1070
0
1070
5
1000
_AH13
1002
}
  0
DIMENSION
  8
1
  6
CONTINUOUS
 62
4
  2
*D1994
  3
DSTYLE1
 10
2.7586096E+002
 20
4.2393804E+002
 11
2.7031118E+002
 21
4.7208204E+002
 70
128
 13
1.398621E+002
 23
5.2193804E+002
 14
2.608621E+002
 24
4.2393804E+002
 40
3.0
 50
9.0E+001
1001
ACAD
1000
DSTYLE
1002
{
1070
173
1070
0
1070
5
1000
_AH13
1002
}
  0
DIMENSION
  8
1
  6
CONTINUOUS
 62
4
  2
*D2014
  3
DSTYLE1
 10
1.0118096E+002
 20
4.2393804E+002
 11
9.5631178E+001
 21
4.0458204E+002
 70
128
 13
1.0030959E+002
 23
3.8693804E+002
 14
1.5898328E+002
 24
4.2393804E+002
 40
3.0
 50
9.0E+001
1001
ACAD
1000
DSTYLE
1002
{
1070
173
1070
0
1070
5
1000
_AH13
1002
}
  0
DIMENSION
  8
1
  6
CONTINUOUS
 62
4
  2
*D2022
  3
DSTYLE1
 10
1.868621E+002
 20
3.8865921E+002
 11
1.7444979E+002
 21
3.9420899E+002
 70
128
 13
1.968621E+002
 23
4.0243804E+002
 14
1.868621E+002
 24
4.0243804E+002
 40
3.0
 50
0.0
1001
ACAD
1000
DSTYLE
1002
{
1070
173
1070
0
1070
5
1000
_AH13
1002
}
  0
TEXT
  8
1
  6
CONTINUOUS
 62
1
 10
2.9469726E+002
 20
1.7544189E+002
 40
5.445
  1
for Euro-profile cylinder
 41
6.6600002E-001
 72
1
 11
3.4002688E+002
 21
1.7816439E+002
 73
2
  0
TEXT
  8
1
  6
CONTINUOUS
 62
1
 10
2.9476229E+002
 20
1.8475889E+002
 40
5.445
  1
für Profilzylinder DIN 18252
 41
6.6696431E-001
 72
1
 11
3.4560498E+002
 21
1.8748139E+002
 73
2
  0
TEXT
  8
1
  6
CONTINUOUS
 62
1
 10
5.3617032E+001
 20
1.219979E+002
 40
5.445
  1
DIN - Rechts spiegelbildlich
 41
6.6696431E-001
 72
1
 11
1.0445972E+002
 21
1.247204E+002
 73
2
  0
TEXT
  8
1
  6
CONTINUOUS
 62
1
 10
5.365031E+001
 20
1.311758E+002
 40
5.445
  1
Darstellung DIN - Links
 41
6.6521741E-001
 72
1
 11
9.5304562E+001
 21
1.338983E+002
 73
2
  0
TEXT
  8
1
  6
CONTINUOUS
 62
1
 10
5.3595233E+001
 20
1.0004038E+002
 40
5.445
  1
right hand version in reflected image
 41
6.6891894E-001
 72
1
 11
1.2097711E+002
 21
1.0276288E+002
 73
2
  0
TEXT
  8
1
  6
CONTINUOUS
 62
1
 10
5.3570321E+001
 20
1.0782736E+002
 40
5.445
  1
Description shows left hand version
 41
6.6857145E-001
 72
1
 11
1.1727682E+002
 21
1.1054986E+002
 73
2
  0
DIMENSION
  8
1
  6
CONTINUOUS
 62
4
  2
*D2046
  3
DSTYLE1
 10
8.9246168E+001
 20
5.0893804E+002
 11
8.3696388E+001
 21
3.8911356E+002
 70
128
 13
1.3413348E+002
 23
2.9993804E+002
 14
1.368621E+002
 24
5.0893804E+002
 40
3.0
 50
9.0E+001
1001
ACAD
1000
DSTYLE
1002
{
1070
173
1070
0
1070
5
1000
_AH13
1002
}
  0
CIRCLE
  8
1
  6
CONTINUOUS
 62
40
 10
1.6554316E+002
 20
2.7023784E+002
 40
4.8727481
  0
TEXT
  8
1
  6
CONTINUOUS
 62
221
 10
1.6311316E+002
 20
2.6780784E+002
 40
4.86
  1
X
 72
1
 11
1.6554316E+002
 21
2.7023784E+002
 73
2
  0
DIMENSION
  8
1
  6
CONTINUOUS
 62
4
  2
*D2065
  3
DSTYLE2
 10
1.832621E+002
 20
3.690823E+002
 11
1.918621E+002
 21
3.7463208E+002
 70
128
 13
2.004621E+002
 23
3.5193859E+002
 14
1.832621E+002
 24
3.5193748E+002
 40
3.0
 50
0.0
1001
ACAD
1000
DSTYLE
1002
{
1070
173
1070
0
1070
5
1000
_AH13
1002
}
  0
DIMENSION
  8
1
  6
CONTINUOUS
 62
4
  2
*D2074
  3
DSTYLE2
 10
2.3938096E+002
 20
3.6053804E+002
 11
2.3383118E+002
 21
3.4368804E+002
 70
128
 13
1.918621E+002
 23
3.2683804E+002
 14
1.918621E+002
 24
3.6053804E+002
 40
3.0
 50
9.0E+001
1001
ACAD
1000
DSTYLE
1002
{
1070
173
1070
0
1070
5
1000
_AH13
1002
}
  0
DIMENSION
  8
1
  6
CONTINUOUS
 62
4
  2
*D2083
  3
DSTYLE2
 10
1.867621E+002
 20
3.0772921E+002
 11
2.1283669E+002
 21
3.1327899E+002
 70
128
 13
1.969621E+002
 23
3.3222204E+002
 14
1.867621E+002
 24
3.3179198E+002
 40
3.0
 50
0.0
1001
ACAD
1000
DSTYLE
1002
{
1070
173
1070
0
1070
5
1000
_AH13
1002
}
  0
LINE
  8
1
  6
CONTINUOUS
 62
40
 10
1.368621E+002
 20
3.2843785E+002
 11
1.368621E+002
 21
3.2377166E+002
  0
DIMENSION
  8
1
  6
CONTINUOUS
 62
4
  2
*D2100
  3
DSTYLE1
 10
1.1093501E+002
 20
3.3743823E+002
 11
1.0538523E+002
 21
3.3293804E+002
 70
128
 13
1.384741E+002
 23
3.2843785E+002
 14
1.3836216E+002
 24
3.3743823E+002
 40
3.0
 50
9.0E+001
1001
ACAD
1000
DSTYLE
1002
{
1070
173
1070
0
1070
5
1000
_AH13
1002
}
  0
DIMENSION
  8
1
  6
CONTINUOUS
 62
4
  2
*D2112
  3
DSTYLE10
 10
1.2696127E+002
 20
3.4733907E+002
 11
1.1744839E+002
 21
3.3293804E+002
 70
130
 13
1.2696127E+002
 23
3.1853702E+002
 14
1.362391E+002
 24
3.2781485E+002
 15
1.3626965E+002
 25
3.3803068E+002
 16
1.2299617E+002
 26
3.3293804E+002
1001
ACAD
1000
DSTYLE
1002
{
1070
173
1070
0
1070
5
1000
_AH13
1002
}
  0
DIMENSION
  8
1
  6
CONTINUOUS
 62
4
  2
*D2143
  3
DSTYLE1
 10
1.5271477E+002
 20
5.1193804E+002
 11
1.4716499E+002
 21
5.2616608E+002
 70
128
 13
1.398621E+002
 23
5.0593804E+002
 14
1.398621E+002
 24
5.1193804E+002
 40
3.0
 50
9.0E+001
1001
ACAD
1000
DSTYLE
1002
{
1070
173
1070
0
1070
5
1000
_AH13
1002
}
  0
DIMENSION
  8
1
  6
CONTINUOUS
 62
4
  2
*D2164
  3
DSTYLE1
 10
1.0842656E+002
 20
5.1393804E+002
 11
1.0287678E+002
 21
5.0893804E+002
 70
128
 13
1.368621E+002
 23
5.0393804E+002
 14
1.368621E+002
 24
5.1393804E+002
 40
3.0
 50
9.0E+001
1001
ACAD
1000
DSTYLE
1002
{
1070
173
1070
0
1070
5
1000
_AH13
1002
}
  0
TEXT
  8
1
  6
CONTINUOUS
 62
4
 10
3.1107859E+002
 20
4.819525E+002
 40
6.66
  1
3
 72
1
 11
3.1440859E+002
 21
4.852825E+002
 73
2
  0
TEXT
  8
1
  6
CONTINUOUS
 62
4
 10
3.1275511E+002
 20
4.09111E+002
 40
6.66
  1
3.3
 41
6.0E-001
 72
1
 11
3.1874911E+002
 21
4.12441E+002
 73
2
  0
TEXT
  8
1
  6
CONTINUOUS
 62
4
 10
1.5297963E+002
 20
2.2202391E+002
 40
6.66
  1
1
 50
9.0E+001
 72
1
 11
1.5630963E+002
 21
2.2535391E+002
 73
2
  0
LINE
  8
1
  6
CONTINUOUS
 62
150
 10
1.8649977E+002
 20
3.5437856E+002
 11
1.763267E+002
 21
3.5958717E+002
  0
TEXT
  8
1
  6
CONTINUOUS
 62
150
 10
1.6623501E+002
 20
3.5657594E+002
 40
7.0
  1
PZ
 41
8.0E-001
  0
TEXT
  8
1
  6
CONTINUOUS
 62
160
 10
5.318808E+001
 20
5.712063E+002
 40
4.5
  1
Empfohlenes Schliessblech Nr. 20
 41
6.6774196E-001
 72
1
 11
1.012655E+002
 21
5.734563E+002
 73
2
  0
TEXT
  8
1
  6
CONTINUOUS
 62
221
 10
5.3379177E+001
 20
5.6356915E+002
 40
4.5
  1
recommended strike plate number 20
 41
6.6774196E-001
 72
1
 11
1.0446144E+002
 21
5.6581915E+002
 73
2
  0
LINE
  8
1
  6
CONTINUOUS
 62
3
 10
4.6199856E+001
 20
5.6502532E+002
 11
4.6199856E+001
 21
5.7300945E+002
  0
LINE
  8
1
  6
CONTINUOUS
 62
3
 10
4.6199856E+001
 20
5.7300945E+002
 11
5.0832881E+001
 21
5.691464E+002
  0
LINE
  8
1
  6
CONTINUOUS
 62
3
 10
5.0832881E+001
 20
5.691464E+002
 11
4.6199856E+001
 21
5.6499582E+002
  0
INSERT
  2
*XH218
  8
1
 10
4.8053654E+001
 20
5.6806423E+002
  0
VIEWPORT
 67
1
  8
0
  6
CONTINUOUS
 62
3
100
AcDbViewport
 10
1.05E+002
 20
1.485E+002
 30
0.0
 40
2.97E+002
 41
2.97E+002
 68
1
 69
1
1001
ACAD
1000
MVIEW
1002
{
1070
16
1010
0.0
1020
0.0
1030
0.0
1010
0.0
1020
0.0
1030
1.0
1040
0.0
1040
2.97E+002
1040
5.775E+001
1040
1.485E+002
1040
5.0E+001
1040
0.0
1040
0.0
1070
0
1070
1000
1070
1
1070
0
1070
0
1070
0
1070
0
1070
0
1040
0.0
1040
0.0
1040
0.0
1040
5.0E-001
1040
5.0E-001
1040
5.0E-001
1040
5.0E-001
1070
0
1002
{
1002
}
1002
}
  0
VIEWPORT
 67
1
  8
0
  6
CONTINUOUS
 62
3
100
AcDbViewport
 10
1.05E+002
 20
1.485E+002
 30
0.0
 40
2.1E+002
 41
2.97E+002
 68
2
 69
2
1001
ACAD
1000
MVIEW
1002
{
1070
16
1010
0.0
1020
0.0
1030
0.0
1010
0.0
1020
0.0
1030
1.0
1040
0.0
1040
5.94E+002
1040
2.1E+002
1040
2.97E+002
1040
5.0E+001
1040
0.0
1040
0.0
1070
0
1070
1000
1070
1
1070
0
1070
0
1070
0
1070
0
1070
0
1040
0.0
1040
0.0
1040
0.0
1040
5.0E-001
1040
5.0E-001
1040
5.0E-001
1040
5.0E-001
1070
0
1002
{
1002
}
1002
}
  0
ENDSEC
  0
EOF
