  0
SECTION
  2
HEADER
  9
$ACADVER
  1
AC1009
999
I-DEAS 11 NX Not Encoded
  9
$EXTMIN
 10
0.0
 20
0.0
  9
$EXTMAX
 10
2.1E+002
 20
2.97E+002
  9
$TEXTSIZE
 40
1.25E-001
  9
$LTSCALE
 40
1.0
  9
$CLAYER
  8
104
  9
$CECOLOR
 62
40
  9
$DIMASZ
 40
1.25E-001
  9
$DIMEXO
 40
6.25E-002
  9
$DIMDLI
 40
2.5E-001
  9
$DIMEXE
 40
1.25E-001
  9
$DIMTP
 40
5.0E-003
  9
$DIMTM
 40
-5.0E-003
  9
$DIMTXT
 40
3.0
  9
$DIMLIM
 70
0
  9
$DIMTIH
 70
1
  9
$DIMTOH
 70
1
  9
$DIMSE1
 70
0
  9
$DIMSE2
 70
0
  9
$DIMTAD
 70
0
  9
$DIMASO
 70
1
  9
$DIMALT
 70
0
  9
$DIMALTD
 70
0
  9
$DIMTOFL
 70
1
  9
$DIMTIX
 70
0
  9
$DIMSAH
 70
0
  9
$DIMTFAC
 40
1.0
  9
$DIMGAP
 40
6.25E-002
  9
$LUNITS
 70
2
  9
$LUPREC
 70
3
  9
$FILLETRAD
 40
2.0
  9
$AUNITS
 70
0
  9
$AUPREC
 70
1
  9
$CHAMFERA
 40
1.0E+001
  9
$CHAMFERB
 40
1.0E+001
  9
$ANGBASE
 50
0.0
  9
$ANGDIR
 70
0
  9
$PEXTMIN
 10
0.0
 20
0.0
 30
0.0
  9
$PEXTMAX
 10
2.1E+002
 20
2.97E+002
 30
0.0
  9
$PLIMMIN
 10
0.0
 20
0.0
  9
$PLIMMAX
 10
2.1E+002
 20
2.97E+002
  9
$PDMODE
 70
2
  9
$PDSIZE
 40
-1.0E-002
  9
$SPLINETYPE
 70
6
  9
$TILEMODE
 70
0
  0
ENDSEC
  0
SECTION
  2
TABLES
  0
TABLE
  2
VPORT
 70
2
  0
VPORT
  2
*Active
 70
0
 10
0.0
 20
0.0
 11
2.1E+002
 21
2.97E+002
 12
1.05E+002
 22
1.485E+002
 13
0.0
 23
0.0
 14
1.0
 24
1.0
 15
0.0
 25
0.0
 16
0.0
 26
0.0
 36
1.0
 17
0.0
 27
0.0
 37
0.0
 40
2.97E+002
 41
7.0707071E-001
 42
5.0E+001
 43
0.0
 44
0.0
 50
0.0
 51
0.0
 71
0
 72
1000
 73
1
 74
3
 75
0
 76
0
 77
0
 78
0
  0
ENDTAB
  0
TABLE
  2
LTYPE
 70
7
  0
LTYPE
  2
HIDDENNEW0
  3
_ 
 70
64
 72
65
 73
3
 40
4.5
 49
1.5
 49
-1.5
 49
1.5
  0
LTYPE
  2
HIDDENNEW1
  3
_ 
 70
64
 72
65
 73
3
 40
4.5
 49
1.5
 49
-1.5
 49
1.5
  0
LTYPE
  2
HIDDEN
  3
_ 
 70
64
 72
65
 73
3
 40
4.5
 49
1.5
 49
-1.5
 49
1.5
  0
LTYPE
  2
CENTERLINE
  3
_ 
 70
64
 72
65
 73
5
 40
3.0E+001
 49
1.2E+001
 49
-1.5
 49
3.0
 49
-1.5
 49
1.2E+001
  0
LTYPE
  2
PHANTOM
  3
_ 
 70
64
 72
65
 73
7
 40
2.95E+001
 49
9.5
 49
-1.5
 49
3.0
 49
-1.5
 49
3.0
 49
-1.5
 49
9.5
  0
LTYPE
  2
SHORT_DASH
  3
_ 
 70
64
 72
65
 73
3
 40
3.0
 49
7.5E-001
 49
-1.5
 49
7.5E-001
  0
LTYPE
  2
LONG_DASH
  3
_ 
 70
64
 72
65
 73
3
 40
9.0
 49
2.25
 49
-4.5
 49
2.25
  0
ENDTAB
  0
TABLE
  2
LAYER
 70
258
  0
LAYER
  2
0
 70
0
 62
7
  6
CONTINUOUS
  0
LAYER
  2
1
 70
0
 62
7
  6
CONTINUOUS
  0
LAYER
  2
Drafting_Hidden_Entities
 70
1
 62
7
  6
CONTINUOUS
  0
ENDTAB
  0
TABLE
  2
STYLE
 70
1
  0
STYLE
  2
STANDARD
 70
64
 40
0.0
 41
1.0
 50
0.0
 71
0
 42
1.0
  3
monotxt.shx
  4

  0
ENDTAB
  0
TABLE
  2
VIEW
 70
0
  0
ENDTAB
  0
TABLE
  2
DIMSTYLE
 70
8
  0
DIMSTYLE
  2
DSTYLE1
 70
0
  3

  4

  5

  6

  7

 40
1.0
 41
3.5
 42
1.0
 43
3.8E-001
 44
1.0
 45
1.0E-001
 46
0.0
 47
1.0E-001
 48
1.0E-001
 71
0
 72
0
 73
0
 74
0
 75
0
 76
0
 77
1
 78
11
140
3.5
141
9.0E-002
142
0.0
143
1.0
144
1.0
145
0.0
146
1.0
147
1.1655
170
0
171
2
172
0
173
0
174
0
175
0
176
0
177
0
178
0
  0
DIMSTYLE
  2
DSTYLE2
 70
0
  3

  4

  5

  6

  7

 40
1.0
 41
3.5
 42
1.0
 43
3.8E-001
 44
1.0
 45
1.0E-002
 46
0.0
 47
1.0E-001
 48
1.0E-001
 71
0
 72
0
 73
0
 74
0
 75
0
 76
0
 77
1
 78
11
140
3.5
141
9.0E-002
142
0.0
143
1.0
144
1.0
145
0.0
146
1.0
147
1.1655
170
0
171
2
172
0
173
0
174
0
175
0
176
0
177
0
178
0
  0
DIMSTYLE
  2
DSTYLE3
 70
0
  3

  4

  5

  6

  7

 40
1.0
 41
3.5
 42
1.0
 43
3.8E-001
 44
1.0
 45
0.0
 46
0.0
 47
1.0E-001
 48
1.0E-001
 71
0
 72
0
 73
0
 74
0
 75
0
 76
0
 77
1
 78
11
140
3.5
141
9.0E-002
142
0.0
143
1.0
144
1.0
145
0.0
146
1.0
147
1.1655
170
0
171
2
172
1
173
0
174
0
175
0
176
0
177
0
178
0
  0
DIMSTYLE
  2
DSTYLE4
 70
0
  3

  4

  5

  6

  7

 40
1.0
 41
3.5
 42
1.0
 43
3.8E-001
 44
1.0
 45
0.0
 46
0.0
 47
1.0E-001
 48
1.0E-001
 71
0
 72
0
 73
0
 74
0
 75
0
 76
0
 77
1
 78
11
140
3.5
141
9.0E-002
142
0.0
143
1.0
144
1.0
145
0.0
146
1.0
147
1.1655
170
0
171
2
172
0
173
0
174
0
175
0
176
0
177
0
178
0
  0
DIMSTYLE
  2
DSTYLE5
 70
0
  3

  4

  5

  6

  7

 40
1.0
 41
3.5
 42
1.0
 43
3.8E-001
 44
1.0
 45
0.0
 46
0.0
 47
1.0E-001
 48
1.0E-001
 71
0
 72
0
 73
0
 74
0
 75
0
 76
0
 77
1
 78
11
140
3.5
141
9.0E-002
142
0.0
143
1.0
144
1.0
145
0.0
146
1.0
147
1.332
170
0
171
2
172
0
173
0
174
0
175
0
176
0
177
0
178
0
  0
DIMSTYLE
  2
DSTYLE6
 70
0
  3

  4

  5

  6

  7

 40
1.0
 41
4.0
 42
0.0
 43
3.8E-001
 44
1.5
 45
1.0E-003
 46
0.0
 47
1.0E-001
 48
1.0E-001
 71
0
 72
0
 73
0
 74
0
 75
1
 76
0
 77
1
 78
11
140
3.5
141
9.0E-002
142
0.0
143
3.9370079E-002
144
1.0
145
0.0
146
1.0
147
1.5
170
0
171
2
172
1
173
0
174
0
175
0
176
0
177
0
178
0
  0
DIMSTYLE
  2
DSTYLE7
 70
0
  3

  4

  5

  6

  7

 40
1.0
 41
4.0
 42
0.0
 43
3.8E-001
 44
1.5
 45
1.0E-003
 46
0.0
 47
1.0E-001
 48
1.0E-001
 71
0
 72
0
 73
0
 74
0
 75
0
 76
0
 77
1
 78
11
140
3.5
141
9.0E-002
142
0.0
143
3.9370079E-002
144
1.0
145
0.0
146
1.0
147
1.5
170
0
171
2
172
0
173
0
174
0
175
0
176
0
177
0
178
0
  0
DIMSTYLE
  2
DSTYLE8
 70
0
  3

  4

  5

  6

  7

 40
1.0
 41
4.0
 42
0.0
 43
3.8E-001
 44
1.5
 45
1.0E-003
 46
0.0
 47
1.0E-001
 48
1.0E-001
 71
0
 72
0
 73
0
 74
0
 75
0
 76
0
 77
1
 78
11
140
3.5
141
9.0E-002
142
0.0
143
3.9370079E-002
144
1.0
145
0.0
146
1.0
147
1.5
170
0
171
2
172
1
173
0
174
0
175
0
176
0
177
0
178
0
  0
ENDTAB
  0
ENDSEC
  0
SECTION
  2
BLOCKS
  0
BLOCK
  2
_AH12
  3
_AH
 10
0.0
 20
0.0
 70
64
  0
LINE
  8
0
  6
CONTINUOUS
 62
0
 10
0.0
 20
0.0
 11
1.0
 21
0.0
  0
LINE
  8
0
  6
CONTINUOUS
 62
0
 10
0.0
 20
0.0
 11
-1.0
 21
0.0
  0
ENDBLK
  0
BLOCK
  2
_AH13
  3
_AH
 10
0.0
 20
0.0
 70
64
  0
SOLID
  8
0
  6
CONTINUOUS
 62
0
 10
0.0
 20
0.0
 11
1.0
 21
-1.66667E-001
 12
1.0
 22
1.66667E-001
 13
0.0
 23
0.0
  0
ENDBLK
  0
BLOCK
  2
_AH14
  3
_AH
 10
0.0
 20
0.0
 70
64
  0
ENDBLK
  0
BLOCK
  2
_AH15
  3
_AH
 10
0.0
 20
0.0
 70
64
  0
CIRCLE
  8
0
  6
CONTINUOUS
 62
0
 10
0.0
 20
0.0
 40
1.66667E-001
  0
LINE
  8
0
  6
CONTINUOUS
 62
0
 10
0.0
 20
0.0
 11
-1.0
 21
0.0
  0
ENDBLK
  0
BLOCK
  2
_AH16
  3
_AH
 10
0.0
 20
0.0
 70
64
  0
POLYLINE
  8
0
  6
CONTINUOUS
 62
0
 66
1
 40
1.66667E-001
 41
1.66667E-001
 70
0
  0
VERTEX
  8
0
 42
1.0
 10
8.3335E-002
 20
0.0
 70
0
  0
VERTEX
  8
0
 42
1.0
 10
-8.3335E-002
 20
0.0
 70
0
  0
VERTEX
  8
0
 42
0.0
 10
8.3335E-002
 20
0.0
 70
0
  0
SEQEND
  0
LINE
  8
0
  6
CONTINUOUS
 62
0
 10
0.0
 20
0.0
 11
-1.0
 21
0.0
  0
ENDBLK
  0
BLOCK
  2
_AH17
  3
_AH
 10
0.0
 20
0.0
 70
64
  0
LINE
  8
0
  6
CONTINUOUS
 62
0
 10
-1.66667E-001
 20
-1.66667E-001
 11
1.66667E-001
 21
-1.66667E-001
  0
LINE
  8
0
  6
CONTINUOUS
 62
0
 10
1.66667E-001
 20
-1.66667E-001
 11
1.66667E-001
 21
1.66667E-001
  0
LINE
  8
0
  6
CONTINUOUS
 62
0
 10
1.66667E-001
 20
1.66667E-001
 11
-1.66667E-001
 21
1.66667E-001
  0
LINE
  8
0
  6
CONTINUOUS
 62
0
 10
-1.66667E-001
 20
1.66667E-001
 11
-1.66667E-001
 21
-1.66667E-001
  0
LINE
  8
0
  6
CONTINUOUS
 62
0
 10
0.0
 20
0.0
 11
-1.0
 21
0.0
  0
ENDBLK
  0
BLOCK
  2
_AH18
  3
_AH
 10
0.0
 20
0.0
 70
64
  0
SOLID
  8
0
  6
CONTINUOUS
 62
0
 10
-1.66667E-001
 20
-1.66667E-001
 11
1.66667E-001
 21
-1.66667E-001
 12
-1.66667E-001
 22
1.66667E-001
 13
1.66667E-001
 23
1.66667E-001
  0
LINE
  8
0
  6
CONTINUOUS
 62
0
 10
0.0
 20
0.0
 11
-1.0
 21
0.0
  0
ENDBLK
  0
BLOCK
  2
_AH19
  3
_AH
 10
0.0
 20
0.0
 70
64
  0
LINE
  8
0
  6
CONTINUOUS
 62
0
 10
-5.0E-001
 20
-5.0E-001
 11
5.0E-001
 21
5.0E-001
  0
LINE
  8
0
  6
CONTINUOUS
 62
0
 10
0.0
 20
0.0
 11
-1.0
 21
0.0
  0
ENDBLK
  0
BLOCK
  2
_AH20
  3
_AH
 10
0.0
 20
0.0
 70
64
  0
POLYLINE
  8
0
  6
CONTINUOUS
 62
0
 66
1
 40
5.0E-001
 41
5.0E-001
 70
0
  0
VERTEX
  8
0
 42
4.1421356E-001
 10
-1.66667E-001
 20
-1.66667E-001
 70
0
  0
VERTEX
  8
0
 42
0.0
 10
0.0
 20
0.0
 70
0
  0
SEQEND
  0
POLYLINE
  8
0
  6
CONTINUOUS
 62
0
 66
1
 40
5.0E-001
 41
5.0E-001
 70
0
  0
VERTEX
  8
0
 42
4.1421356E-001
 10
1.66667E-001
 20
1.66667E-001
 70
0
  0
VERTEX
  8
0
 42
0.0
 10
0.0
 20
0.0
 70
0
  0
SEQEND
  0
LINE
  8
0
  6
CONTINUOUS
 62
0
 10
0.0
 20
0.0
 11
-1.0
 21
0.0
  0
ENDBLK
  0
BLOCK
  2
_AH21
  3
_AH
 10
0.0
 20
0.0
 70
64
  0
LINE
  8
0
  6
CONTINUOUS
 62
0
 10
0.0
 20
0.0
 11
-1.0
 21
-1.66667E-001
  0
LINE
  8
0
  6
CONTINUOUS
 62
0
 10
-1.0
 20
-1.66667E-001
 11
-1.0
 21
1.66667E-001
  0
LINE
  8
0
  6
CONTINUOUS
 62
0
 10
-1.0
 20
1.66667E-001
 11
0.0
 21
0.0
  0
ENDBLK
  0
BLOCK
  2
*XH32
  3
*XH
 10
0.0
 20
0.0
 70
65
  0
LINE
  8
1
  6
CONTINUOUS
 62
1
 10
-1.0101406E+001
 20
-1.775546
 11
-7.7134892
 21
-1.775546
  0
LINE
  8
1
  6
CONTINUOUS
 62
1
 10
-5.4651539
 20
-1.775546
 11
-4.0080475
 21
-1.775546
  0
LINE
  8
1
  6
CONTINUOUS
 62
1
 10
-2.6130314
 20
-1.775546
 11
-1.4953406
 21
-1.775546
  0
LINE
  8
1
  6
CONTINUOUS
 62
1
 10
-5.1302958E-001
 20
-1.775546
 11
7.0919802E-001
 21
-1.775546
  0
LINE
  8
1
  6
CONTINUOUS
 62
1
 10
1.18706
 20
-1.775546
 11
2.3047263
 21
-1.775546
  0
LINE
  8
1
  6
CONTINUOUS
 62
1
 10
3.0182451
 20
-1.775546
 11
4.0500855
 21
-1.775546
  0
LINE
  8
1
  6
CONTINUOUS
 62
1
 10
4.7636042
 20
-1.775546
 11
5.8812705
 21
-1.775546
  0
LINE
  8
1
  6
CONTINUOUS
 62
1
 10
6.1186682
 20
-1.775546
 11
7.4566169
 21
-1.775546
  0
LINE
  8
1
  6
CONTINUOUS
 62
1
 10
8.6648487
 20
-1.775546
 11
1.0002797E+001
 21
-1.775546
  0
LINE
  8
1
  6
CONTINUOUS
 62
1
 10
9.9813125
 20
-1.6843196
 11
8.6484131
 21
-1.6843196
  0
LINE
  8
1
  6
CONTINUOUS
 62
1
 10
7.4730525
 20
-1.6843196
 11
6.140153
 21
-1.6843196
  0
LINE
  8
1
  6
CONTINUOUS
 62
1
 10
5.8812705
 20
-1.6843196
 11
4.7636042
 21
-1.6843196
  0
LINE
  8
1
  6
CONTINUOUS
 62
1
 10
4.0701465
 20
-1.6843196
 11
2.9981614
 21
-1.6843196
  0
LINE
  8
1
  6
CONTINUOUS
 62
1
 10
2.3047263
 20
-1.6843196
 11
1.18706
 21
-1.6843196
  0
LINE
  8
1
  6
CONTINUOUS
 62
1
 10
6.6155682E-001
 20
-1.6843196
 11
-5.4952618E-001
 21
-1.6843196
  0
LINE
  8
1
  6
CONTINUOUS
 62
1
 10
-1.4953406
 20
-1.6843196
 11
-2.6130314
 21
-1.6843196
  0
LINE
  8
1
  6
CONTINUOUS
 62
1
 10
-3.7846193
 20
-1.6843196
 11
-5.6885822
 21
-1.6843196
  0
LINE
  8
1
  6
CONTINUOUS
 62
1
 10
-7.5007693
 20
-1.6843196
 11
-1.0101406E+001
 21
-1.6843196
  0
LINE
  8
1
  6
CONTINUOUS
 62
1
 10
-1.0101406E+001
 20
-1.5930782
 11
-7.3579251
 21
-1.5930782
  0
LINE
  8
1
  6
CONTINUOUS
 62
1
 10
-5.8395706
 20
-1.5930782
 11
-3.6336309
 21
-1.5930782
  0
LINE
  8
1
  6
CONTINUOUS
 62
1
 10
-2.6130314
 20
-1.5930782
 11
-1.4953406
 21
-1.5930782
  0
LINE
  8
1
  6
CONTINUOUS
 62
1
 10
-5.8602278E-001
 20
-1.5930782
 11
6.1391942E-001
 21
-1.5930782
  0
LINE
  8
1
  6
CONTINUOUS
 62
1
 10
1.18706
 20
-1.5930782
 11
2.3047263
 21
-1.5930782
  0
LINE
  8
1
  6
CONTINUOUS
 62
1
 10
2.9781003
 20
-1.5930782
 11
4.0902302
 21
-1.5930782
  0
LINE
  8
1
  6
CONTINUOUS
 62
1
 10
4.7636042
 20
-1.5930782
 11
5.8812705
 21
-1.5930782
  0
LINE
  8
1
  6
CONTINUOUS
 62
1
 10
6.1616189
 20
-1.5930782
 11
7.4894653
 21
-1.5930782
  0
LINE
  8
1
  6
CONTINUOUS
 62
1
 10
8.6320002
 20
-1.5930782
 11
9.9598466
 21
-1.5930782
  0
LINE
  8
1
  6
CONTINUOUS
 62
1
 10
9.9383845
 20
-1.5018367
 11
8.6155647
 21
-1.5018367
  0
LINE
  8
1
  6
CONTINUOUS
 62
1
 10
7.5059009
 20
-1.5018367
 11
6.1830811
 21
-1.5018367
  0
LINE
  8
1
  6
CONTINUOUS
 62
1
 10
5.8812705
 20
-1.5018367
 11
4.7636042
 21
-1.5018367
  0
LINE
  8
1
  6
CONTINUOUS
 62
1
 10
4.1103177
 20
-1.5018367
 11
2.9580166
 21
-1.5018367
  0
LINE
  8
1
  6
CONTINUOUS
 62
1
 10
2.3047263
 20
-1.5018367
 11
1.18706
 21
-1.5018367
  0
LINE
  8
1
  6
CONTINUOUS
 62
1
 10
5.6625562E-001
 20
-1.5018367
 11
-6.2251938E-001
 21
-1.5018367
  0
LINE
  8
1
  6
CONTINUOUS
 62
1
 10
-1.4953406
 20
-1.5018367
 11
-2.6130314
 21
-1.5018367
  0
LINE
  8
1
  6
CONTINUOUS
 62
1
 10
-3.5171791
 20
-1.5018367
 11
-5.9560224
 21
-1.5018367
  0
LINE
  8
1
  6
CONTINUOUS
 62
1
 10
-7.2485807
 20
-1.5018367
 11
-1.0101406E+001
 21
-1.5018367
  0
LINE
  8
1
  6
CONTINUOUS
 62
1
 10
-1.0101406E+001
 20
-1.4105953
 11
-7.1608193
 21
-1.4105953
  0
LINE
  8
1
  6
CONTINUOUS
 62
1
 10
-6.0503568
 20
-1.4105953
 11
-3.4228446
 21
-1.4105953
  0
LINE
  8
1
  6
CONTINUOUS
 62
1
 10
-2.6130314
 20
-1.4105953
 11
-1.4953406
 21
-1.4105953
  0
LINE
  8
1
  6
CONTINUOUS
 62
1
 10
-6.5901588E-001
 20
-1.4105953
 11
5.1861822E-001
 21
-1.4105953
  0
LINE
  8
1
  6
CONTINUOUS
 62
1
 10
1.18706
 20
-1.4105953
 11
2.3047263
 21
-1.4105953
  0
LINE
  8
1
  6
CONTINUOUS
 62
1
 10
2.9379556
 20
-1.4105953
 11
4.1303787
 21
-1.4105953
  0
LINE
  8
1
  6
CONTINUOUS
 62
1
 10
4.7636042
 20
-1.4105953
 11
5.8812705
 21
-1.4105953
  0
LINE
  8
1
  6
CONTINUOUS
 62
1
 10
6.2045432
 20
-1.4105953
 11
7.52231
 21
-1.4105953
  0
LINE
  8
1
  6
CONTINUOUS
 62
1
 10
8.5991556
 20
-1.4105953
 11
9.9169224
 21
-1.4105953
  0
LINE
  8
1
  6
CONTINUOUS
 62
1
 10
9.8954338
 20
-1.3193689
 11
8.58272
 21
-1.3193689
  0
LINE
  8
1
  6
CONTINUOUS
 62
1
 10
7.5387456
 20
-1.3193689
 11
6.2260318
 21
-1.3193689
  0
LINE
  8
1
  6
CONTINUOUS
 62
1
 10
5.8812705
 20
-1.3193689
 11
4.7636042
 21
-1.3193689
  0
LINE
  8
1
  6
CONTINUOUS
 62
1
 10
4.1504397
 20
-1.3193689
 11
2.9178946
 21
-1.3193689
  0
LINE
  8
1
  6
CONTINUOUS
 62
1
 10
2.3047263
 20
-1.3193689
 11
1.18706
 21
-1.3193689
  0
LINE
  8
1
  6
CONTINUOUS
 62
1
 10
4.7097702E-001
 20
-1.3193689
 11
-6.9551248E-001
 21
-1.3193689
  0
LINE
  8
1
  6
CONTINUOUS
 62
1
 10
-1.4953406
 20
-1.3193689
 11
-2.6130314
 21
-1.3193689
  0
LINE
  8
1
  6
CONTINUOUS
 62
1
 10
-3.3446795
 20
-1.3193689
 11
-6.128522
 21
-1.3193689
  0
LINE
  8
1
  6
CONTINUOUS
 62
1
 10
-7.0889629
 20
-1.3193689
 11
-1.0101406E+001
 21
-1.3193689
  0
LINE
  8
1
  6
CONTINUOUS
 62
1
 10
-1.0101406E+001
 20
-1.2281275
 11
-7.0297466
 21
-1.2281275
  0
LINE
  8
1
  6
CONTINUOUS
 62
1
 10
-6.1938771
 20
-1.2281275
 11
-3.2792998
 21
-1.2281275
  0
LINE
  8
1
  6
CONTINUOUS
 62
1
 10
-2.6130314
 20
-1.2281275
 11
-1.4953406
 21
-1.2281275
  0
LINE
  8
1
  6
CONTINUOUS
 62
1
 10
-7.3200908E-001
 20
-1.2281275
 11
4.2331692E-001
 21
-1.2281275
  0
LINE
  8
1
  6
CONTINUOUS
 62
1
 10
1.18706
 20
-1.2281275
 11
2.3047263
 21
-1.2281275
  0
LINE
  8
1
  6
CONTINUOUS
 62
1
 10
2.8978071
 20
-1.2281275
 11
4.1705234
 21
-1.2281275
  0
LINE
  8
1
  6
CONTINUOUS
 62
1
 10
4.7636042
 20
-1.2281275
 11
5.8812705
 21
-1.2281275
  0
LINE
  8
1
  6
CONTINUOUS
 62
1
 10
6.2474939
 20
-1.2281275
 11
7.5551584
 21
-1.2281275
  0
LINE
  8
1
  6
CONTINUOUS
 62
1
 10
8.5663071
 20
-1.2281275
 11
9.8739717
 21
-1.2281275
  0
LINE
  8
1
  6
CONTINUOUS
 62
1
 10
9.8525095
 20
-1.136886
 11
6.268956
 21
-1.136886
  0
LINE
  8
1
  6
CONTINUOUS
 62
1
 10
5.8812705
 20
-1.136886
 11
4.7636042
 21
-1.136886
  0
LINE
  8
1
  6
CONTINUOUS
 62
1
 10
4.1905845
 20
-1.136886
 11
2.8777461
 21
-1.136886
  0
LINE
  8
1
  6
CONTINUOUS
 62
1
 10
2.3047263
 20
-1.136886
 11
1.18706
 21
-1.136886
  0
LINE
  8
1
  6
CONTINUOUS
 62
1
 10
3.7567582E-001
 20
-1.136886
 11
-7.6850568E-001
 21
-1.136886
  0
LINE
  8
1
  6
CONTINUOUS
 62
1
 10
-1.4953406
 20
-1.136886
 11
-2.6130314
 21
-1.136886
  0
LINE
  8
1
  6
CONTINUOUS
 62
1
 10
-3.2246022
 20
-1.136886
 11
-6.2485993
 21
-1.136886
  0
LINE
  8
1
  6
CONTINUOUS
 62
1
 10
-6.9811405
 20
-1.136886
 11
-1.0101406E+001
 21
-1.136886
  0
LINE
  8
1
  6
CONTINUOUS
 62
1
 10
-1.0101406E+001
 20
-1.0456446
 11
-8.8719781
 21
-1.0456446
  0
LINE
  8
1
  6
CONTINUOUS
 62
1
 10
-8.2596803
 20
-1.0456446
 11
-6.9418153
 21
-1.0456446
  0
LINE
  8
1
  6
CONTINUOUS
 62
1
 10
-6.2940859
 20
-1.0456446
 11
-4.8456316
 21
-1.0456446
  0
LINE
  8
1
  6
CONTINUOUS
 62
1
 10
-4.6275698
 20
-1.0456446
 11
-3.1791155
 21
-1.0456446
  0
LINE
  8
1
  6
CONTINUOUS
 62
1
 10
-2.6130314
 20
-1.0456446
 11
-1.4953406
 21
-1.0456446
  0
LINE
  8
1
  6
CONTINUOUS
 62
1
 10
-8.0500228E-001
 20
-1.0456446
 11
3.2803832E-001
 21
-1.0456446
  0
LINE
  8
1
  6
CONTINUOUS
 62
1
 10
1.18706
 20
-1.0456446
 11
2.3047263
 21
-1.0456446
  0
LINE
  8
1
  6
CONTINUOUS
 62
1
 10
2.8576624
 20
-1.0456446
 11
4.2106682
 21
-1.0456446
  0
LINE
  8
1
  6
CONTINUOUS
 62
1
 10
4.7636042
 20
-1.0456446
 11
5.8812705
 21
-1.0456446
  0
LINE
  8
1
  6
CONTINUOUS
 62
1
 10
6.2904182
 20
-1.0456446
 11
9.8310474
 21
-1.0456446
  0
LINE
  8
1
  6
CONTINUOUS
 62
1
 10
9.8095852
 20
-9.5440314E-001
 11
6.3118803
 21
-9.5440314E-001
  0
LINE
  8
1
  6
CONTINUOUS
 62
1
 10
5.8812705
 20
-9.5440314E-001
 11
4.7636042
 21
-9.5440314E-001
  0
LINE
  8
1
  6
CONTINUOUS
 62
1
 10
4.2307292
 20
-9.5440314E-001
 11
2.8376013
 21
-9.5440314E-001
  0
LINE
  8
1
  6
CONTINUOUS
 62
1
 10
2.3047263
 20
-9.5440314E-001
 11
1.18706
 21
-9.5440314E-001
  0
LINE
  8
1
  6
CONTINUOUS
 62
1
 10
2.8037452E-001
 20
-9.5440314E-001
 11
-8.4149888E-001
 21
-9.5440314E-001
  0
LINE
  8
1
  6
CONTINUOUS
 62
1
 10
-1.4953406
 20
-9.5440314E-001
 11
-2.6130314
 21
-9.5440314E-001
  0
LINE
  8
1
  6
CONTINUOUS
 62
1
 10
-3.1418447
 20
-9.5440314E-001
 11
-4.4430816
 21
-9.5440314E-001
  0
LINE
  8
1
  6
CONTINUOUS
 62
1
 10
-5.0301199
 20
-9.5440314E-001
 11
-6.3313567
 21
-9.5440314E-001
  0
LINE
  8
1
  6
CONTINUOUS
 62
1
 10
-6.9108551
 20
-9.5440314E-001
 11
-8.1283659
 21
-9.5440314E-001
  0
LINE
  8
1
  6
CONTINUOUS
 62
1
 10
-8.8719781
 20
-9.5440314E-001
 11
-1.0101406E+001
 21
-9.5440314E-001
  0
LINE
  8
1
  6
CONTINUOUS
 62
1
 10
-1.0101406E+001
 20
-8.6316164E-001
 11
-8.8719781
 21
-8.6316164E-001
  0
LINE
  8
1
  6
CONTINUOUS
 62
1
 10
-8.0923036
 20
-8.6316164E-001
 11
-6.8875784
 21
-8.6316164E-001
  0
LINE
  8
1
  6
CONTINUOUS
 62
1
 10
-6.3610857
 20
-8.6316164E-001
 11
-5.1042007
 21
-8.6316164E-001
  0
LINE
  8
1
  6
CONTINUOUS
 62
1
 10
-4.3689762
 20
-8.6316164E-001
 11
-3.1120912
 21
-8.6316164E-001
  0
LINE
  8
1
  6
CONTINUOUS
 62
1
 10
-2.6130314
 20
-8.6316164E-001
 11
-1.4953406
 21
-8.6316164E-001
  0
LINE
  8
1
  6
CONTINUOUS
 62
1
 10
-8.7799538E-001
 20
-8.6316164E-001
 11
2.3273712E-001
 21
-8.6316164E-001
  0
LINE
  8
1
  6
CONTINUOUS
 62
1
 10
1.18706
 20
-8.6316164E-001
 11
2.3047263
 21
-8.6316164E-001
  0
LINE
  8
1
  6
CONTINUOUS
 62
1
 10
2.8175139
 20
-8.6316164E-001
 11
4.2508167
 21
-8.6316164E-001
  0
LINE
  8
1
  6
CONTINUOUS
 62
1
 10
4.7636042
 20
-8.6316164E-001
 11
5.8812705
 21
-8.6316164E-001
  0
LINE
  8
1
  6
CONTINUOUS
 62
1
 10
6.3333462
 20
-8.6316164E-001
 11
9.7880967
 21
-8.6316164E-001
  0
LINE
  8
1
  6
CONTINUOUS
 62
1
 10
9.7666345
 20
-7.7192024E-001
 11
6.354831
 21
-7.7192024E-001
  0
LINE
  8
1
  6
CONTINUOUS
 62
1
 10
5.8812705
 20
-7.7192024E-001
 11
4.7636042
 21
-7.7192024E-001
  0
LINE
  8
1
  6
CONTINUOUS
 62
1
 10
4.2708777
 20
-7.7192024E-001
 11
2.7974528
 21
-7.7192024E-001
  0
LINE
  8
1
  6
CONTINUOUS
 62
1
 10
2.3047263
 20
-7.7192024E-001
 11
1.18706
 21
-7.7192024E-001
  0
LINE
  8
1
  6
CONTINUOUS
 62
1
 10
1.8509592E-001
 20
-7.7192024E-001
 11
-9.1446558E-001
 21
-7.7192024E-001
  0
LINE
  8
1
  6
CONTINUOUS
 62
1
 10
-1.4953406
 20
-7.7192024E-001
 11
-2.6130314
 21
-7.7192024E-001
  0
LINE
  8
1
  6
CONTINUOUS
 62
1
 10
-3.0893488
 20
-7.7192024E-001
 11
-4.3308123
 21
-7.7192024E-001
  0
LINE
  8
1
  6
CONTINUOUS
 62
1
 10
-5.1423892
 20
-7.7192024E-001
 11
-6.38383
 21
-7.7192024E-001
  0
LINE
  8
1
  6
CONTINUOUS
 62
1
 10
-6.8715545
 20
-7.7192024E-001
 11
-8.0895977
 21
-7.7192024E-001
  0
LINE
  8
1
  6
CONTINUOUS
 62
1
 10
-8.8719781
 20
-7.7192024E-001
 11
-1.0101406E+001
 21
-7.7192024E-001
  0
LINE
  8
1
  6
CONTINUOUS
 62
1
 10
-1.0101406E+001
 20
-6.8067874E-001
 11
-8.8719781
 21
-6.8067874E-001
  0
LINE
  8
1
  6
CONTINUOUS
 62
1
 10
-8.0895977
 20
-6.8067874E-001
 11
-6.8624908
 21
-6.8067874E-001
  0
LINE
  8
1
  6
CONTINUOUS
 62
1
 10
-6.3999502
 20
-6.8067874E-001
 11
-5.1556354
 21
-6.8067874E-001
  0
LINE
  8
1
  6
CONTINUOUS
 62
1
 10
-4.317566
 20
-6.8067874E-001
 11
-3.0732512
 21
-6.8067874E-001
  0
LINE
  8
1
  6
CONTINUOUS
 62
1
 10
-2.6130314
 20
-6.8067874E-001
 11
-1.4953406
 21
-6.8067874E-001
  0
LINE
  8
1
  6
CONTINUOUS
 62
1
 10
-9.5096218E-001
 20
-6.8067874E-001
 11
1.3743592E-001
 21
-6.8067874E-001
  0
LINE
  8
1
  6
CONTINUOUS
 62
1
 10
1.18706
 20
-6.8067874E-001
 11
2.3047263
 21
-6.8067874E-001
  0
LINE
  8
1
  6
CONTINUOUS
 62
1
 10
2.7773691
 20
-6.8067874E-001
 11
4.2909614
 21
-6.8067874E-001
  0
LINE
  8
1
  6
CONTINUOUS
 62
1
 10
4.7636042
 20
-6.8067874E-001
 11
5.8812705
 21
-6.8067874E-001
  0
LINE
  8
1
  6
CONTINUOUS
 62
1
 10
6.3762932
 20
-6.8067874E-001
 11
9.7451724
 21
-6.8067874E-001
  0
LINE
  8
1
  6
CONTINUOUS
 62
1
 10
9.7237065
 20
-5.8945244E-001
 11
6.3977591
 21
-5.8945244E-001
  0
LINE
  8
1
  6
CONTINUOUS
 62
1
 10
5.8812705
 20
-5.8945244E-001
 11
4.7636042
 21
-5.8945244E-001
  0
LINE
  8
1
  6
CONTINUOUS
 62
1
 10
4.3110224
 20
-5.8945244E-001
 11
2.7573081
 21
-5.8945244E-001
  0
LINE
  8
1
  6
CONTINUOUS
 62
1
 10
2.3047263
 20
-5.8945244E-001
 11
1.18706
 21
-5.8945244E-001
  0
LINE
  8
1
  6
CONTINUOUS
 62
1
 10
8.9794719E-002
 20
-5.8945244E-001
 11
-9.8745868E-001
 21
-5.8945244E-001
  0
LINE
  8
1
  6
CONTINUOUS
 62
1
 10
-1.4953406
 20
-5.8945244E-001
 11
-2.6130314
 21
-5.8945244E-001
  0
LINE
  8
1
  6
CONTINUOUS
 62
1
 10
-3.0635342
 20
-5.8945244E-001
 11
-4.3174697
 21
-5.8945244E-001
  0
LINE
  8
1
  6
CONTINUOUS
 62
1
 10
-5.1557317
 20
-5.8945244E-001
 11
-6.4096427
 21
-5.8945244E-001
  0
LINE
  8
1
  6
CONTINUOUS
 62
1
 10
-6.8601701
 20
-5.8945244E-001
 11
-8.0895977
 21
-5.8945244E-001
  0
LINE
  8
1
  6
CONTINUOUS
 62
1
 10
-8.8719781
 20
-5.8945244E-001
 11
-1.0101406E+001
 21
-5.8945244E-001
  0
LINE
  8
1
  6
CONTINUOUS
 62
1
 10
-1.0101406E+001
 20
-4.9821094E-001
 11
-8.8719781
 21
-4.9821094E-001
  0
LINE
  8
1
  6
CONTINUOUS
 62
1
 10
-8.0895977
 20
-4.9821094E-001
 11
-6.8601701
 21
-4.9821094E-001
  0
LINE
  8
1
  6
CONTINUOUS
 62
1
 10
-6.4130983
 20
-4.9821094E-001
 11
-5.1557317
 21
-4.9821094E-001
  0
LINE
  8
1
  6
CONTINUOUS
 62
1
 10
-4.3174697
 20
-4.9821094E-001
 11
-3.0601032
 21
-4.9821094E-001
  0
LINE
  8
1
  6
CONTINUOUS
 62
1
 10
-2.6130314
 20
-4.9821094E-001
 11
-1.4953406
 21
-4.9821094E-001
  0
LINE
  8
1
  6
CONTINUOUS
 62
1
 10
-1.0239553
 20
-4.9821094E-001
 11
4.2153519E-002
 21
-4.9821094E-001
  0
LINE
  8
1
  6
CONTINUOUS
 62
1
 10
1.18706
 20
-4.9821094E-001
 11
2.3047263
 21
-4.9821094E-001
  0
LINE
  8
1
  6
CONTINUOUS
 62
1
 10
2.7372244
 20
-4.9821094E-001
 11
4.3311099
 21
-4.9821094E-001
  0
LINE
  8
1
  6
CONTINUOUS
 62
1
 10
4.7636042
 20
-4.9821094E-001
 11
5.8812705
 21
-4.9821094E-001
  0
LINE
  8
1
  6
CONTINUOUS
 62
1
 10
6.4192212
 20
-4.9821094E-001
 11
9.7022444
 21
-4.9821094E-001
  0
LINE
  8
1
  6
CONTINUOUS
 62
1
 10
9.6807596
 20
-4.0696954E-001
 11
8.4184854
 21
-4.0696954E-001
  0
LINE
  8
1
  6
CONTINUOUS
 62
1
 10
7.7029575
 20
-4.0696954E-001
 11
6.440706
 21
-4.0696954E-001
  0
LINE
  8
1
  6
CONTINUOUS
 62
1
 10
5.8812705
 20
-4.0696954E-001
 11
4.7636042
 21
-4.0696954E-001
  0
LINE
  8
1
  6
CONTINUOUS
 62
1
 10
4.3511709
 20
-4.0696954E-001
 11
2.7171634
 21
-4.0696954E-001
  0
LINE
  8
1
  6
CONTINUOUS
 62
1
 10
2.3047263
 20
-4.0696954E-001
 11
1.18706
 21
-4.0696954E-001
  0
LINE
  8
1
  6
CONTINUOUS
 62
1
 10
-5.506581E-003
 20
-4.0696954E-001
 11
-1.0604519
 21
-4.0696954E-001
  0
LINE
  8
1
  6
CONTINUOUS
 62
1
 10
-1.4953406
 20
-4.0696954E-001
 11
-2.6130314
 21
-4.0696954E-001
  0
LINE
  8
1
  6
CONTINUOUS
 62
1
 10
-3.0601032
 20
-4.0696954E-001
 11
-4.3174697
 21
-4.0696954E-001
  0
LINE
  8
1
  6
CONTINUOUS
 62
1
 10
-5.1557317
 20
-4.0696954E-001
 11
-6.4130983
 21
-4.0696954E-001
  0
LINE
  8
1
  6
CONTINUOUS
 62
1
 10
-6.8601701
 20
-4.0696954E-001
 11
-8.0895977
 21
-4.0696954E-001
  0
LINE
  8
1
  6
CONTINUOUS
 62
1
 10
-8.8719781
 20
-4.0696954E-001
 11
-1.0101406E+001
 21
-4.0696954E-001
  0
LINE
  8
1
  6
CONTINUOUS
 62
1
 10
-1.0101406E+001
 20
-3.1572804E-001
 11
-8.8719781
 21
-3.1572804E-001
  0
LINE
  8
1
  6
CONTINUOUS
 62
1
 10
-8.0895977
 20
-3.1572804E-001
 11
-6.8601701
 21
-3.1572804E-001
  0
LINE
  8
1
  6
CONTINUOUS
 62
1
 10
-6.4130983
 20
-3.1572804E-001
 11
-5.1557317
 21
-3.1572804E-001
  0
LINE
  8
1
  6
CONTINUOUS
 62
1
 10
-4.3174697
 20
-3.1572804E-001
 11
-3.0601032
 21
-3.1572804E-001
  0
LINE
  8
1
  6
CONTINUOUS
 62
1
 10
-2.6130314
 20
-3.1572804E-001
 11
-1.4953406
 21
-3.1572804E-001
  0
LINE
  8
1
  6
CONTINUOUS
 62
1
 10
-1.0969485
 20
-3.1572804E-001
 11
-5.3143981E-002
 21
-3.1572804E-001
  0
LINE
  8
1
  6
CONTINUOUS
 62
1
 10
1.18706
 20
-3.1572804E-001
 11
2.3047263
 21
-3.1572804E-001
  0
LINE
  8
1
  6
CONTINUOUS
 62
1
 10
2.6970759
 20
-3.1572804E-001
 11
4.3712546
 21
-3.1572804E-001
  0
LINE
  8
1
  6
CONTINUOUS
 62
1
 10
4.7636042
 20
-3.1572804E-001
 11
5.8812705
 21
-3.1572804E-001
  0
LINE
  8
1
  6
CONTINUOUS
 62
1
 10
6.4621719
 20
-3.1572804E-001
 11
7.7193931
 21
-3.1572804E-001
  0
LINE
  8
1
  6
CONTINUOUS
 62
1
 10
8.4020725
 20
-3.1572804E-001
 11
9.6592937
 21
-3.1572804E-001
  0
LINE
  8
1
  6
CONTINUOUS
 62
1
 10
9.6378315
 20
-2.2450174E-001
 11
8.3856596
 21
-2.2450174E-001
  0
LINE
  8
1
  6
CONTINUOUS
 62
1
 10
7.7358059
 20
-2.2450174E-001
 11
6.4836341
 21
-2.2450174E-001
  0
LINE
  8
1
  6
CONTINUOUS
 62
1
 10
5.8812705
 20
-2.2450174E-001
 11
4.7636042
 21
-2.2450174E-001
  0
LINE
  8
1
  6
CONTINUOUS
 62
1
 10
4.3913157
 20
-2.2450174E-001
 11
3.6111823
 21
-2.2450174E-001
  0
LINE
  8
1
  6
CONTINUOUS
 62
1
 10
3.4571482
 20
-2.2450174E-001
 11
2.6770149
 21
-2.2450174E-001
  0
LINE
  8
1
  6
CONTINUOUS
 62
1
 10
2.3047263
 20
-2.2450174E-001
 11
1.18706
 21
-2.2450174E-001
  0
LINE
  8
1
  6
CONTINUOUS
 62
1
 10
5.5137319E-002
 20
-2.2450174E-001
 11
-2.6130314
 21
-2.2450174E-001
  0
LINE
  8
1
  6
CONTINUOUS
 62
1
 10
-3.0601032
 20
-2.2450174E-001
 11
-4.3174697
 21
-2.2450174E-001
  0
LINE
  8
1
  6
CONTINUOUS
 62
1
 10
-5.1557317
 20
-2.2450174E-001
 11
-6.4130983
 21
-2.2450174E-001
  0
LINE
  8
1
  6
CONTINUOUS
 62
1
 10
-6.8601701
 20
-2.2450174E-001
 11
-8.0895977
 21
-2.2450174E-001
  0
LINE
  8
1
  6
CONTINUOUS
 62
1
 10
-8.8719781
 20
-2.2450174E-001
 11
-1.0101406E+001
 21
-2.2450174E-001
  0
LINE
  8
1
  6
CONTINUOUS
 62
1
 10
-1.0101406E+001
 20
-1.3326024E-001
 11
-8.8719781
 21
-1.3326024E-001
  0
LINE
  8
1
  6
CONTINUOUS
 62
1
 10
-8.0895977
 20
-1.3326024E-001
 11
-6.8601701
 21
-1.3326024E-001
  0
LINE
  8
1
  6
CONTINUOUS
 62
1
 10
-6.4130983
 20
-1.3326024E-001
 11
-5.1557317
 21
-1.3326024E-001
  0
LINE
  8
1
  6
CONTINUOUS
 62
1
 10
-4.3174697
 20
-1.3326024E-001
 11
-3.0601032
 21
-1.3326024E-001
  0
LINE
  8
1
  6
CONTINUOUS
 62
1
 10
-2.6130314
 20
-1.3326024E-001
 11
2.2676642E-001
 21
-1.3326024E-001
  0
LINE
  8
1
  6
CONTINUOUS
 62
1
 10
1.18706
 20
-1.3326024E-001
 11
2.3047263
 21
-1.3326024E-001
  0
LINE
  8
1
  6
CONTINUOUS
 62
1
 10
2.6569312
 20
-1.3326024E-001
 11
3.4370645
 21
-1.3326024E-001
  0
LINE
  8
1
  6
CONTINUOUS
 62
1
 10
3.6312434
 20
-1.3326024E-001
 11
4.4113994
 21
-1.3326024E-001
  0
LINE
  8
1
  6
CONTINUOUS
 62
1
 10
4.7636042
 20
-1.3326024E-001
 11
5.8812705
 21
-1.3326024E-001
  0
LINE
  8
1
  6
CONTINUOUS
 62
1
 10
6.5050962
 20
-1.3326024E-001
 11
7.7522415
 21
-1.3326024E-001
  0
LINE
  8
1
  6
CONTINUOUS
 62
1
 10
8.3692241
 20
-1.3326024E-001
 11
9.6163694
 21
-1.3326024E-001
  0
LINE
  8
1
  6
CONTINUOUS
 62
1
 10
9.5949072
 20
-4.2018841E-002
 11
8.3527885
 21
-4.2018841E-002
  0
LINE
  8
1
  6
CONTINUOUS
 62
1
 10
7.7686506
 20
-4.2018841E-002
 11
6.5265583
 21
-4.2018841E-002
  0
LINE
  8
1
  6
CONTINUOUS
 62
1
 10
5.8812705
 20
-4.2018841E-002
 11
4.7636042
 21
-4.2018841E-002
  0
LINE
  8
1
  6
CONTINUOUS
 62
1
 10
4.4314604
 20
-4.2018841E-002
 11
3.6513309
 21
-4.2018841E-002
  0
LINE
  8
1
  6
CONTINUOUS
 62
1
 10
3.4170035
 20
-4.2018841E-002
 11
2.6368701
 21
-4.2018841E-002
  0
LINE
  8
1
  6
CONTINUOUS
 62
1
 10
2.3047263
 20
-4.2018841E-002
 11
1.18706
 21
-4.2018841E-002
  0
LINE
  8
1
  6
CONTINUOUS
 62
1
 10
3.4679272E-001
 20
-4.2018841E-002
 11
-2.6130314
 21
-4.2018841E-002
  0
LINE
  8
1
  6
CONTINUOUS
 62
1
 10
-3.0601032
 20
-4.2018841E-002
 11
-4.3174697
 21
-4.2018841E-002
  0
LINE
  8
1
  6
CONTINUOUS
 62
1
 10
-5.1557317
 20
-4.2018841E-002
 11
-6.4130983
 21
-4.2018841E-002
  0
LINE
  8
1
  6
CONTINUOUS
 62
1
 10
-6.8601701
 20
-4.2018841E-002
 11
-8.0895977
 21
-4.2018841E-002
  0
LINE
  8
1
  6
CONTINUOUS
 62
1
 10
-8.8719781
 20
-4.2018841E-002
 11
-1.0101406E+001
 21
-4.2018841E-002
  0
LINE
  8
1
  6
CONTINUOUS
 62
1
 10
-1.0101406E+001
 20
4.9222659E-002
 11
-8.8719781
 21
4.9222659E-002
  0
LINE
  8
1
  6
CONTINUOUS
 62
1
 10
-8.0895977
 20
4.9222659E-002
 11
-6.8601701
 21
4.9222659E-002
  0
LINE
  8
1
  6
CONTINUOUS
 62
1
 10
-6.4130983
 20
4.9222659E-002
 11
-5.1557317
 21
4.9222659E-002
  0
LINE
  8
1
  6
CONTINUOUS
 62
1
 10
-4.3174697
 20
4.9222659E-002
 11
-3.0601032
 21
4.9222659E-002
  0
LINE
  8
1
  6
CONTINUOUS
 62
1
 10
-2.6130314
 20
4.9222659E-002
 11
4.3934082E-001
 21
4.9222659E-002
  0
LINE
  8
1
  6
CONTINUOUS
 62
1
 10
1.18706
 20
4.9222659E-002
 11
2.3047263
 21
4.9222659E-002
  0
LINE
  8
1
  6
CONTINUOUS
 62
1
 10
2.6168091
 20
4.9222659E-002
 11
3.396916
 21
4.9222659E-002
  0
LINE
  8
1
  6
CONTINUOUS
 62
1
 10
3.6714145
 20
4.9222659E-002
 11
4.4515214
 21
4.9222659E-002
  0
LINE
  8
1
  6
CONTINUOUS
 62
1
 10
4.7636042
 20
4.9222659E-002
 11
5.8812705
 21
4.9222659E-002
  0
LINE
  8
1
  6
CONTINUOUS
 62
1
 10
6.5480469
 20
4.9222659E-002
 11
7.7850862
 21
4.9222659E-002
  0
LINE
  8
1
  6
CONTINUOUS
 62
1
 10
8.3363794
 20
4.9222659E-002
 11
9.5734187
 21
4.9222659E-002
  0
LINE
  8
1
  6
CONTINUOUS
 62
1
 10
9.5519565
 20
1.4044896E-001
 11
8.3199665
 21
1.4044896E-001
  0
LINE
  8
1
  6
CONTINUOUS
 62
1
 10
7.801499
 20
1.4044896E-001
 11
6.569509
 21
1.4044896E-001
  0
LINE
  8
1
  6
CONTINUOUS
 62
1
 10
5.8812705
 20
1.4044896E-001
 11
4.7636042
 21
1.4044896E-001
  0
LINE
  8
1
  6
CONTINUOUS
 62
1
 10
4.4716089
 20
1.4044896E-001
 11
3.6914756
 21
1.4044896E-001
  0
LINE
  8
1
  6
CONTINUOUS
 62
1
 10
3.376855
 20
1.4044896E-001
 11
2.5967216
 21
1.4044896E-001
  0
LINE
  8
1
  6
CONTINUOUS
 62
1
 10
2.3047263
 20
1.4044896E-001
 11
1.18706
 21
1.4044896E-001
  0
LINE
  8
1
  6
CONTINUOUS
 62
1
 10
5.1334992E-001
 20
1.4044896E-001
 11
-2.6130314
 21
1.4044896E-001
  0
LINE
  8
1
  6
CONTINUOUS
 62
1
 10
-3.0601032
 20
1.4044896E-001
 11
-4.3174697
 21
1.4044896E-001
  0
LINE
  8
1
  6
CONTINUOUS
 62
1
 10
-5.1557317
 20
1.4044896E-001
 11
-6.4130983
 21
1.4044896E-001
  0
LINE
  8
1
  6
CONTINUOUS
 62
1
 10
-6.8601701
 20
1.4044896E-001
 11
-8.0895977
 21
1.4044896E-001
  0
LINE
  8
1
  6
CONTINUOUS
 62
1
 10
-8.8719781
 20
1.4044896E-001
 11
-1.0101406E+001
 21
1.4044896E-001
  0
LINE
  8
1
  6
CONTINUOUS
 62
1
 10
-1.0101406E+001
 20
2.3169046E-001
 11
-8.8719781
 21
2.3169046E-001
  0
LINE
  8
1
  6
CONTINUOUS
 62
1
 10
-8.0895977
 20
2.3169046E-001
 11
-6.8601701
 21
2.3169046E-001
  0
LINE
  8
1
  6
CONTINUOUS
 62
1
 10
-6.4130983
 20
2.3169046E-001
 11
-5.1557317
 21
2.3169046E-001
  0
LINE
  8
1
  6
CONTINUOUS
 62
1
 10
-4.3174697
 20
2.3169046E-001
 11
-3.0601032
 21
2.3169046E-001
  0
LINE
  8
1
  6
CONTINUOUS
 62
1
 10
-2.6130314
 20
2.3169046E-001
 11
5.7338572E-001
 21
2.3169046E-001
  0
LINE
  8
1
  6
CONTINUOUS
 62
1
 10
1.18706
 20
2.3169046E-001
 11
2.3047263
 21
2.3169046E-001
  0
LINE
  8
1
  6
CONTINUOUS
 62
1
 10
2.5766606
 20
2.3169046E-001
 11
3.3567939
 21
2.3169046E-001
  0
LINE
  8
1
  6
CONTINUOUS
 62
1
 10
3.7115366
 20
2.3169046E-001
 11
4.4916699
 21
2.3169046E-001
  0
LINE
  8
1
  6
CONTINUOUS
 62
1
 10
4.7636042
 20
2.3169046E-001
 11
5.8812705
 21
2.3169046E-001
  0
LINE
  8
1
  6
CONTINUOUS
 62
1
 10
6.5909712
 20
2.3169046E-001
 11
7.8179346
 21
2.3169046E-001
  0
LINE
  8
1
  6
CONTINUOUS
 62
1
 10
8.303531
 20
2.3169046E-001
 11
9.5304944
 21
2.3169046E-001
  0
LINE
  8
1
  6
CONTINUOUS
 62
1
 10
9.5090323
 20
3.2293196E-001
 11
8.2871219
 21
3.2293196E-001
  0
LINE
  8
1
  6
CONTINUOUS
 62
1
 10
7.8343437
 20
3.2293196E-001
 11
6.6124333
 21
3.2293196E-001
  0
LINE
  8
1
  6
CONTINUOUS
 62
1
 10
5.8812705
 20
3.2293196E-001
 11
4.7636042
 21
3.2293196E-001
  0
LINE
  8
1
  6
CONTINUOUS
 62
1
 10
4.5117536
 20
3.2293196E-001
 11
3.7316203
 21
3.2293196E-001
  0
LINE
  8
1
  6
CONTINUOUS
 62
1
 10
3.3367102
 20
3.2293196E-001
 11
2.5565769
 21
3.2293196E-001
  0
LINE
  8
1
  6
CONTINUOUS
 62
1
 10
2.3047263
 20
3.2293196E-001
 11
1.18706
 21
3.2293196E-001
  0
LINE
  8
1
  6
CONTINUOUS
 62
1
 10
6.2208812E-001
 20
3.2293196E-001
 11
-2.6130314
 21
3.2293196E-001
  0
LINE
  8
1
  6
CONTINUOUS
 62
1
 10
-3.0601032
 20
3.2293196E-001
 11
-4.3174697
 21
3.2293196E-001
  0
LINE
  8
1
  6
CONTINUOUS
 62
1
 10
-5.1557317
 20
3.2293196E-001
 11
-6.4130983
 21
3.2293196E-001
  0
LINE
  8
1
  6
CONTINUOUS
 62
1
 10
-6.8601701
 20
3.2293196E-001
 11
-8.0895977
 21
3.2293196E-001
  0
LINE
  8
1
  6
CONTINUOUS
 62
1
 10
-8.8719781
 20
3.2293196E-001
 11
-1.0101406E+001
 21
3.2293196E-001
  0
LINE
  8
1
  6
CONTINUOUS
 62
1
 10
-1.0101406E+001
 20
4.1417336E-001
 11
-8.8719781
 21
4.1417336E-001
  0
LINE
  8
1
  6
CONTINUOUS
 62
1
 10
-8.0895977
 20
4.1417336E-001
 11
-6.8601701
 21
4.1417336E-001
  0
LINE
  8
1
  6
CONTINUOUS
 62
1
 10
-6.4130983
 20
4.1417336E-001
 11
-5.1557317
 21
4.1417336E-001
  0
LINE
  8
1
  6
CONTINUOUS
 62
1
 10
-4.3174697
 20
4.1417336E-001
 11
-3.0601032
 21
4.1417336E-001
  0
LINE
  8
1
  6
CONTINUOUS
 62
1
 10
-2.6130314
 20
4.1417336E-001
 11
6.6109992E-001
 21
4.1417336E-001
  0
LINE
  8
1
  6
CONTINUOUS
 62
1
 10
1.18706
 20
4.1417336E-001
 11
2.3047263
 21
4.1417336E-001
  0
LINE
  8
1
  6
CONTINUOUS
 62
1
 10
2.5365159
 20
4.1417336E-001
 11
3.3166492
 21
4.1417336E-001
  0
LINE
  8
1
  6
CONTINUOUS
 62
1
 10
3.7516813
 20
4.1417336E-001
 11
4.5318147
 21
4.1417336E-001
  0
LINE
  8
1
  6
CONTINUOUS
 62
1
 10
4.7636042
 20
4.1417336E-001
 11
5.8812705
 21
4.1417336E-001
  0
LINE
  8
1
  6
CONTINUOUS
 62
1
 10
6.6338992
 20
4.1417336E-001
 11
7.8507792
 21
4.1417336E-001
  0
LINE
  8
1
  6
CONTINUOUS
 62
1
 10
8.2706863
 20
4.1417336E-001
 11
9.4875437
 21
4.1417336E-001
  0
LINE
  8
1
  6
CONTINUOUS
 62
1
 10
9.4660816
 20
5.0539976E-001
 11
8.2542734
 21
5.0539976E-001
  0
LINE
  8
1
  6
CONTINUOUS
 62
1
 10
7.8671921
 20
5.0539976E-001
 11
6.6553613
 21
5.0539976E-001
  0
LINE
  8
1
  6
CONTINUOUS
 62
1
 10
5.8812705
 20
5.0539976E-001
 11
4.7636042
 21
5.0539976E-001
  0
LINE
  8
1
  6
CONTINUOUS
 62
1
 10
4.5519021
 20
5.0539976E-001
 11
3.7717688
 21
5.0539976E-001
  0
LINE
  8
1
  6
CONTINUOUS
 62
1
 10
3.2965617
 20
5.0539976E-001
 11
2.5164322
 21
5.0539976E-001
  0
LINE
  8
1
  6
CONTINUOUS
 62
1
 10
2.3047263
 20
5.0539976E-001
 11
1.18706
 21
5.0539976E-001
  0
LINE
  8
1
  6
CONTINUOUS
 62
1
 10
6.9155402E-001
 20
5.0539976E-001
 11
-7.5237978E-001
 21
5.0539976E-001
  0
LINE
  8
1
  6
CONTINUOUS
 62
1
 10
-1.4953406
 20
5.0539976E-001
 11
-2.6130314
 21
5.0539976E-001
  0
LINE
  8
1
  6
CONTINUOUS
 62
1
 10
-3.0601032
 20
5.0539976E-001
 11
-4.3174697
 21
5.0539976E-001
  0
LINE
  8
1
  6
CONTINUOUS
 62
1
 10
-5.1557317
 20
5.0539976E-001
 11
-6.4130983
 21
5.0539976E-001
  0
LINE
  8
1
  6
CONTINUOUS
 62
1
 10
-6.8601701
 20
5.0539976E-001
 11
-8.0895977
 21
5.0539976E-001
  0
LINE
  8
1
  6
CONTINUOUS
 62
1
 10
-8.8719781
 20
5.0539976E-001
 11
-1.0101406E+001
 21
5.0539976E-001
  0
LINE
  8
1
  6
CONTINUOUS
 62
1
 10
-1.0101406E+001
 20
5.9664116E-001
 11
-8.8719781
 21
5.9664116E-001
  0
LINE
  8
1
  6
CONTINUOUS
 62
1
 10
-8.0895977
 20
5.9664116E-001
 11
-6.8601701
 21
5.9664116E-001
  0
LINE
  8
1
  6
CONTINUOUS
 62
1
 10
-6.4130983
 20
5.9664116E-001
 11
-5.1557317
 21
5.9664116E-001
  0
LINE
  8
1
  6
CONTINUOUS
 62
1
 10
-4.3174697
 20
5.9664116E-001
 11
-3.0601032
 21
5.9664116E-001
  0
LINE
  8
1
  6
CONTINUOUS
 62
1
 10
-2.6130314
 20
5.9664116E-001
 11
-1.4953406
 21
5.9664116E-001
  0
LINE
  8
1
  6
CONTINUOUS
 62
1
 10
-6.6594968E-001
 20
5.9664116E-001
 11
7.1422462E-001
 21
5.9664116E-001
  0
LINE
  8
1
  6
CONTINUOUS
 62
1
 10
1.18706
 20
5.9664116E-001
 11
2.3047263
 21
5.9664116E-001
  0
LINE
  8
1
  6
CONTINUOUS
 62
1
 10
2.4963711
 20
5.9664116E-001
 11
3.2765007
 21
5.9664116E-001
  0
LINE
  8
1
  6
CONTINUOUS
 62
1
 10
3.7918299
 20
5.9664116E-001
 11
4.5719632
 21
5.9664116E-001
  0
LINE
  8
1
  6
CONTINUOUS
 62
1
 10
4.7636042
 20
5.9664116E-001
 11
5.8812705
 21
5.9664116E-001
  0
LINE
  8
1
  6
CONTINUOUS
 62
1
 10
6.6768461
 20
5.9664116E-001
 11
7.8836277
 21
5.9664116E-001
  0
LINE
  8
1
  6
CONTINUOUS
 62
1
 10
8.2378379
 20
5.9664116E-001
 11
9.4446194
 21
5.9664116E-001
  0
LINE
  8
1
  6
CONTINUOUS
 62
1
 10
9.4231535
 20
6.8788266E-001
 11
8.221425
 21
6.8788266E-001
  0
LINE
  8
1
  6
CONTINUOUS
 62
1
 10
7.9000406
 20
6.8788266E-001
 11
6.6983121
 21
6.8788266E-001
  0
LINE
  8
1
  6
CONTINUOUS
 62
1
 10
5.8812705
 20
6.8788266E-001
 11
4.7636042
 21
6.8788266E-001
  0
LINE
  8
1
  6
CONTINUOUS
 62
1
 10
4.5920469
 20
6.8788266E-001
 11
3.8119135
 21
6.8788266E-001
  0
LINE
  8
1
  6
CONTINUOUS
 62
1
 10
3.256417
 20
6.8788266E-001
 11
2.4762837
 21
6.8788266E-001
  0
LINE
  8
1
  6
CONTINUOUS
 62
1
 10
2.3047263
 20
6.8788266E-001
 11
1.18706
 21
6.8788266E-001
  0
LINE
  8
1
  6
CONTINUOUS
 62
1
 10
7.2962162E-001
 20
6.8788266E-001
 11
-6.2097098E-001
 21
6.8788266E-001
  0
LINE
  8
1
  6
CONTINUOUS
 62
1
 10
-1.4953406
 20
6.8788266E-001
 11
-2.6130314
 21
6.8788266E-001
  0
LINE
  8
1
  6
CONTINUOUS
 62
1
 10
-3.0616006
 20
6.8788266E-001
 11
-4.3174697
 21
6.8788266E-001
  0
LINE
  8
1
  6
CONTINUOUS
 62
1
 10
-5.1557317
 20
6.8788266E-001
 11
-6.4116009
 21
6.8788266E-001
  0
LINE
  8
1
  6
CONTINUOUS
 62
1
 10
-6.8601701
 20
6.8788266E-001
 11
-8.0895977
 21
6.8788266E-001
  0
LINE
  8
1
  6
CONTINUOUS
 62
1
 10
-8.8719781
 20
6.8788266E-001
 11
-1.0101406E+001
 21
6.8788266E-001
  0
LINE
  8
1
  6
CONTINUOUS
 62
1
 10
-1.0101406E+001
 20
7.7912406E-001
 11
-8.8719781
 21
7.7912406E-001
  0
LINE
  8
1
  6
CONTINUOUS
 62
1
 10
-8.0895977
 20
7.7912406E-001
 11
-6.8609197
 21
7.7912406E-001
  0
LINE
  8
1
  6
CONTINUOUS
 62
1
 10
-6.4041554
 20
7.7912406E-001
 11
-5.1557317
 21
7.7912406E-001
  0
LINE
  8
1
  6
CONTINUOUS
 62
1
 10
-4.3174697
 20
7.7912406E-001
 11
-3.0690461
 21
7.7912406E-001
  0
LINE
  8
1
  6
CONTINUOUS
 62
1
 10
-2.6130314
 20
7.7912406E-001
 11
-1.4953406
 21
7.7912406E-001
  0
LINE
  8
1
  6
CONTINUOUS
 62
1
 10
-6.0238278E-001
 20
7.7912406E-001
 11
7.3808112E-001
 21
7.7912406E-001
  0
LINE
  8
1
  6
CONTINUOUS
 62
1
 10
1.18706
 20
7.7912406E-001
 11
2.3047263
 21
7.7912406E-001
  0
LINE
  8
1
  6
CONTINUOUS
 62
1
 10
2.4562226
 20
7.7912406E-001
 11
3.236356
 21
7.7912406E-001
  0
LINE
  8
1
  6
CONTINUOUS
 62
1
 10
3.8319746
 20
7.7912406E-001
 11
4.6121079
 21
7.7912406E-001
  0
LINE
  8
1
  6
CONTINUOUS
 62
1
 10
4.7636042
 20
7.7912406E-001
 11
5.8812705
 21
7.7912406E-001
  0
LINE
  8
1
  6
CONTINUOUS
 62
1
 10
6.7197742
 20
7.7912406E-001
 11
7.9164497
 21
7.7912406E-001
  0
LINE
  8
1
  6
CONTINUOUS
 62
1
 10
8.2049895
 20
7.7912406E-001
 11
9.4016914
 21
7.7912406E-001
  0
LINE
  8
1
  6
CONTINUOUS
 62
1
 10
9.3802066
 20
8.7036556E-001
 11
8.1885803
 21
8.7036556E-001
  0
LINE
  8
1
  6
CONTINUOUS
 62
1
 10
7.9328852
 20
8.7036556E-001
 11
6.7412363
 21
8.7036556E-001
  0
LINE
  8
1
  6
CONTINUOUS
 62
1
 10
5.8812705
 20
8.7036556E-001
 11
4.7636042
 21
8.7036556E-001
  0
LINE
  8
1
  6
CONTINUOUS
 62
1
 10
4.6321916
 20
8.7036556E-001
 11
3.8520621
 21
8.7036556E-001
  0
LINE
  8
1
  6
CONTINUOUS
 62
1
 10
3.2162723
 20
8.7036556E-001
 11
2.4361389
 21
8.7036556E-001
  0
LINE
  8
1
  6
CONTINUOUS
 62
1
 10
2.3047263
 20
8.7036556E-001
 11
1.18706
 21
8.7036556E-001
  0
LINE
  8
1
  6
CONTINUOUS
 62
1
 10
7.3977302E-001
 20
8.7036556E-001
 11
-6.0122338E-001
 21
8.7036556E-001
  0
LINE
  8
1
  6
CONTINUOUS
 62
1
 10
-1.4953406
 20
8.7036556E-001
 11
-2.6130314
 21
8.7036556E-001
  0
LINE
  8
1
  6
CONTINUOUS
 62
1
 10
-3.0828456
 20
8.7036556E-001
 11
-4.323465
 21
8.7036556E-001
  0
LINE
  8
1
  6
CONTINUOUS
 62
1
 10
-5.1497364
 20
8.7036556E-001
 11
-6.3903559
 21
8.7036556E-001
  0
LINE
  8
1
  6
CONTINUOUS
 62
1
 10
-6.8675173
 20
8.7036556E-001
 11
-8.0895977
 21
8.7036556E-001
  0
LINE
  8
1
  6
CONTINUOUS
 62
1
 10
-8.8719781
 20
8.7036556E-001
 11
-1.0101406E+001
 21
8.7036556E-001
  0
LINE
  8
1
  6
CONTINUOUS
 62
1
 10
-1.0101406E+001
 20
9.6160696E-001
 11
-8.8719781
 21
9.6160696E-001
  0
LINE
  8
1
  6
CONTINUOUS
 62
1
 10
-8.0896222
 20
9.6160696E-001
 11
-6.8810279
 21
9.6160696E-001
  0
LINE
  8
1
  6
CONTINUOUS
 62
1
 10
-6.370004
 20
9.6160696E-001
 11
-5.1211442
 21
9.6160696E-001
  0
LINE
  8
1
  6
CONTINUOUS
 62
1
 10
-4.3520573
 20
9.6160696E-001
 11
-3.1031729
 21
9.6160696E-001
  0
LINE
  8
1
  6
CONTINUOUS
 62
1
 10
-2.6130314
 20
9.6160696E-001
 11
-1.4953406
 21
9.6160696E-001
  0
LINE
  8
1
  6
CONTINUOUS
 62
1
 10
-6.0859518E-001
 20
9.6160696E-001
 11
7.3418742E-001
 21
9.6160696E-001
  0
LINE
  8
1
  6
CONTINUOUS
 62
1
 10
1.18706
 20
9.6160696E-001
 11
3.1962112
 21
9.6160696E-001
  0
LINE
  8
1
  6
CONTINUOUS
 62
1
 10
3.8721231
 20
9.6160696E-001
 11
5.8812705
 21
9.6160696E-001
  0
LINE
  8
1
  6
CONTINUOUS
 62
1
 10
6.7627249
 20
9.6160696E-001
 11
9.3587407
 21
9.6160696E-001
  0
LINE
  8
1
  6
CONTINUOUS
 62
1
 10
9.3372785
 20
1.0528485
 11
6.784187
 21
1.0528485
  0
LINE
  8
1
  6
CONTINUOUS
 62
1
 10
5.8812705
 20
1.0528485
 11
3.8922068
 21
1.0528485
  0
LINE
  8
1
  6
CONTINUOUS
 62
1
 10
3.1761238
 20
1.0528485
 11
1.18706
 21
1.0528485
  0
LINE
  8
1
  6
CONTINUOUS
 62
1
 10
7.2104132E-001
 20
1.0528485
 11
-6.3929098E-001
 21
1.0528485
  0
LINE
  8
1
  6
CONTINUOUS
 62
1
 10
-1.4953406
 20
1.0528485
 11
-2.6130314
 21
1.0528485
  0
LINE
  8
1
  6
CONTINUOUS
 62
1
 10
-3.130364
 20
1.0528485
 11
-4.4109601
 21
1.0528485
  0
LINE
  8
1
  6
CONTINUOUS
 62
1
 10
-5.0622187
 20
1.0528485
 11
-6.3428129
 21
1.0528485
  0
LINE
  8
1
  6
CONTINUOUS
 62
1
 10
-6.9016706
 20
1.0528485
 11
-8.1099476
 21
1.0528485
  0
LINE
  8
1
  6
CONTINUOUS
 62
1
 10
-8.8719781
 20
1.0528485
 11
-1.0101406E+001
 21
1.0528485
  0
LINE
  8
1
  6
CONTINUOUS
 62
1
 10
-1.0101406E+001
 20
1.1440899
 11
-8.8719781
 21
1.1440899
  0
LINE
  8
1
  6
CONTINUOUS
 62
1
 10
-8.1867853
 20
1.1440899
 11
-6.9298285
 21
1.1440899
  0
LINE
  8
1
  6
CONTINUOUS
 62
1
 10
-6.3083216
 20
1.1440899
 11
-4.9436652
 21
1.1440899
  0
LINE
  8
1
  6
CONTINUOUS
 62
1
 10
-4.5295136
 20
1.1440899
 11
-3.1648798
 21
1.1440899
  0
LINE
  8
1
  6
CONTINUOUS
 62
1
 10
-2.6130314
 20
1.1440899
 11
-1.4953406
 21
1.1440899
  0
LINE
  8
1
  6
CONTINUOUS
 62
1
 10
-7.0133598E-001
 20
1.1440899
 11
7.0003612E-001
 21
1.1440899
  0
LINE
  8
1
  6
CONTINUOUS
 62
1
 10
1.18706
 20
1.1440899
 11
3.1560627
 21
1.1440899
  0
LINE
  8
1
  6
CONTINUOUS
 62
1
 10
3.9122678
 20
1.1440899
 11
5.8812705
 21
1.1440899
  0
LINE
  8
1
  6
CONTINUOUS
 62
1
 10
6.8056492
 20
1.1440899
 11
9.3158164
 21
1.1440899
  0
LINE
  8
1
  6
CONTINUOUS
 62
1
 10
9.2943543
 20
1.2353163
 11
6.8271113
 21
1.2353163
  0
LINE
  8
1
  6
CONTINUOUS
 62
1
 10
5.8812705
 20
1.2353163
 11
3.9323289
 21
1.2353163
  0
LINE
  8
1
  6
CONTINUOUS
 62
1
 10
3.135979
 20
1.2353163
 11
1.18706
 21
1.2353163
  0
LINE
  8
1
  6
CONTINUOUS
 62
1
 10
6.7069612E-001
 20
1.2353163
 11
-8.2924018E-001
 21
1.2353163
  0
LINE
  8
1
  6
CONTINUOUS
 62
1
 10
-1.4953406
 20
1.2353163
 11
-2.6130314
 21
1.2353163
  0
LINE
  8
1
  6
CONTINUOUS
 62
1
 10
-3.2073207
 20
1.2353163
 11
-6.2658808
 21
1.2353163
  0
LINE
  8
1
  6
CONTINUOUS
 62
1
 10
-6.9660589
 20
1.2353163
 11
-1.0101406E+001
 21
1.2353163
  0
LINE
  8
1
  6
CONTINUOUS
 62
1
 10
-1.0101406E+001
 20
1.3265577
 11
-7.0112075
 21
1.3265577
  0
LINE
  8
1
  6
CONTINUOUS
 62
1
 10
-6.2145914
 20
1.3265577
 11
-3.2585855
 21
1.3265577
  0
LINE
  8
1
  6
CONTINUOUS
 62
1
 10
-2.6130314
 20
1.3265577
 11
6.3231122E-001
 21
1.3265577
  0
LINE
  8
1
  6
CONTINUOUS
 62
1
 10
1.18706
 20
1.3265577
 11
3.115918
 21
1.3265577
  0
LINE
  8
1
  6
CONTINUOUS
 62
1
 10
3.9524125
 20
1.3265577
 11
5.8812705
 21
1.3265577
  0
LINE
  8
1
  6
CONTINUOUS
 62
1
 10
6.8485734
 20
1.3265577
 11
9.2728657
 21
1.3265577
  0
LINE
  8
1
  6
CONTINUOUS
 62
1
 10
9.2514036
 20
1.4177992
 11
6.870062
 21
1.4177992
  0
LINE
  8
1
  6
CONTINUOUS
 62
1
 10
5.8812705
 20
1.4177992
 11
3.9725
 21
1.4177992
  0
LINE
  8
1
  6
CONTINUOUS
 62
1
 10
3.0958305
 20
1.4177992
 11
1.18706
 21
1.4177992
  0
LINE
  8
1
  6
CONTINUOUS
 62
1
 10
5.8377882E-001
 20
1.4177992
 11
-2.6130314
 21
1.4177992
  0
LINE
  8
1
  6
CONTINUOUS
 62
1
 10
-3.3199525
 20
1.4177992
 11
-6.1532489
 21
1.4177992
  0
LINE
  8
1
  6
CONTINUOUS
 62
1
 10
-7.0664358
 20
1.4177992
 11
-1.0101406E+001
 21
1.4177992
  0
LINE
  8
1
  6
CONTINUOUS
 62
1
 10
-1.0101406E+001
 20
1.5090407
 11
-7.1334828
 21
1.5090407
  0
LINE
  8
1
  6
CONTINUOUS
 62
1
 10
-6.079965
 20
1.5090407
 11
-3.3932119
 21
1.5090407
  0
LINE
  8
1
  6
CONTINUOUS
 62
1
 10
-2.6130314
 20
1.5090407
 11
5.2347482E-001
 21
1.5090407
  0
LINE
  8
1
  6
CONTINUOUS
 62
1
 10
1.18706
 20
1.5090407
 11
3.0757695
 21
1.5090407
  0
LINE
  8
1
  6
CONTINUOUS
 62
1
 10
3.9925611
 20
1.5090407
 11
5.8812705
 21
1.5090407
  0
LINE
  8
1
  6
CONTINUOUS
 62
1
 10
6.8915241
 20
1.5090407
 11
9.2299414
 21
1.5090407
  0
LINE
  8
1
  6
CONTINUOUS
 62
1
 10
9.2084793
 20
1.600267
 11
6.9129863
 21
1.600267
  0
LINE
  8
1
  6
CONTINUOUS
 62
1
 10
5.8812705
 20
1.600267
 11
4.0126221
 21
1.600267
  0
LINE
  8
1
  6
CONTINUOUS
 62
1
 10
3.0556858
 20
1.600267
 11
1.18706
 21
1.600267
  0
LINE
  8
1
  6
CONTINUOUS
 62
1
 10
4.4883892E-001
 20
1.600267
 11
-2.6130314
 21
1.600267
  0
LINE
  8
1
  6
CONTINUOUS
 62
1
 10
-3.4812641
 20
1.600267
 11
-5.9919374
 21
1.600267
  0
LINE
  8
1
  6
CONTINUOUS
 62
1
 10
-7.2150808
 20
1.600267
 11
-1.0101406E+001
 21
1.600267
  0
LINE
  8
1
  6
CONTINUOUS
 62
1
 10
-1.0101406E+001
 20
1.6915085
 11
-7.3157976
 21
1.6915085
  0
LINE
  8
1
  6
CONTINUOUS
 62
1
 10
-5.884334
 20
1.6915085
 11
-3.5888674
 21
1.6915085
  0
LINE
  8
1
  6
CONTINUOUS
 62
1
 10
-2.6130314
 20
1.6915085
 11
3.5549392E-001
 21
1.6915085
  0
LINE
  8
1
  6
CONTINUOUS
 62
1
 10
1.18706
 20
1.6915085
 11
3.0356248
 21
1.6915085
  0
LINE
  8
1
  6
CONTINUOUS
 62
1
 10
4.0327058
 20
1.6915085
 11
5.8812705
 21
1.6915085
  0
LINE
  8
1
  6
CONTINUOUS
 62
1
 10
6.9344522
 20
1.6915085
 11
9.1870134
 21
1.6915085
  0
LINE
  8
1
  6
CONTINUOUS
 62
1
 10
9.1655286
 20
1.7827499
 11
6.9559143
 21
1.7827499
  0
LINE
  8
1
  6
CONTINUOUS
 62
1
 10
5.8812705
 20
1.7827499
 11
4.0527668
 21
1.7827499
  0
LINE
  8
1
  6
CONTINUOUS
 62
1
 10
3.0155637
 20
1.7827499
 11
1.18706
 21
1.7827499
  0
LINE
  8
1
  6
CONTINUOUS
 62
1
 10
2.3491242E-001
 20
1.7827499
 11
-2.6130314
 21
1.7827499
  0
LINE
  8
1
  6
CONTINUOUS
 62
1
 10
-3.7252821
 20
1.7827499
 11
-5.7479194
 21
1.7827499
  0
LINE
  8
1
  6
CONTINUOUS
 62
1
 10
-7.444527
 20
1.7827499
 11
-1.0101406E+001
 21
1.7827499
  0
LINE
  8
1
  6
CONTINUOUS
 62
1
 10
-1.0101406E+001
 20
1.8739763
 11
-7.6239641
 21
1.8739763
  0
LINE
  8
1
  6
CONTINUOUS
 62
1
 10
-5.5590314
 20
1.8739763
 11
-3.91417
 21
1.8739763
  0
LINE
  8
1
  6
CONTINUOUS
 62
1
 10
-2.6130314
 20
1.8739763
 11
6.5432119E-002
 21
1.8739763
  0
LINE
  8
1
  6
CONTINUOUS
 62
1
 10
1.18706
 20
1.8739763
 11
2.99548
 21
1.8739763
  0
LINE
  8
1
  6
CONTINUOUS
 62
1
 10
4.0728543
 20
1.8739763
 11
5.8812705
 21
1.8739763
  0
LINE
  8
1
  6
CONTINUOUS
 62
1
 10
6.9773991
 20
1.8739763
 11
9.1440664
 21
1.8739763
  0
LINE
  8
1
  6
CONTINUOUS
 62
1
 10
9.1226005
 20
1.9652177
 11
6.998865
 21
1.9652177
  0
LINE
  8
1
  6
CONTINUOUS
 62
1
 10
5.8812705
 20
1.9652177
 11
4.0929153
 21
1.9652177
  0
LINE
  8
1
  6
CONTINUOUS
 62
1
 10
2.975419
 20
1.9652177
 11
1.18706
 21
1.9652177
  0
LINE
  8
1
  6
CONTINUOUS
 62
1
 10
-3.4944458E-001
 20
1.9652177
 11
-2.6130314
 21
1.9652177
  0
LINE
  8
1
  6
CONTINUOUS
 62
1
 10
-4.370451
 20
1.9652177
 11
-5.1027259
 21
1.9652177
  0
LINE
  8
1
  6
CONTINUOUS
 62
1
 10
-8.0600141
 20
1.9652177
 11
-1.0101406E+001
 21
1.9652177
  0
ENDBLK
  0
BLOCK
  2
*XH33
  3
*XH
 10
0.0
 20
0.0
 70
65
  0
LINE
  8
1
  6
CONTINUOUS
 62
1
 10
-9.5929448
 20
-3.4617919
 11
-8.1589188
 21
-3.4617919
  0
LINE
  8
1
  6
CONTINUOUS
 62
1
 10
8.1589186
 20
-3.4617919
 11
9.5929465
 21
-3.4617919
  0
LINE
  8
1
  6
CONTINUOUS
 62
1
 10
9.6189783
 20
-3.3705505
 11
8.1850713
 21
-3.3705505
  0
LINE
  8
1
  6
CONTINUOUS
 62
1
 10
-8.1850714
 20
-3.3705505
 11
-9.6189766
 21
-3.3705505
  0
LINE
  8
1
  6
CONTINUOUS
 62
1
 10
-9.6449838
 20
-3.279309
 11
-8.2112467
 21
-3.279309
  0
LINE
  8
1
  6
CONTINUOUS
 62
1
 10
8.2112465
 20
-3.279309
 11
9.6449836
 21
-3.279309
  0
LINE
  8
1
  6
CONTINUOUS
 62
1
 10
9.6710154
 20
-3.1880827
 11
8.2373991
 21
-3.1880827
  0
LINE
  8
1
  6
CONTINUOUS
 62
1
 10
-8.2373993
 20
-3.1880827
 11
-9.6710137
 21
-3.1880827
  0
LINE
  8
1
  6
CONTINUOUS
 62
1
 10
-9.6970454
 20
-3.0968412
 11
-8.2635519
 21
-3.0968412
  0
LINE
  8
1
  6
CONTINUOUS
 62
1
 10
8.2635517
 20
-3.0968412
 11
9.6970471
 21
-3.0968412
  0
LINE
  8
1
  6
CONTINUOUS
 62
1
 10
9.7230525
 20
-3.0055998
 11
8.289727
 21
-3.0055998
  0
LINE
  8
1
  6
CONTINUOUS
 62
1
 10
-8.2897272
 20
-3.0055998
 11
-9.7230527
 21
-3.0055998
  0
LINE
  8
1
  6
CONTINUOUS
 62
1
 10
-9.7490825
 20
-2.9143583
 11
-8.3158798
 21
-2.9143583
  0
LINE
  8
1
  6
CONTINUOUS
 62
1
 10
8.3158796
 20
-2.9143583
 11
9.7490842
 21
-2.9143583
  0
LINE
  8
1
  6
CONTINUOUS
 62
1
 10
9.775116
 20
-2.8231169
 11
8.3420549
 21
-2.8231169
  0
LINE
  8
1
  6
CONTINUOUS
 62
1
 10
-8.3420551
 20
-2.8231169
 11
-9.7751143
 21
-2.8231169
  0
LINE
  8
1
  6
CONTINUOUS
 62
1
 10
-9.8011442
 20
-2.7318905
 11
-8.3682077
 21
-2.7318905
  0
LINE
  8
1
  6
CONTINUOUS
 62
1
 10
8.3682075
 20
-2.7318905
 11
9.8011213
 21
-2.7318905
  0
LINE
  8
1
  6
CONTINUOUS
 62
1
 10
9.8271531
 20
-2.6406491
 11
8.3943828
 21
-2.6406491
  0
LINE
  8
1
  6
CONTINUOUS
 62
1
 10
-8.394383
 20
-2.6406491
 11
-9.8271514
 21
-2.6406491
  0
LINE
  8
1
  6
CONTINUOUS
 62
1
 10
-9.8531831
 20
-2.5494076
 11
-8.4205356
 21
-2.5494076
  0
LINE
  8
1
  6
CONTINUOUS
 62
1
 10
8.4205354
 20
-2.5494076
 11
9.8531848
 21
-2.5494076
  0
LINE
  8
1
  6
CONTINUOUS
 62
1
 10
9.8792128
 20
-2.4581813
 11
8.446688
 21
-2.4581813
  0
LINE
  8
1
  6
CONTINUOUS
 62
1
 10
-8.4466863
 20
-2.4581813
 11
-9.879213
 21
-2.4581813
  0
LINE
  8
1
  6
CONTINUOUS
 62
1
 10
-9.9052202
 20
-2.3669398
 11
-8.4728635
 21
-2.3669398
  0
LINE
  8
1
  6
CONTINUOUS
 62
1
 10
8.4728633
 20
-2.3669398
 11
9.9052219
 21
-2.3669398
  0
LINE
  8
1
  6
CONTINUOUS
 62
1
 10
9.9312537
 20
-2.2756983
 11
8.4990159
 21
-2.2756983
  0
LINE
  8
1
  6
CONTINUOUS
 62
1
 10
1.8970508
 20
-2.2756983
 11
1.8246355
 21
-2.2756983
  0
LINE
  8
1
  6
CONTINUOUS
 62
1
 10
-1.8246356
 20
-2.2756983
 11
-1.8970491
 21
-2.2756983
  0
LINE
  8
1
  6
CONTINUOUS
 62
1
 10
-8.4990142
 20
-2.2756983
 11
-9.931252
 21
-2.2756983
  0
LINE
  8
1
  6
CONTINUOUS
 62
1
 10
-9.9572819
 20
-2.1844569
 11
-8.5251913
 21
-2.1844569
  0
LINE
  8
1
  6
CONTINUOUS
 62
1
 10
-2.6823299
 20
-2.1844569
 11
-1.7719698
 21
-2.1844569
  0
LINE
  8
1
  6
CONTINUOUS
 62
1
 10
1.7719715
 20
-2.1844569
 11
2.6823542
 21
-2.1844569
  0
LINE
  8
1
  6
CONTINUOUS
 62
1
 10
8.5251911
 20
-2.1844569
 11
9.9572817
 21
-2.1844569
  0
LINE
  8
1
  6
CONTINUOUS
 62
1
 10
9.9832908
 20
-2.0932305
 11
8.5513438
 21
-2.0932305
  0
LINE
  8
1
  6
CONTINUOUS
 62
1
 10
3.2824707
 20
-2.0932305
 11
1.719281
 21
-2.0932305
  0
LINE
  8
1
  6
CONTINUOUS
 62
1
 10
-1.7192793
 20
-2.0932305
 11
-3.2824445
 21
-2.0932305
  0
LINE
  8
1
  6
CONTINUOUS
 62
1
 10
-8.5513421
 20
-2.0932305
 11
-9.9833136
 21
-2.0932305
  0
LINE
  8
1
  6
CONTINUOUS
 62
1
 10
-1.0009321E+001
 20
-2.0019891
 11
-8.5775192
 21
-2.0019891
  0
LINE
  8
1
  6
CONTINUOUS
 62
1
 10
-3.7864837
 20
-2.0019891
 11
-1.6666135
 21
-2.0019891
  0
LINE
  8
1
  6
CONTINUOUS
 62
1
 10
1.6666133
 20
-2.0019891
 11
3.7864854
 21
-2.0019891
  0
LINE
  8
1
  6
CONTINUOUS
 62
1
 10
8.577519
 20
-2.0019891
 11
1.0009322E+001
 21
-2.0019891
  0
LINE
  8
1
  6
CONTINUOUS
 62
1
 10
1.003535E+001
 20
-1.9107476
 11
8.6036716
 21
-1.9107476
  0
LINE
  8
1
  6
CONTINUOUS
 62
1
 10
4.2289158
 20
-1.9107476
 11
1.6139455
 21
-1.9107476
  0
LINE
  8
1
  6
CONTINUOUS
 62
1
 10
-1.6139438
 20
-1.9107476
 11
-4.2289141
 21
-1.9107476
  0
LINE
  8
1
  6
CONTINUOUS
 62
1
 10
-8.6036699
 20
-1.9107476
 11
-1.0035351E+001
 21
-1.9107476
  0
LINE
  8
1
  6
CONTINUOUS
 62
1
 10
-1.0061383E+001
 20
-1.8195062
 11
-8.6298225
 21
-1.8195062
  0
LINE
  8
1
  6
CONTINUOUS
 62
1
 10
-4.6274515
 20
-1.8195062
 11
-1.5612534
 21
-1.8195062
  0
LINE
  8
1
  6
CONTINUOUS
 62
1
 10
1.5612551
 20
-1.8195062
 11
4.6274514
 21
-1.8195062
  0
LINE
  8
1
  6
CONTINUOUS
 62
1
 10
8.6298242
 20
-1.8195062
 11
1.0061382E+001
 21
-1.8195062
  0
LINE
  8
1
  6
CONTINUOUS
 62
1
 10
1.0087391E+001
 20
-1.7282647
 11
8.6559995
 21
-1.7282647
  0
LINE
  8
1
  6
CONTINUOUS
 62
1
 10
4.9926362
 20
-1.7282647
 11
1.5085911
 21
-1.7282647
  0
LINE
  8
1
  6
CONTINUOUS
 62
1
 10
-1.5085894
 20
-1.7282647
 11
-4.9926364
 21
-1.7282647
  0
LINE
  8
1
  6
CONTINUOUS
 62
1
 10
-8.6559978
 20
-1.7282647
 11
-1.008739E+001
 21
-1.7282647
  0
LINE
  8
1
  6
CONTINUOUS
 62
1
 10
-1.011342E+001
 20
-1.6370233
 11
-8.6821504
 21
-1.6370233
  0
LINE
  8
1
  6
CONTINUOUS
 62
1
 10
-5.3312797
 20
-1.6370233
 11
-1.4558989
 21
-1.6370233
  0
LINE
  8
1
  6
CONTINUOUS
 62
1
 10
1.4559006
 20
-1.6370233
 11
5.3313059
 21
-1.6370233
  0
LINE
  8
1
  6
CONTINUOUS
 62
1
 10
8.6821521
 20
-1.6370233
 11
1.0113419E+001
 21
-1.6370233
  0
LINE
  8
1
  6
CONTINUOUS
 62
1
 10
1.0139451E+001
 20
-1.5457818
 11
8.7083274
 21
-1.5457818
  0
LINE
  8
1
  6
CONTINUOUS
 62
1
 10
5.6482227
 20
-1.5457818
 11
1.4032329
 21
-1.5457818
  0
LINE
  8
1
  6
CONTINUOUS
 62
1
 10
-1.4032349
 20
-1.5457818
 11
-5.648221
 21
-1.5457818
  0
LINE
  8
1
  6
CONTINUOUS
 62
1
 10
-8.7083257
 20
-1.5457818
 11
-1.0139451E+001
 21
-1.5457818
  0
LINE
  8
1
  6
CONTINUOUS
 62
1
 10
-1.0165459E+001
 20
-1.4545404
 11
-8.7344783
 21
-1.4545404
  0
LINE
  8
1
  6
CONTINUOUS
 62
1
 10
-5.9468876
 20
-1.4545404
 11
-1.3505445
 21
-1.4545404
  0
LINE
  8
1
  6
CONTINUOUS
 62
1
 10
1.3505424
 20
-1.4545404
 11
5.9468874
 21
-1.4545404
  0
LINE
  8
1
  6
CONTINUOUS
 62
1
 10
8.73448
 20
-1.4545404
 11
1.016546E+001
 21
-1.4545404
  0
LINE
  8
1
  6
CONTINUOUS
 62
1
 10
1.0191488E+001
 20
-1.363314
 11
8.7606553
 21
-1.363314
  0
LINE
  8
1
  6
CONTINUOUS
 62
1
 10
6.2299172
 20
-1.363314
 11
1.2978784
 21
-1.363314
  0
LINE
  8
1
  6
CONTINUOUS
 62
1
 10
-1.2978767
 20
-1.363314
 11
-6.2299174
 21
-1.363314
  0
LINE
  8
1
  6
CONTINUOUS
 62
1
 10
-8.7606536
 20
-1.363314
 11
-1.0191488E+001
 21
-1.363314
  0
LINE
  8
1
  6
CONTINUOUS
 62
1
 10
-1.021752E+001
 20
-1.2720726
 11
-8.7868062
 21
-1.2720726
  0
LINE
  8
1
  6
CONTINUOUS
 62
1
 10
-6.4993402
 20
-1.2720726
 11
-1.2451863
 21
-1.2720726
  0
LINE
  8
1
  6
CONTINUOUS
 62
1
 10
1.245188
 20
-1.2720726
 11
6.49934
 21
-1.2720726
  0
LINE
  8
1
  6
CONTINUOUS
 62
1
 10
8.7868079
 20
-1.2720726
 11
1.021752E+001
 21
-1.2720726
  0
LINE
  8
1
  6
CONTINUOUS
 62
1
 10
1.0243529E+001
 20
-1.1808311
 11
8.8129567
 21
-1.1808311
  0
LINE
  8
1
  6
CONTINUOUS
 62
1
 10
6.7568215
 20
-1.1808311
 11
1.1925202
 21
-1.1808311
  0
LINE
  8
1
  6
CONTINUOUS
 62
1
 10
-1.1925185
 20
-1.1808311
 11
-6.7568217
 21
-1.1808311
  0
LINE
  8
1
  6
CONTINUOUS
 62
1
 10
-8.8129569
 20
-1.1808311
 11
-1.0243552E+001
 21
-1.1808311
  0
LINE
  8
1
  6
CONTINUOUS
 62
1
 10
-1.0269557E+001
 20
-1.0895896
 11
-8.8391341
 21
-1.0895896
  0
LINE
  8
1
  6
CONTINUOUS
 62
1
 10
-7.0036457
 20
-1.0895896
 11
-1.1398508
 21
-1.0895896
  0
LINE
  8
1
  6
CONTINUOUS
 62
1
 10
1.1398525
 20
-1.0895896
 11
7.0036455
 21
-1.0895896
  0
LINE
  8
1
  6
CONTINUOUS
 62
1
 10
8.8391358
 20
-1.0895896
 11
1.0269557E+001
 21
-1.0895896
  0
LINE
  8
1
  6
CONTINUOUS
 62
1
 10
1.0295589E+001
 20
-9.9834822E-001
 11
8.8652846
 21
-9.9834822E-001
  0
LINE
  8
1
  6
CONTINUOUS
 62
1
 10
7.2409223
 20
-9.9834822E-001
 11
1.087162
 21
-9.9834822E-001
  0
LINE
  8
1
  6
CONTINUOUS
 62
1
 10
-1.0871603
 20
-9.9834822E-001
 11
-7.2409225
 21
-9.9834822E-001
  0
LINE
  8
1
  6
CONTINUOUS
 62
1
 10
-8.8652848
 20
-9.9834822E-001
 11
-1.0295589E+001
 21
-9.9834822E-001
  0
LINE
  8
1
  6
CONTINUOUS
 62
1
 10
-1.0321621E+001
 20
-9.0712182E-001
 11
-8.891462
 21
-9.0712182E-001
  0
LINE
  8
1
  6
CONTINUOUS
 62
1
 10
-7.4695454
 20
-9.0712182E-001
 11
-1.0344964
 21
-9.0712182E-001
  0
LINE
  8
1
  6
CONTINUOUS
 62
1
 10
1.0344981
 20
-9.0712182E-001
 11
7.4695471
 21
-9.0712182E-001
  0
LINE
  8
1
  6
CONTINUOUS
 62
1
 10
8.8914637
 20
-9.0712182E-001
 11
1.0321621E+001
 21
-9.0712182E-001
  0
LINE
  8
1
  6
CONTINUOUS
 62
1
 10
1.0347626E+001
 20
-8.1588042E-001
 11
8.9176125
 21
-8.1588042E-001
  0
LINE
  8
1
  6
CONTINUOUS
 62
1
 10
7.6902903
 20
-8.1588042E-001
 11
9.8180755E-001
 21
-8.1588042E-001
  0
LINE
  8
1
  6
CONTINUOUS
 62
1
 10
-9.8180595E-001
 20
-8.1588042E-001
 11
-7.6902886
 21
-8.1588042E-001
  0
LINE
  8
1
  6
CONTINUOUS
 62
1
 10
-8.9176127
 20
-8.1588042E-001
 11
-1.0347626E+001
 21
-8.1588042E-001
  0
LINE
  8
1
  6
CONTINUOUS
 62
1
 10
-1.0373658E+001
 20
-7.2463892E-001
 11
-8.9437898
 21
-7.2463892E-001
  0
LINE
  8
1
  6
CONTINUOUS
 62
1
 10
-7.9038053
 20
-7.2463892E-001
 11
-9.2914195E-001
 21
-7.2463892E-001
  0
LINE
  8
1
  6
CONTINUOUS
 62
1
 10
9.2913985E-001
 20
-7.2463892E-001
 11
7.9038316
 21
-7.2463892E-001
  0
LINE
  8
1
  6
CONTINUOUS
 62
1
 10
8.9437915
 20
-7.2463892E-001
 11
1.0373658E+001
 21
-7.2463892E-001
  0
LINE
  8
1
  6
CONTINUOUS
 62
1
 10
1.0399689E+001
 20
-6.3341262E-001
 11
8.9699404
 21
-6.3341262E-001
  0
LINE
  8
1
  6
CONTINUOUS
 62
1
 10
8.1106996
 20
-6.3341262E-001
 11
8.7647585E-001
 21
-6.3341262E-001
  0
LINE
  8
1
  6
CONTINUOUS
 62
1
 10
-8.7647425E-001
 20
-6.3341262E-001
 11
-8.1106998
 21
-6.3341262E-001
  0
LINE
  8
1
  6
CONTINUOUS
 62
1
 10
-8.9699406
 20
-6.3341262E-001
 11
-1.039969E+001
 21
-6.3341262E-001
  0
LINE
  8
1
  6
CONTINUOUS
 62
1
 10
-1.0425695E+001
 20
-5.4217112E-001
 11
-8.9960932
 21
-5.4217112E-001
  0
LINE
  8
1
  6
CONTINUOUS
 62
1
 10
-8.311431
 20
-5.4217112E-001
 11
-2.8739483
 21
-5.4217112E-001
  0
LINE
  8
1
  6
CONTINUOUS
 62
1
 10
-2.404085
 20
-5.4217112E-001
 11
-8.2378375E-001
 21
-5.4217112E-001
  0
LINE
  8
1
  6
CONTINUOUS
 62
1
 10
8.2378535E-001
 20
-5.4217112E-001
 11
2.4040867
 21
-5.4217112E-001
  0
LINE
  8
1
  6
CONTINUOUS
 62
1
 10
2.87395
 20
-5.4217112E-001
 11
8.3114573
 21
-5.4217112E-001
  0
LINE
  8
1
  6
CONTINUOUS
 62
1
 10
8.996093
 20
-5.4217112E-001
 11
1.0425695E+001
 21
-5.4217112E-001
  0
LINE
  8
1
  6
CONTINUOUS
 62
1
 10
1.0451726E+001
 20
-4.5092972E-001
 11
9.0222682
 21
-4.5092972E-001
  0
LINE
  8
1
  6
CONTINUOUS
 62
1
 10
8.5064595
 20
-4.5092972E-001
 11
3.3969871
 21
-4.5092972E-001
  0
LINE
  8
1
  6
CONTINUOUS
 62
1
 10
2.3513962
 20
-4.5092972E-001
 11
7.7111765E-001
 21
-4.5092972E-001
  0
LINE
  8
1
  6
CONTINUOUS
 62
1
 10
-7.7111605E-001
 20
-4.5092972E-001
 11
-2.3513945
 21
-4.5092972E-001
  0
LINE
  8
1
  6
CONTINUOUS
 62
1
 10
-3.3969854
 20
-4.5092972E-001
 11
-8.5064596
 21
-4.5092972E-001
  0
LINE
  8
1
  6
CONTINUOUS
 62
1
 10
-9.0222684
 20
-4.5092972E-001
 11
-1.0451727E+001
 21
-4.5092972E-001
  0
LINE
  8
1
  6
CONTINUOUS
 62
1
 10
-1.0477759E+001
 20
-3.5968822E-001
 11
-9.048421
 21
-3.5968822E-001
  0
LINE
  8
1
  6
CONTINUOUS
 62
1
 10
-8.6961444
 20
-3.5968822E-001
 11
-3.8474164
 21
-3.5968822E-001
  0
LINE
  8
1
  6
CONTINUOUS
 62
1
 10
-2.2987287
 20
-3.5968822E-001
 11
-7.1842555E-001
 21
-3.5968822E-001
  0
LINE
  8
1
  6
CONTINUOUS
 62
1
 10
7.1842715E-001
 20
-3.5968822E-001
 11
2.2987285
 21
-3.5968822E-001
  0
LINE
  8
1
  6
CONTINUOUS
 62
1
 10
3.8474162
 20
-3.5968822E-001
 11
8.6961707
 21
-3.5968822E-001
  0
LINE
  8
1
  6
CONTINUOUS
 62
1
 10
9.0484209
 20
-3.5968822E-001
 11
1.0477758E+001
 21
-3.5968822E-001
  0
LINE
  8
1
  6
CONTINUOUS
 62
1
 10
1.050379E+001
 20
-2.6846192E-001
 11
9.0745961
 21
-2.6846192E-001
  0
LINE
  8
1
  6
CONTINUOUS
 62
1
 10
8.8808742
 20
-2.6846192E-001
 11
4.2484443
 21
-2.6846192E-001
  0
LINE
  8
1
  6
CONTINUOUS
 62
1
 10
2.2460645
 20
-2.6846192E-001
 11
6.6576315E-001
 21
-2.6846192E-001
  0
LINE
  8
1
  6
CONTINUOUS
 62
1
 10
-6.6575785E-001
 20
-2.6846192E-001
 11
-2.2460628
 21
-2.6846192E-001
  0
LINE
  8
1
  6
CONTINUOUS
 62
1
 10
-4.2484445
 20
-2.6846192E-001
 11
-8.8808744
 21
-2.6846192E-001
  0
LINE
  8
1
  6
CONTINUOUS
 62
1
 10
-9.0745963
 20
-2.6846192E-001
 11
-1.0503788E+001
 21
-2.6846192E-001
  0
LINE
  8
1
  6
CONTINUOUS
 62
1
 10
-1.0529796E+001
 20
-1.7722042E-001
 11
-9.1007489
 21
-1.7722042E-001
  0
LINE
  8
1
  6
CONTINUOUS
 62
1
 10
-9.0608931
 20
-1.7722042E-001
 11
-4.6129496
 21
-1.7722042E-001
  0
LINE
  8
1
  6
CONTINUOUS
 62
1
 10
-2.1933724
 20
-1.7722042E-001
 11
-6.1306735E-001
 21
-1.7722042E-001
  0
LINE
  8
1
  6
CONTINUOUS
 62
1
 10
6.1307275E-001
 20
-1.7722042E-001
 11
2.1933741
 21
-1.7722042E-001
  0
LINE
  8
1
  6
CONTINUOUS
 62
1
 10
4.6129494
 20
-1.7722042E-001
 11
9.0608948
 21
-1.7722042E-001
  0
LINE
  8
1
  6
CONTINUOUS
 62
1
 10
9.1007487
 20
-1.7722042E-001
 11
1.0529795E+001
 21
-1.7722042E-001
  0
LINE
  8
1
  6
CONTINUOUS
 62
1
 10
1.0555827E+001
 20
-8.5979021E-002
 11
4.9489868
 21
-8.5979021E-002
  0
LINE
  8
1
  6
CONTINUOUS
 62
1
 10
2.1407063
 20
-8.5979021E-002
 11
5.6040495E-001
 21
-8.5979021E-002
  0
LINE
  8
1
  6
CONTINUOUS
 62
1
 10
-5.6040335E-001
 20
-8.5979021E-002
 11
-2.1407065
 21
-8.5979021E-002
  0
LINE
  8
1
  6
CONTINUOUS
 62
1
 10
-4.9489851
 20
-8.5979021E-002
 11
-1.0555827E+001
 21
-8.5979021E-002
  0
LINE
  8
1
  6
CONTINUOUS
 62
1
 10
-1.0581857E+001
 20
5.2624789E-003
 11
-5.2620574
 21
5.2624789E-003
  0
LINE
  8
1
  6
CONTINUOUS
 62
1
 10
-2.088016
 20
5.2624789E-003
 11
-5.0773935E-001
 21
5.2624789E-003
  0
LINE
  8
1
  6
CONTINUOUS
 62
1
 10
5.0773725E-001
 20
5.2624789E-003
 11
2.0880159
 21
5.2624789E-003
  0
LINE
  8
1
  6
CONTINUOUS
 62
1
 10
5.2620591
 20
5.2624789E-003
 11
1.0581859E+001
 21
5.2624789E-003
  0
LINE
  8
1
  6
CONTINUOUS
 62
1
 10
1.0607864E+001
 20
9.6503979E-002
 11
5.5560144
 21
9.6503979E-002
  0
LINE
  8
1
  6
CONTINUOUS
 62
1
 10
2.0353481
 20
9.6503979E-002
 11
4.5504675E-001
 21
9.6503979E-002
  0
LINE
  8
1
  6
CONTINUOUS
 62
1
 10
-4.5504895E-001
 20
9.6503979E-002
 11
-2.0353483
 21
9.6503979E-002
  0
LINE
  8
1
  6
CONTINUOUS
 62
1
 10
-5.5560127
 20
9.6503979E-002
 11
-1.0607864E+001
 21
9.6503979E-002
  0
LINE
  8
1
  6
CONTINUOUS
 62
1
 10
-1.0633896E+001
 20
1.8774538E-001
 11
-5.8337497
 21
1.8774538E-001
  0
LINE
  8
1
  6
CONTINUOUS
 62
1
 10
-1.9826578
 20
1.8774538E-001
 11
-4.0238115E-001
 21
1.8774538E-001
  0
LINE
  8
1
  6
CONTINUOUS
 62
1
 10
4.0237905E-001
 20
1.8774538E-001
 11
1.9826577
 21
1.8774538E-001
  0
LINE
  8
1
  6
CONTINUOUS
 62
1
 10
5.8337495
 20
1.8774538E-001
 11
1.0633896E+001
 21
1.8774538E-001
  0
LINE
  8
1
  6
CONTINUOUS
 62
1
 10
1.0659928E+001
 20
2.7898688E-001
 11
6.097466
 21
2.7898688E-001
  0
LINE
  8
1
  6
CONTINUOUS
 62
1
 10
1.9299937
 20
2.7898688E-001
 11
3.4968855E-001
 21
2.7898688E-001
  0
LINE
  8
1
  6
CONTINUOUS
 62
1
 10
-3.4969075E-001
 20
2.7898688E-001
 11
-1.929992
 21
2.7898688E-001
  0
LINE
  8
1
  6
CONTINUOUS
 62
1
 10
-6.0974907
 20
2.7898688E-001
 11
-1.0659926E+001
 21
2.7898688E-001
  0
LINE
  8
1
  6
CONTINUOUS
 62
1
 10
-1.0685958E+001
 20
3.7022828E-001
 11
-6.3489542
 21
3.7022828E-001
  0
LINE
  8
1
  6
CONTINUOUS
 62
1
 10
-1.8773261
 20
3.7022828E-001
 11
-2.9702295E-001
 21
3.7022828E-001
  0
LINE
  8
1
  6
CONTINUOUS
 62
1
 10
2.9702455E-001
 20
3.7022828E-001
 11
1.8773259
 21
3.7022828E-001
  0
LINE
  8
1
  6
CONTINUOUS
 62
1
 10
6.348954
 20
3.7022828E-001
 11
1.0685933E+001
 21
3.7022828E-001
  0
LINE
  8
1
  6
CONTINUOUS
 62
1
 10
1.0711965E+001
 20
4.6145468E-001
 11
6.589592
 21
4.6145468E-001
  0
LINE
  8
1
  6
CONTINUOUS
 62
1
 10
1.8246355
 20
4.6145468E-001
 11
2.4433415E-001
 21
4.6145468E-001
  0
LINE
  8
1
  6
CONTINUOUS
 62
1
 10
-2.4433255E-001
 20
4.6145468E-001
 11
-1.8246356
 21
4.6145468E-001
  0
LINE
  8
1
  6
CONTINUOUS
 62
1
 10
-6.5895903
 20
4.6145468E-001
 11
-1.0711965E+001
 21
4.6145468E-001
  0
LINE
  8
1
  6
CONTINUOUS
 62
1
 10
-1.0737995E+001
 20
5.5269608E-001
 11
-6.8205094
 21
5.5269608E-001
  0
LINE
  8
1
  6
CONTINUOUS
 62
1
 10
-1.7719698
 20
5.5269608E-001
 11
-1.9166475E-001
 21
5.5269608E-001
  0
LINE
  8
1
  6
CONTINUOUS
 62
1
 10
1.9167015E-001
 20
5.5269608E-001
 11
1.7719715
 21
5.5269608E-001
  0
LINE
  8
1
  6
CONTINUOUS
 62
1
 10
6.8205092
 20
5.5269608E-001
 11
1.0737997E+001
 21
5.5269608E-001
  0
LINE
  8
1
  6
CONTINUOUS
 62
1
 10
1.0764028E+001
 20
6.4393758E-001
 11
7.0427063
 21
6.4393758E-001
  0
LINE
  8
1
  6
CONTINUOUS
 62
1
 10
1.719281
 20
6.4393758E-001
 11
1.3897975E-001
 21
6.4393758E-001
  0
LINE
  8
1
  6
CONTINUOUS
 62
1
 10
-1.3897435E-001
 20
6.4393758E-001
 11
-1.7192793
 21
6.4393758E-001
  0
LINE
  8
1
  6
CONTINUOUS
 62
1
 10
-7.0427046
 20
6.4393758E-001
 11
-1.0764027E+001
 21
6.4393758E-001
  0
LINE
  8
1
  6
CONTINUOUS
 62
1
 10
-1.0790034E+001
 20
7.3517898E-001
 11
-7.2569219
 21
7.3517898E-001
  0
LINE
  8
1
  6
CONTINUOUS
 62
1
 10
-1.6666135
 20
7.3517898E-001
 11
-8.6310348E-002
 21
7.3517898E-001
  0
LINE
  8
1
  6
CONTINUOUS
 62
1
 10
8.6311952E-002
 20
7.3517898E-001
 11
1.6666133
 21
7.3517898E-001
  0
LINE
  8
1
  6
CONTINUOUS
 62
1
 10
7.2569236
 20
7.3517898E-001
 11
1.0790034E+001
 21
7.3517898E-001
  0
LINE
  8
1
  6
CONTINUOUS
 62
1
 10
1.0816065E+001
 20
8.2640538E-001
 11
7.4639125
 21
8.2640538E-001
  0
LINE
  8
1
  6
CONTINUOUS
 62
1
 10
1.6139228
 20
8.2640538E-001
 11
3.3644152E-002
 21
8.2640538E-001
  0
LINE
  8
1
  6
CONTINUOUS
 62
1
 10
-3.3646348E-002
 20
8.2640538E-001
 11
-1.6139211
 21
8.2640538E-001
  0
LINE
  8
1
  6
CONTINUOUS
 62
1
 10
-7.4639127
 20
8.2640538E-001
 11
-1.0816064E+001
 21
8.2640538E-001
  0
LINE
  8
1
  6
CONTINUOUS
 62
1
 10
-1.0842096E+001
 20
9.1764678E-001
 11
-7.6642096
 21
9.1764678E-001
  0
LINE
  8
1
  6
CONTINUOUS
 62
1
 10
-1.5612534
 20
9.1764678E-001
 11
1.5612551
 21
9.1764678E-001
  0
LINE
  8
1
  6
CONTINUOUS
 62
1
 10
7.6642094
 20
9.1764678E-001
 11
1.0842097E+001
 21
9.1764678E-001
  0
LINE
  8
1
  6
CONTINUOUS
 62
1
 10
1.0868102E+001
 20
1.0088883
 11
7.858343
 21
1.0088883
  0
LINE
  8
1
  6
CONTINUOUS
 62
1
 10
1.5085911
 20
1.0088883
 11
-1.5085894
 21
1.0088883
  0
LINE
  8
1
  6
CONTINUOUS
 62
1
 10
-7.8583432
 20
1.0088883
 11
-1.0868125E+001
 21
1.0088883
  0
LINE
  8
1
  6
CONTINUOUS
 62
1
 10
-1.0894133E+001
 20
1.1001297
 11
-8.0467704
 21
1.1001297
  0
LINE
  8
1
  6
CONTINUOUS
 62
1
 10
-1.4558989
 20
1.1001297
 11
1.4559006
 21
1.1001297
  0
LINE
  8
1
  6
CONTINUOUS
 62
1
 10
8.0467702
 20
1.1001297
 11
1.0894134E+001
 21
1.1001297
  0
LINE
  8
1
  6
CONTINUOUS
 62
1
 10
1.0920166E+001
 20
1.1913561
 11
8.2298574
 21
1.1913561
  0
LINE
  8
1
  6
CONTINUOUS
 62
1
 10
1.4032329
 20
1.1913561
 11
-1.4032349
 21
1.1913561
  0
LINE
  8
1
  6
CONTINUOUS
 62
1
 10
-8.2298575
 20
1.1913561
 11
-1.0920164E+001
 21
1.1913561
  0
LINE
  8
1
  6
CONTINUOUS
 62
1
 10
-1.0946194E+001
 20
1.2825975
 11
-8.4079899
 21
1.2825975
  0
LINE
  8
1
  6
CONTINUOUS
 62
1
 10
-1.3505445
 20
1.2825975
 11
1.3505424
 21
1.2825975
  0
LINE
  8
1
  6
CONTINUOUS
 62
1
 10
8.4079897
 20
1.2825975
 11
1.0946194E+001
 21
1.2825975
  0
LINE
  8
1
  6
CONTINUOUS
 62
1
 10
1.0972203E+001
 20
1.373839
 11
8.5814353
 21
1.373839
  0
LINE
  8
1
  6
CONTINUOUS
 62
1
 10
1.2978784
 20
1.373839
 11
-1.2978767
 21
1.373839
  0
LINE
  8
1
  6
CONTINUOUS
 62
1
 10
-8.5814336
 20
1.373839
 11
-1.0972201E+001
 21
1.373839
  0
LINE
  8
1
  6
CONTINUOUS
 62
1
 10
-1.0998233E+001
 20
1.4650654
 11
-8.7505022
 21
1.4650654
  0
LINE
  8
1
  6
CONTINUOUS
 62
1
 10
-1.2451863
 20
1.4650654
 11
1.245188
 21
1.4650654
  0
LINE
  8
1
  6
CONTINUOUS
 62
1
 10
8.7505039
 20
1.4650654
 11
1.0998235E+001
 21
1.4650654
  0
LINE
  8
1
  6
CONTINUOUS
 62
1
 10
1.1024263E+001
 20
1.5563068
 11
8.9154372
 21
1.5563068
  0
LINE
  8
1
  6
CONTINUOUS
 62
1
 10
1.1925202
 20
1.5563068
 11
-1.1925185
 21
1.5563068
  0
LINE
  8
1
  6
CONTINUOUS
 62
1
 10
-8.9154374
 20
1.5563068
 11
-1.1024263E+001
 21
1.5563068
  0
LINE
  8
1
  6
CONTINUOUS
 62
1
 10
-1.1050295E+001
 20
1.6475483
 11
-9.0764582
 21
1.6475483
  0
LINE
  8
1
  6
CONTINUOUS
 62
1
 10
-1.1398508
 20
1.6475483
 11
1.1398525
 21
1.6475483
  0
LINE
  8
1
  6
CONTINUOUS
 62
1
 10
9.076458
 20
1.6475483
 11
1.1050272E+001
 21
1.6475483
  0
LINE
  8
1
  6
CONTINUOUS
 62
1
 10
1.1076304E+001
 20
1.7387897
 11
9.2337551
 21
1.7387897
  0
LINE
  8
1
  6
CONTINUOUS
 62
1
 10
1.087162
 20
1.7387897
 11
-1.0871603
 21
1.7387897
  0
LINE
  8
1
  6
CONTINUOUS
 62
1
 10
-9.2337553
 20
1.7387897
 11
-1.1076302E+001
 21
1.7387897
  0
LINE
  8
1
  6
CONTINUOUS
 62
1
 10
-1.1102332E+001
 20
1.8300312
 11
-9.3875496
 21
1.8300312
  0
LINE
  8
1
  6
CONTINUOUS
 62
1
 10
-1.0344964
 20
1.8300312
 11
1.0344981
 21
1.8300312
  0
LINE
  8
1
  6
CONTINUOUS
 62
1
 10
9.3875513
 20
1.8300312
 11
1.1102332E+001
 21
1.8300312
  0
LINE
  8
1
  6
CONTINUOUS
 62
1
 10
1.1128341E+001
 20
1.9212726
 11
9.5379826
 21
1.9212726
  0
LINE
  8
1
  6
CONTINUOUS
 62
1
 10
9.8180755E-001
 20
1.9212726
 11
-9.8180595E-001
 21
1.9212726
  0
LINE
  8
1
  6
CONTINUOUS
 62
1
 10
-9.5379828
 20
1.9212726
 11
-1.1128364E+001
 21
1.9212726
  0
LINE
  8
1
  6
CONTINUOUS
 62
1
 10
-1.1154371E+001
 20
2.0125141
 11
-9.6852267
 21
2.0125141
  0
LINE
  8
1
  6
CONTINUOUS
 62
1
 10
-9.2914195E-001
 20
2.0125141
 11
9.2913985E-001
 21
2.0125141
  0
LINE
  8
1
  6
CONTINUOUS
 62
1
 10
9.6852039
 20
2.0125141
 11
1.1154373E+001
 21
2.0125141
  0
LINE
  8
1
  6
CONTINUOUS
 62
1
 10
1.1180401E+001
 20
2.1037555
 11
9.8294001
 21
2.1037555
  0
LINE
  8
1
  6
CONTINUOUS
 62
1
 10
8.7647585E-001
 20
2.1037555
 11
-8.7647425E-001
 21
2.1037555
  0
LINE
  8
1
  6
CONTINUOUS
 62
1
 10
-9.8294003
 20
2.1037555
 11
-1.1180401E+001
 21
2.1037555
  0
LINE
  8
1
  6
CONTINUOUS
 62
1
 10
-1.1206433E+001
 20
2.194997
 11
-9.9706735
 21
2.194997
  0
LINE
  8
1
  6
CONTINUOUS
 62
1
 10
-8.2378375E-001
 20
2.194997
 11
8.2378535E-001
 21
2.194997
  0
LINE
  8
1
  6
CONTINUOUS
 62
1
 10
9.9706733
 20
2.194997
 11
1.1206432E+001
 21
2.194997
  0
LINE
  8
1
  6
CONTINUOUS
 62
1
 10
1.1232441E+001
 20
2.2862233
 11
1.0109144E+001
 21
2.2862233
  0
LINE
  8
1
  6
CONTINUOUS
 62
1
 10
7.7111765E-001
 20
2.2862233
 11
-7.7111605E-001
 21
2.2862233
  0
LINE
  8
1
  6
CONTINUOUS
 62
1
 10
-1.0109143E+001
 20
2.2862233
 11
-1.123244E+001
 21
2.2862233
  0
LINE
  8
1
  6
CONTINUOUS
 62
1
 10
-1.125847E+001
 20
2.3774648
 11
-1.0244929E+001
 21
2.3774648
  0
LINE
  8
1
  6
CONTINUOUS
 62
1
 10
-7.1842555E-001
 20
2.3774648
 11
7.1842715E-001
 21
2.3774648
  0
LINE
  8
1
  6
CONTINUOUS
 62
1
 10
1.0244904E+001
 20
2.3774648
 11
1.1258469E+001
 21
2.3774648
  0
LINE
  8
1
  6
CONTINUOUS
 62
1
 10
1.1284501E+001
 20
2.4687063
 11
1.0378129E+001
 21
2.4687063
  0
LINE
  8
1
  6
CONTINUOUS
 62
1
 10
6.6576315E-001
 20
2.4687063
 11
-6.6575785E-001
 21
2.4687063
  0
LINE
  8
1
  6
CONTINUOUS
 62
1
 10
-1.0378129E+001
 20
2.4687063
 11
-1.1284501E+001
 21
2.4687063
  0
LINE
  8
1
  6
CONTINUOUS
 62
1
 10
-1.1310533E+001
 20
2.5599326
 11
-1.0508864E+001
 21
2.5599326
  0
LINE
  8
1
  6
CONTINUOUS
 62
1
 10
-6.1306735E-001
 20
2.5599326
 11
6.1307275E-001
 21
2.5599326
  0
LINE
  8
1
  6
CONTINUOUS
 62
1
 10
1.0508839E+001
 20
2.5599326
 11
1.131051E+001
 21
2.5599326
  0
LINE
  8
1
  6
CONTINUOUS
 62
1
 10
1.1336538E+001
 20
2.6511741
 11
1.0637182E+001
 21
2.6511741
  0
LINE
  8
1
  6
CONTINUOUS
 62
1
 10
5.6040495E-001
 20
2.6511741
 11
-5.6040335E-001
 21
2.6511741
  0
LINE
  8
1
  6
CONTINUOUS
 62
1
 10
-1.0637182E+001
 20
2.6511741
 11
-1.1336539E+001
 21
2.6511741
  0
LINE
  8
1
  6
CONTINUOUS
 62
1
 10
-1.136257E+001
 20
2.7424155
 11
-1.0763228E+001
 21
2.7424155
  0
LINE
  8
1
  6
CONTINUOUS
 62
1
 10
-5.0773935E-001
 20
2.7424155
 11
5.0773725E-001
 21
2.7424155
  0
LINE
  8
1
  6
CONTINUOUS
 62
1
 10
1.0763228E+001
 20
2.7424155
 11
1.136257E+001
 21
2.7424155
  0
LINE
  8
1
  6
CONTINUOUS
 62
1
 10
1.1388602E+001
 20
2.833657
 11
1.0887027E+001
 21
2.833657
  0
LINE
  8
1
  6
CONTINUOUS
 62
1
 10
4.5504675E-001
 20
2.833657
 11
-4.5504895E-001
 21
2.833657
  0
LINE
  8
1
  6
CONTINUOUS
 62
1
 10
-1.0887027E+001
 20
2.833657
 11
-1.1388602E+001
 21
2.833657
  0
LINE
  8
1
  6
CONTINUOUS
 62
1
 10
-1.1414607E+001
 20
2.9248984
 11
-1.1008698E+001
 21
2.9248984
  0
LINE
  8
1
  6
CONTINUOUS
 62
1
 10
-4.0238115E-001
 20
2.9248984
 11
4.0237905E-001
 21
2.9248984
  0
LINE
  8
1
  6
CONTINUOUS
 62
1
 10
1.10087E+001
 20
2.9248984
 11
1.1414607E+001
 21
2.9248984
  0
LINE
  8
1
  6
CONTINUOUS
 62
1
 10
1.1440639E+001
 20
3.0161248
 11
1.1128292E+001
 21
3.0161248
  0
LINE
  8
1
  6
CONTINUOUS
 62
1
 10
3.4968855E-001
 20
3.0161248
 11
-3.4969075E-001
 21
3.0161248
  0
LINE
  8
1
  6
CONTINUOUS
 62
1
 10
-1.1128292E+001
 20
3.0161248
 11
-1.1440639E+001
 21
3.0161248
  0
LINE
  8
1
  6
CONTINUOUS
 62
1
 10
-1.1466671E+001
 20
3.1073662
 11
-1.1245854E+001
 21
3.1073662
  0
LINE
  8
1
  6
CONTINUOUS
 62
1
 10
-2.9702295E-001
 20
3.1073662
 11
2.9702455E-001
 21
3.1073662
  0
LINE
  8
1
  6
CONTINUOUS
 62
1
 10
1.1245856E+001
 20
3.1073662
 11
1.1466671E+001
 21
3.1073662
  0
LINE
  8
1
  6
CONTINUOUS
 62
1
 10
1.1492676E+001
 20
3.1986077
 11
1.1361482E+001
 21
3.1986077
  0
LINE
  8
1
  6
CONTINUOUS
 62
1
 10
2.4433415E-001
 20
3.1986077
 11
-2.4433255E-001
 21
3.1986077
  0
LINE
  8
1
  6
CONTINUOUS
 62
1
 10
-1.1361483E+001
 20
3.1986077
 11
-1.1492676E+001
 21
3.1986077
  0
LINE
  8
1
  6
CONTINUOUS
 62
1
 10
-1.1518708E+001
 20
3.289834
 11
-1.1475227E+001
 21
3.289834
  0
LINE
  8
1
  6
CONTINUOUS
 62
1
 10
-1.9166475E-001
 20
3.289834
 11
1.9167015E-001
 21
3.289834
  0
LINE
  8
1
  6
CONTINUOUS
 62
1
 10
1.1475202E+001
 20
3.289834
 11
1.1518708E+001
 21
3.289834
  0
LINE
  8
1
  6
CONTINUOUS
 62
1
 10
1.3897975E-001
 20
3.3810755
 11
-1.3897435E-001
 21
3.3810755
  0
LINE
  8
1
  6
CONTINUOUS
 62
1
 10
-8.6310348E-002
 20
3.4723169
 11
8.6311952E-002
 21
3.4723169
  0
LINE
  8
1
  6
CONTINUOUS
 62
1
 10
3.3644152E-002
 20
3.5635584
 11
-3.3646348E-002
 21
3.5635584
  0
ENDBLK
  0
BLOCK
  2
*XH37
  3
*XH
 10
0.0
 20
0.0
 70
65
  0
LINE
  8
1
  6
CONTINUOUS
 62
1
 10
1.0780489E+002
 20
1.0073382E+002
 11
1.0919288E+002
 21
1.0212181E+002
  0
LINE
  8
1
  6
CONTINUOUS
 62
1
 10
1.0910709E+002
 20
1.0062181E+002
 11
1.09687E+002
 21
1.0120172E+002
  0
ENDBLK
  0
BLOCK
  2
*XH58
  3
*XH
 10
0.0
 20
0.0
 70
65
  0
LINE
  8
1
  6
CONTINUOUS
 62
1
 10
1.0062181E+002
 20
1.0062181E+002
 11
1.0146935E+002
 21
1.0146935E+002
  0
LINE
  8
1
  6
CONTINUOUS
 62
1
 10
9.9207595E+001
 20
1.0062181E+002
 11
1.007076E+002
 21
1.0212181E+002
  0
LINE
  8
1
  6
CONTINUOUS
 62
1
 10
9.9012845E+001
 20
1.0184127E+002
 11
9.9293382E+001
 21
1.0212181E+002
  0
ENDBLK
  0
BLOCK
  2
M_PFN_7
 10
0.0
 20
0.0
 70
0
  0
ENDBLK
  0
BLOCK
  2
M_PFN_6
 10
0.0
 20
0.0
 70
0
  0
ENDBLK
  0
BLOCK
  2
_D8
 10
0.0
 20
0.0
 70
0
  0
LINE
  8
4
  6
CONTINUOUS
 62
2
 10
1.213425E+001
 20
-4.35E+001
 11
1.213425E+001
 21
-1.148E-007
  0
LINE
  8
4
  6
CONTINUOUS
 62
2
 10
1.213425E+001
 20
-1.148E-007
 11
1.213425E+001
 21
9.9999989E-001
  0
TEXT
  8
103
  6
CONTINUOUS
 62
150
 10
1.1655
 20
1.1655
 40
3.5
  1
18
 41
5.6250002E-001
  0
LINE
  8
4
  6
CONTINUOUS
 62
2
 10
-5.8657501
 20
-1.148E-007
 11
1.213425E+001
 21
-1.148E-007
  0
INSERT
  2
M_PFN_6
  8
4
 10
-5.8657501
 20
-1.148E-007
  0
INSERT
  2
M_PFN_7
  8
4
 10
1.213425E+001
 20
-1.148E-007
 50
3.6E+002
  0
ENDBLK
  0
BLOCK
  2
_D9
 10
0.0
 20
0.0
 70
0
  0
TEXT
  8
103
  6
CONTINUOUS
 62
150
 10
-1.4147767E-001
 20
1.6421829
 40
3.5
  1
R0.5
 41
6.1875002E-001
 50
4.9923999E+001
  0
LINE
  8
4
  6
CONTINUOUS
 62
2
 10
1.1662907E+001
 20
1.4299968E+001
 11
3.0943945E-001
 21
8.0582387E-001
  0
INSERT
  2
M_PFN_7
  8
4
 10
1.1662907E+001
 20
1.4299968E+001
 50
4.9924E+001
  0
ENDBLK
  0
BLOCK
  2
_D10
 10
0.0
 20
0.0
 70
0
  0
TEXT
  8
103
  6
CONTINUOUS
 62
150
 10
-1.1655
 20
1.1655
 40
3.5
  1
44
 41
5.6250002E-001
 50
9.0E+001
  0
ENDBLK
  0
BLOCK
  2
_D11
 10
0.0
 20
0.0
 70
0
  0
LINE
  8
4
  6
CONTINUOUS
 62
2
 10
1.1056137E+002
 20
1.9131873E+002
 11
1.1660042E+002
 21
1.9131873E+002
  0
LINE
  8
4
  6
CONTINUOUS
 62
2
 10
1.2624999E+002
 20
1.9131873E+002
 11
1.3536965E+002
 21
1.9131873E+002
  0
LINE
  8
4
  6
CONTINUOUS
 62
2
 10
1.3936965E+002
 20
1.9131873E+002
 11
1.4536965E+002
 21
1.9131873E+002
  0
LINE
  8
4
  6
CONTINUOUS
 62
2
 10
1.4536965E+002
 20
1.9131873E+002
 11
1.4636965E+002
 21
1.9131873E+002
  0
ENDBLK
  0
BLOCK
  2
_D13
 10
0.0
 20
0.0
 70
0
  0
LINE
  8
4
  6
CONTINUOUS
 62
2
 10
1.2636965E+002
 20
1.8631873E+002
 11
1.3536965E+002
 21
1.8631873E+002
  0
LINE
  8
4
  6
CONTINUOUS
 62
2
 10
1.3936965E+002
 20
1.8631873E+002
 11
1.4754768E+002
 21
1.8631873E+002
  0
LINE
  8
4
  6
CONTINUOUS
 62
2
 10
1.4754768E+002
 20
1.8631873E+002
 11
1.4854768E+002
 21
1.8631873E+002
  0
ENDBLK
  0
BLOCK
  2
_D15
 10
0.0
 20
0.0
 70
0
  0
LINE
  8
4
  6
CONTINUOUS
 62
2
 10
1.1056137E+002
 20
1.3631873E+002
 11
1.1809743E+002
 21
1.3631873E+002
  0
LINE
  8
4
  6
CONTINUOUS
 62
2
 10
1.2742677E+002
 20
1.3631873E+002
 11
1.543459E+002
 21
1.3631873E+002
  0
LINE
  8
4
  6
CONTINUOUS
 62
2
 10
1.543459E+002
 20
1.3631873E+002
 11
1.553459E+002
 21
1.3631873E+002
  0
ENDBLK
  0
BLOCK
  2
_D17
 10
0.0
 20
0.0
 70
0
  0
LINE
  8
4
  6
CONTINUOUS
 62
2
 10
8.5096122E+001
 20
1.5581873E+002
 11
9.2369649E+001
 21
1.5581873E+002
  0
LINE
  8
4
  6
CONTINUOUS
 62
2
 10
9.2369649E+001
 20
1.5581873E+002
 11
9.7369649E+001
 21
1.5581873E+002
  0
LINE
  8
4
  6
CONTINUOUS
 62
2
 10
9.7369649E+001
 20
1.5581873E+002
 11
1.0270891E+002
 21
1.5581873E+002
  0
INSERT
  2
M_PFN_7
  8
4
 10
9.2369649E+001
 20
1.5581873E+002
 50
3.6E+002
  0
INSERT
  2
M_PFN_6
  8
4
 10
9.7369649E+001
 20
1.5581873E+002
  0
ENDBLK
  0
BLOCK
  2
_D18
 10
0.0
 20
0.0
 70
0
  0
TEXT
  8
103
  6
CONTINUOUS
 62
150
 10
1.1655
 20
1.1655
 40
3.5
  1
45
 41
5.6250002E-001
  0
LINE
  8
4
  6
CONTINUOUS
 62
2
 10
-1.936575E+001
 20
-1.142E-007
 11
2.563425E+001
 21
-1.142E-007
  0
INSERT
  2
M_PFN_6
  8
4
 10
-1.936575E+001
 20
-1.142E-007
  0
INSERT
  2
M_PFN_7
  8
4
 10
2.563425E+001
 20
-1.142E-007
 50
3.6E+002
  0
LINE
  8
4
  6
CONTINUOUS
 62
2
 10
2.563425E+001
 20
-5.3E+001
 11
2.563425E+001
 21
4.4518889E-001
  0
LINE
  8
4
  6
CONTINUOUS
 62
2
 10
2.563425E+001
 20
4.4518889E-001
 11
2.563425E+001
 21
1.4451889
  0
ENDBLK
  0
BLOCK
  2
_D19
 10
0.0
 20
0.0
 70
0
  0
LINE
  8
4
  6
CONTINUOUS
 62
2
 10
9.6369649E+001
 20
1.4181873E+002
 11
8.2909074E+001
 21
1.4181873E+002
  0
LINE
  8
4
  6
CONTINUOUS
 62
2
 10
8.2909074E+001
 20
1.4181873E+002
 11
8.1909074E+001
 21
1.4181873E+002
  0
LINE
  8
4
  6
CONTINUOUS
 62
2
 10
9.7541672E+001
 20
1.8581873E+002
 11
8.2909074E+001
 21
1.8581873E+002
  0
LINE
  8
4
  6
CONTINUOUS
 62
2
 10
8.2909074E+001
 20
1.8581873E+002
 11
8.1909074E+001
 21
1.8581873E+002
  0
LINE
  8
4
  6
CONTINUOUS
 62
2
 10
8.2909074E+001
 20
1.8581873E+002
 11
8.2909074E+001
 21
1.4181873E+002
  0
INSERT
  2
M_PFN_6
  8
4
 10
8.2909074E+001
 20
1.8581873E+002
 50
2.7E+002
  0
INSERT
  2
M_PFN_7
  8
4
 10
8.2909074E+001
 20
1.4181873E+002
 50
2.7E+002
  0
ENDBLK
  0
BLOCK
  2
*XH110
  3
*XH
 10
0.0
 20
0.0
 70
65
  0
LINE
  8
108
  6
CONTINUOUS
 62
3
 10
5.0639547E+001
 20
2.6172895E+002
 11
5.317531E+001
 21
2.6426472E+002
  0
LINE
  8
108
  6
CONTINUOUS
 62
3
 10
5.0102855E+001
 20
2.6235209E+002
 11
5.2015478E+001
 21
2.6426472E+002
  0
LINE
  8
108
  6
CONTINUOUS
 62
3
 10
4.9566163E+001
 20
2.6297523E+002
 11
5.0855646E+001
 21
2.6426472E+002
  0
LINE
  8
108
  6
CONTINUOUS
 62
3
 10
4.9029471E+001
 20
2.6359837E+002
 11
4.9695814E+001
 21
2.6426472E+002
  0
LINE
  8
108
  6
CONTINUOUS
 62
3
 10
4.8492779E+001
 20
2.6422151E+002
 11
4.8535982E+001
 21
2.6426472E+002
  0
LINE
  8
108
  6
CONTINUOUS
 62
3
 10
5.1176239E+001
 20
2.6110581E+002
 11
5.4335141E+001
 21
2.6426472E+002
  0
LINE
  8
108
  6
CONTINUOUS
 62
3
 10
5.1712931E+001
 20
2.6048267E+002
 11
5.5494973E+001
 21
2.6426472E+002
  0
LINE
  8
108
  6
CONTINUOUS
 62
3
 10
5.2249623E+001
 20
2.5985953E+002
 11
5.4304662E+001
 21
2.6191457E+002
  0
ENDBLK
  0
BLOCK
  2
O
 10
0.0
 20
0.0
 70
0
  0
LINE
  8
1
  6
CONTINUOUS
 62
3
 10
-3.9366
 20
4.570691
 11
3.9366
 21
4.570691
  0
LINE
  8
1
  6
CONTINUOUS
 62
3
 10
3.9366
 20
4.570691
 11
0.0
 21
0.0
  0
LINE
  8
1
  6
CONTINUOUS
 62
3
 10
0.0
 20
0.0
 11
-3.9366
 21
4.570691
  0
INSERT
  2
*XH110
  8
1
 10
-5.239217E+001
 20
-2.5969402E+002
  0
POINT
  8
Drafting_Hidden_Entities
  6
CONTINUOUS
 62
1
 10
0.0
 20
0.0
  0
ENDBLK
  0
BLOCK
  2
FGSJ
 10
0.0
 20
0.0
 70
0
  0
TEXT
  8
103
  6
CONTINUOUS
 62
1
 10
3.504671
 20
4.2370345
 40
2.9
  1
151F,191F
 41
8.0E-001
  0
POINT
  8
Drafting_Hidden_Entities
  6
CONTINUOUS
 62
1
 10
0.0
 20
0.0
  0
ENDBLK
  0
BLOCK
  2
_AH1
 70
0
 10
0.0
 20
0.0
  3
_AH1
  0
LINE
  8
0
  6
CONTINUOUS
 62
0
 10
-1.0
 20
1.66667E-001
 11
0.0
 21
0.0
  0
LINE
  8
0
  6
CONTINUOUS
 62
0
 10
0.0
 20
0.0
 11
-1.0
 21
-1.66667E-001
  0
LINE
  8
0
  6
CONTINUOUS
 62
0
 10
-1.0
 20
1.66667E-001
 11
-1.0
 21
-1.66667E-001
  0
LINE
  8
0
  6
CONTINUOUS
 62
0
 10
0.0
 20
0.0
 11
-1.0
 21
0.0
  0
ENDBLK
  0
BLOCK
  2
_AH2
 70
0
 10
0.0
 20
0.0
  3
_AH2
  0
LINE
  8
0
  6
CONTINUOUS
 62
0
 10
-1.0
 20
1.66667E-001
 11
0.0
 21
0.0
  0
LINE
  8
0
  6
CONTINUOUS
 62
0
 10
0.0
 20
0.0
 11
-1.0
 21
-1.66667E-001
  0
LINE
  8
0
  6
CONTINUOUS
 62
0
 10
0.0
 20
0.0
 11
-1.0
 21
0.0
  0
ENDBLK
  0
BLOCK
  2
*D954
  3
*D
 10
0.0
 20
0.0
 70
65
  0
LINE
  8
1
  6
CONTINUOUS
 62
4
 10
9.1366896E+001
 20
1.0062181E+002
 11
8.227E+001
 21
1.0062181E+002
  0
LINE
  8
1
  6
CONTINUOUS
 62
4
 10
9.1366896E+001
 20
1.0212181E+002
 11
8.227E+001
 21
1.0212181E+002
  0
LINE
  8
1
  6
CONTINUOUS
 62
4
 10
8.327E+001
 20
1.0212181E+002
 11
8.327E+001
 21
9.4621809E+001
  0
LINE
  8
1
  6
CONTINUOUS
 62
4
 10
8.327E+001
 20
1.1464878E+002
 11
8.327E+001
 21
1.0212181E+002
  0
TEXT
  8
1
  6
CONTINUOUS
 62
4
 10
8.21045E+001
 20
1.0648328E+002
 40
3.5
  1
1,5
 41
6.6666667E-001
 50
9.0E+001
  0
INSERT
  2
_AH13
  8
1
 62
4
 10
8.327E+001
 20
1.0062181E+002
 41
3.5
 42
3.5
 43
3.5
 50
-9.0E+001
  0
INSERT
  2
_AH13
  8
1
 62
4
 10
8.327E+001
 20
1.0212181E+002
 41
3.5
 42
3.5
 43
3.5
 50
9.0E+001
  0
ENDBLK
  0
BLOCK
  2
*D975
  3
*D
 10
0.0
 20
0.0
 70
65
  0
LINE
  8
1
  6
CONTINUOUS
 62
4
 10
1.079169E+002
 20
9.9621809E+001
 11
1.079169E+002
 21
9.162E+001
  0
LINE
  8
1
  6
CONTINUOUS
 62
4
 10
1.008169E+002
 20
9.9621809E+001
 11
1.008169E+002
 21
9.162E+001
  0
LINE
  8
1
  6
CONTINUOUS
 62
4
 10
1.2265669E+002
 20
9.262E+001
 11
1.079169E+002
 21
9.262E+001
  0
LINE
  8
1
  6
CONTINUOUS
 62
4
 10
1.079169E+002
 20
9.262E+001
 11
9.4816896E+001
 21
9.262E+001
  0
TEXT
  8
1
  6
CONTINUOUS
 62
4
 10
1.1215786E+002
 20
9.37855E+001
 40
3.5
  1
%%c7,1
 41
6.6666667E-001
  0
INSERT
  2
_AH13
  8
1
 62
4
 10
1.079169E+002
 20
9.262E+001
 41
3.5
 42
3.5
 43
3.5
 50
0.0
  0
INSERT
  2
_AH13
  8
1
 62
4
 10
1.008169E+002
 20
9.262E+001
 41
3.5
 42
3.5
 43
3.5
 50
1.8E+002
  0
ENDBLK
  0
BLOCK
  2
*D987
  3
*D
 10
0.0
 20
0.0
 70
65
  0
LINE
  8
1
  6
CONTINUOUS
 62
4
 10
1.0085979E+002
 20
1.006647E+002
 11
8.9837752E+001
 21
8.9642665E+001
  0
LINE
  8
1
  6
CONTINUOUS
 62
4
 10
1.07874E+002
 20
1.006647E+002
 11
1.1150516E+002
 21
9.7033547E+001
  0
LINE
  8
1
  6
CONTINUOUS
 62
4
 10
1.1692463E+002
 20
9.1614077E+001
 11
1.1889604E+002
 21
8.9642664E+001
  0
ARC
  8
1
  6
CONTINUOUS
 62
4
 10
1.043669E+002
 20
1.0417181E+002
 40
1.9547313E+001
 50
2.25E+002
 51
2.7E+002
  0
ARC
  8
1
  6
CONTINUOUS
 62
4
 10
1.043669E+002
 20
1.0417181E+002
 40
1.9547313E+001
 50
2.7E+002
 51
3.15E+002
  0
TEXT
  8
1
  6
CONTINUOUS
 62
4
 10
1.008669E+002
 20
8.6354934E+001
 40
3.5
  1
90%%d
 41
6.6666667E-001
 50
-5.141E-007
  0
INSERT
  2
_AH13
  8
1
 62
4
 10
9.0544858E+001
 20
9.0349771E+001
 41
3.5
 42
3.5
 43
3.5
 50
3.2013636E+002
  0
INSERT
  2
_AH13
  8
1
 62
4
 10
1.1818893E+002
 20
9.0349771E+001
 41
3.5
 42
3.5
 43
3.5
 50
2.1986364E+002
  0
ENDBLK
  0
BLOCK
  2
*D1053
  3
*D
 10
0.0
 20
0.0
 70
65
  0
LINE
  8
1
  6
CONTINUOUS
 62
4
 10
1.1107449E+002
 20
1.8552809E+002
 11
1.1177742E+002
 21
1.8623935E+002
  0
LINE
  8
1
  6
CONTINUOUS
 62
4
 10
1.1037155E+002
 20
1.8481684E+002
 11
1.0234983E+002
 21
1.7670019E+002
  0
SOLID
  8
1
  6
CONTINUOUS
 62
0
 10
1.1107449E+002
 20
1.8552809E+002
 11
1.0819931E+002
 21
1.8344876E+002
 12
1.0902911E+002
 22
1.8262866E+002
 13
1.0902911E+002
 23
1.8262866E+002
  0
TEXT
  8
1
  6
CONTINUOUS
 62
4
 10
1.0335518E+002
 20
1.7875122E+002
 40
3.5
  1
R1
 41
6.6666667E-001
 50
4.5337E+001
  0
INSERT
  2
_AH13
  8
1
 62
4
 10
1.1107449E+002
 20
1.8552809E+002
 41
3.5
 42
3.5
 43
3.5
 50
-1.34663E+002
  0
ENDBLK
  0
BLOCK
  2
*D1062
  3
*D
 10
0.0
 20
0.0
 70
65
  0
LINE
  8
1
  6
CONTINUOUS
 62
4
 10
9.1317187E+001
 20
1.2731873E+002
 11
7.5492104E+001
 21
1.2731873E+002
  0
LINE
  8
1
  6
CONTINUOUS
 62
4
 10
9.1369649E+001
 20
2.0031873E+002
 11
7.5492104E+001
 21
2.0031873E+002
  0
LINE
  8
1
  6
CONTINUOUS
 62
4
 10
7.6492104E+001
 20
1.2731873E+002
 11
7.6492104E+001
 21
1.6740488E+002
  0
LINE
  8
1
  6
CONTINUOUS
 62
4
 10
7.6492104E+001
 20
2.0031873E+002
 11
7.6492104E+001
 21
1.6740488E+002
  0
TEXT
  8
1
  6
CONTINUOUS
 62
4
 10
7.5325604E+001
 20
1.6507154E+002
 40
3.5
  1
73
 41
6.6666667E-001
 50
9.0E+001
  0
INSERT
  2
_AH13
  8
1
 62
4
 10
7.6492104E+001
 20
1.2731873E+002
 41
3.5
 42
3.5
 43
3.5
 50
9.0E+001
  0
INSERT
  2
_AH13
  8
1
 62
4
 10
7.6492104E+001
 20
2.0031873E+002
 41
3.5
 42
3.5
 43
3.5
 50
2.7E+002
  0
ENDBLK
  0
BLOCK
  2
*D1108
  3
*D
 10
0.0
 20
0.0
 70
65
  0
LINE
  8
1
  6
CONTINUOUS
 62
4
 10
1.1636965E+002
 20
2.0131873E+002
 11
1.1636965E+002
 21
2.2331873E+002
  0
LINE
  8
1
  6
CONTINUOUS
 62
4
 10
9.2369649E+001
 20
2.0131873E+002
 11
9.2369649E+001
 21
2.2331873E+002
  0
LINE
  8
1
  6
CONTINUOUS
 62
4
 10
1.0444743E+002
 20
2.2231873E+002
 11
1.1636965E+002
 21
2.2231873E+002
  0
LINE
  8
1
  6
CONTINUOUS
 62
4
 10
9.2369649E+001
 20
2.2231873E+002
 11
1.0444743E+002
 21
2.2231873E+002
  0
TEXT
  8
1
  6
CONTINUOUS
 62
4
 10
1.0211409E+002
 20
2.2348423E+002
 40
3.5
  1
24
 41
6.6666667E-001
  0
INSERT
  2
_AH13
  8
1
 62
4
 10
1.1636965E+002
 20
2.2231873E+002
 41
3.5
 42
3.5
 43
3.5
 50
1.8E+002
  0
INSERT
  2
_AH13
  8
1
 62
4
 10
9.2369649E+001
 20
2.2231873E+002
 41
3.5
 42
3.5
 43
3.5
 50
0.0
  0
ENDBLK
  0
BLOCK
  2
*D1138
  3
*D
 10
0.0
 20
0.0
 70
65
  0
LINE
  8
1
  6
CONTINUOUS
 62
4
 10
1.1136965E+002
 20
1.8331873E+002
 11
1.1136965E+002
 21
2.1575424E+002
  0
LINE
  8
1
  6
CONTINUOUS
 62
4
 10
9.2369649E+001
 20
2.1308221E+002
 11
9.2369649E+001
 21
2.1575424E+002
  0
LINE
  8
1
  6
CONTINUOUS
 62
4
 10
1.1136965E+002
 20
2.1475424E+002
 11
1.017577E+002
 21
2.1475424E+002
  0
LINE
  8
1
  6
CONTINUOUS
 62
4
 10
9.2369649E+001
 20
2.1475424E+002
 11
1.017577E+002
 21
2.1475424E+002
  0
TEXT
  8
1
  6
CONTINUOUS
 62
4
 10
9.9424365E+001
 20
2.1608724E+002
 40
3.5
  1
19
 41
6.6666667E-001
 50
3.6E+002
  0
INSERT
  2
_AH13
  8
1
 62
4
 10
1.1136965E+002
 20
2.1475424E+002
 41
3.5
 42
3.5
 43
3.5
 50
1.8E+002
  0
INSERT
  2
_AH13
  8
1
 62
4
 10
9.2369649E+001
 20
2.1475424E+002
 41
3.5
 42
3.5
 43
3.5
 50
3.6E+002
  0
ENDBLK
  0
BLOCK
  2
*D1147
  3
*D
 10
0.0
 20
0.0
 70
65
  0
LINE
  8
1
  6
CONTINUOUS
 62
4
 10
1.0891965E+002
 20
1.3631873E+002
 11
1.1636965E+002
 21
1.3631873E+002
  0
LINE
  8
1
  6
CONTINUOUS
 62
4
 10
1.2916929E+002
 20
1.3631873E+002
 11
1.5452E+002
 21
1.3631873E+002
  0
LINE
  8
1
  6
CONTINUOUS
 62
4
 10
1.1056137E+002
 20
1.9131873E+002
 11
1.145525E+002
 21
1.9131873E+002
  0
LINE
  8
1
  6
CONTINUOUS
 62
4
 10
1.2574758E+002
 20
1.9131873E+002
 11
1.3358211E+002
 21
1.9131873E+002
  0
LINE
  8
1
  6
CONTINUOUS
 62
4
 10
1.4108423E+002
 20
1.9131873E+002
 11
1.5452E+002
 21
1.9131873E+002
  0
LINE
  8
1
  6
CONTINUOUS
 62
4
 10
1.5352E+002
 20
1.3631873E+002
 11
1.5352E+002
 21
1.6055568E+002
  0
LINE
  8
1
  6
CONTINUOUS
 62
4
 10
1.5352E+002
 20
1.9131873E+002
 11
1.5352E+002
 21
1.6055568E+002
  0
TEXT
  8
1
  6
CONTINUOUS
 62
4
 10
1.523535E+002
 20
1.5822235E+002
 40
3.5
  1
55
 41
6.6666667E-001
 50
9.0E+001
  0
INSERT
  2
_AH13
  8
1
 62
4
 10
1.5352E+002
 20
1.3631873E+002
 41
3.5
 42
3.5
 43
3.5
 50
9.0E+001
  0
INSERT
  2
_AH13
  8
1
 62
4
 10
1.5352E+002
 20
1.9131873E+002
 41
3.5
 42
3.5
 43
3.5
 50
2.7E+002
  0
ENDBLK
  0
BLOCK
  2
*D1190
  3
*D
 10
0.0
 20
0.0
 70
65
  0
LINE
  8
1
  6
CONTINUOUS
 62
4
 10
1.1659586E+002
 20
1.4123711E+002
 11
1.2610205E+002
 21
1.2671045E+002
  0
SOLID
  8
1
  6
CONTINUOUS
 62
0
 10
1.1659586E+002
 20
1.4123711E+002
 11
1.1822831E+002
 21
1.3752502E+002
 12
1.1934399E+002
 22
1.3825512E+002
 13
1.1934399E+002
 23
1.3825512E+002
  0
TEXT
  8
1
  6
CONTINUOUS
 62
4
 10
1.2040386E+002
 20
1.3815919E+002
 40
3.5
  1
R0,5
 41
8.0E-001
 50
3.0320057E+002
  0
INSERT
  2
_AH13
  8
1
 62
4
 10
1.1659586E+002
 20
1.4123711E+002
 41
4.0
 42
4.0
 43
4.0
 50
3.0320057E+002
  0
ENDBLK
  0
BLOCK
  2
*D1193
  3
*D
 10
0.0
 20
0.0
 70
65
  0
LINE
  8
1
  6
CONTINUOUS
 62
4
 10
1.1647789E+002
 20
1.8650805E+002
 11
1.2991326E+002
 21
1.9716279E+002
  0
SOLID
  8
1
  6
CONTINUOUS
 62
0
 10
1.1647789E+002
 20
1.8650805E+002
 11
1.2002622E+002
 21
1.8847114E+002
 12
1.1919774E+002
 22
1.8951585E+002
 13
1.1919774E+002
 23
1.8951585E+002
  0
TEXT
  8
1
  6
CONTINUOUS
 62
4
 10
1.1902985E+002
 20
1.9044755E+002
 40
3.5
  1
R0,5
 41
8.0E-001
 50
3.841571E+001
  0
INSERT
  2
_AH13
  8
1
 62
4
 10
1.1647789E+002
 20
1.8650805E+002
 41
4.0
 42
4.0
 43
4.0
 50
3.9841571E+002
  0
ENDBLK
  0
BLOCK
  2
*D1198
  3
*D
 10
0.0
 20
0.0
 70
65
  0
LINE
  8
1
  6
CONTINUOUS
 62
4
 10
1.071669E+002
 20
1.0137181E+002
 11
1.071669E+002
 21
1.099377E+002
  0
LINE
  8
1
  6
CONTINUOUS
 62
4
 10
1.015669E+002
 20
1.0137181E+002
 11
1.015669E+002
 21
1.099377E+002
  0
LINE
  8
1
  6
CONTINUOUS
 62
4
 10
1.071669E+002
 20
1.084377E+002
 11
1.2533335E+002
 21
1.084377E+002
  0
LINE
  8
1
  6
CONTINUOUS
 62
4
 10
9.3566896E+001
 20
1.084377E+002
 11
1.071669E+002
 21
1.084377E+002
  0
TEXT
  8
1
  6
CONTINUOUS
 62
4
 10
1.1263335E+002
 20
1.099387E+002
 40
3.5
  1
%%c5,6
 41
8.0E-001
 50
3.6E+002
  0
INSERT
  2
_AH13
  8
1
 62
4
 10
1.071669E+002
 20
1.084377E+002
 41
4.0
 42
4.0
 43
4.0
 50
3.6E+002
  0
INSERT
  2
_AH13
  8
1
 62
4
 10
1.015669E+002
 20
1.084377E+002
 41
4.0
 42
4.0
 43
4.0
 50
5.4E+002
  0
ENDBLK
  0
BLOCK
  2
*D1412
  3
*D
 10
0.0
 20
0.0
 70
65
  0
LINE
  8
1
  6
CONTINUOUS
 62
4
 10
1.2536965E+002
 20
1.8631873E+002
 11
1.3266751E+002
 21
1.8631873E+002
  0
LINE
  8
1
  6
CONTINUOUS
 62
4
 10
1.4094455E+002
 20
1.8631873E+002
 11
1.4879625E+002
 21
1.8631873E+002
  0
LINE
  8
1
  6
CONTINUOUS
 62
4
 10
1.2536965E+002
 20
1.4131873E+002
 11
1.4879625E+002
 21
1.4131873E+002
  0
LINE
  8
1
  6
CONTINUOUS
 62
4
 10
1.4729625E+002
 20
1.8631873E+002
 11
1.4729625E+002
 21
1.6673121E+002
  0
LINE
  8
1
  6
CONTINUOUS
 62
4
 10
1.4729625E+002
 20
1.4131873E+002
 11
1.4729625E+002
 21
1.6673121E+002
  0
TEXT
  8
1
  6
CONTINUOUS
 62
4
 10
1.4579525E+002
 20
1.6393121E+002
 40
3.5
  1
45
 41
8.0E-001
 50
9.0E+001
  0
INSERT
  2
_AH13
  8
1
 62
4
 10
1.4729625E+002
 20
1.8631873E+002
 41
4.0
 42
4.0
 43
4.0
 50
2.7E+002
  0
INSERT
  2
_AH13
  8
1
 62
4
 10
1.4729625E+002
 20
1.4131873E+002
 41
4.0
 42
4.0
 43
4.0
 50
4.5E+002
  0
ENDBLK
  0
BLOCK
  2
*D1564
  3
*D
 10
0.0
 20
0.0
 70
65
  0
LINE
  8
1
  6
CONTINUOUS
 62
4
 10
1.1036965E+002
 20
1.6381873E+002
 11
1.1036965E+002
 21
1.8167409E+002
  0
LINE
  8
1
  6
CONTINUOUS
 62
4
 10
1.1036965E+002
 20
1.8734488E+002
 11
1.1036965E+002
 21
2.0879341E+002
  0
LINE
  8
1
  6
CONTINUOUS
 62
4
 10
9.2369649E+001
 20
2.0031873E+002
 11
9.2369649E+001
 21
2.0879341E+002
  0
LINE
  8
1
  6
CONTINUOUS
 62
4
 10
1.1036965E+002
 20
2.0729341E+002
 11
1.0153339E+002
 21
2.0729341E+002
  0
LINE
  8
1
  6
CONTINUOUS
 62
4
 10
9.2369649E+001
 20
2.0729341E+002
 11
1.0153339E+002
 21
2.0729341E+002
  0
TEXT
  8
1
  6
CONTINUOUS
 62
4
 10
9.8733389E+001
 20
2.0879441E+002
 40
3.5
  1
18
 41
8.0E-001
 50
3.6E+002
  0
INSERT
  2
_AH13
  8
1
 62
4
 10
1.1036965E+002
 20
2.0729341E+002
 41
4.0
 42
4.0
 43
4.0
 50
1.8E+002
  0
INSERT
  2
_AH13
  8
1
 62
4
 10
9.2369649E+001
 20
2.0729341E+002
 41
4.0
 42
4.0
 43
4.0
 50
3.6E+002
  0
ENDBLK
  0
BLOCK
  2
*D1666
  3
*D
 10
0.0
 20
0.0
 70
65
  0
LINE
  8
1
  6
CONTINUOUS
 62
4
 10
1.2228443E+002
 20
1.5996012E+002
 11
1.107419E+002
 21
1.583743E+002
  0
LINE
  8
1
  6
CONTINUOUS
 62
4
 10
1.2228443E+002
 20
1.5996012E+002
 11
1.2858028E+002
 21
1.608251E+002
  0
LINE
  8
1
  6
CONTINUOUS
 62
4
 10
1.5030981E+002
 20
1.6381051E+002
 11
1.5036965E+002
 21
1.6381873E+002
  0
SOLID
  8
1
  6
CONTINUOUS
 62
0
 10
1.107419E+002
 20
1.583743E+002
 11
1.1479542E+002
 21
1.5825828E+002
 12
1.1461394E+002
 22
1.5957921E+002
 13
1.1461394E+002
 23
1.5957921E+002
  0
TEXT
  8
1
  6
CONTINUOUS
 62
4
 10
1.1791921E+002
 20
1.6087549E+002
 40
3.5
  1
R40
 41
8.0E-001
 50
7.8228469
  0
INSERT
  2
_AH13
  8
1
 62
4
 10
1.107419E+002
 20
1.583743E+002
 41
4.0
 42
4.0
 43
4.0
 50
3.6782285E+002
  0
ENDBLK
  0
BLOCK
  2
*D1667
  3
*D
 10
0.0
 20
0.0
 70
65
  0
LINE
  8
1
  6
CONTINUOUS
 62
4
 10
1.2821687E+002
 20
1.7652989E+002
 11
1.3484726E+002
 21
1.8167909E+002
  0
LINE
  8
1
  6
CONTINUOUS
 62
4
 10
1.2821687E+002
 20
1.7652989E+002
 11
1.2536965E+002
 21
1.7431873E+002
  0
SOLID
  8
1
  6
CONTINUOUS
 62
0
 10
1.3484726E+002
 20
1.8167909E+002
 11
1.3127914E+002
 21
1.7975217E+002
 12
1.3209697E+002
 22
1.786991E+002
 13
1.3209697E+002
 23
1.786991E+002
  0
TEXT
  8
1
  6
CONTINUOUS
 62
4
 10
1.2397904E+002
 20
1.7513926E+002
 40
3.5
  1
R12
 41
8.0E-001
 50
3.7833094E+001
  0
INSERT
  2
_AH13
  8
1
 62
4
 10
1.3484726E+002
 20
1.8167909E+002
 41
4.0
 42
4.0
 43
4.0
 50
2.1783309E+002
  0
ENDBLK
  0
BLOCK
  2
*D1669
  3
*D
 10
0.0
 20
0.0
 70
65
  0
LINE
  8
1
  6
CONTINUOUS
 62
4
 10
9.2369649E+001
 20
2.0031873E+002
 11
9.2369649E+001
 21
2.3044321E+002
  0
LINE
  8
1
  6
CONTINUOUS
 62
4
 10
1.3736965E+002
 20
1.7431873E+002
 11
1.3736965E+002
 21
2.3044321E+002
  0
LINE
  8
1
  6
CONTINUOUS
 62
4
 10
9.2369649E+001
 20
2.2894321E+002
 11
1.1493943E+002
 21
2.2894321E+002
  0
LINE
  8
1
  6
CONTINUOUS
 62
4
 10
1.3736965E+002
 20
2.2894321E+002
 11
1.1493943E+002
 21
2.2894321E+002
  0
TEXT
  8
1
  6
CONTINUOUS
 62
4
 10
1.1213943E+002
 20
2.3044421E+002
 40
3.5
  1
45
 41
8.0E-001
  0
INSERT
  2
_AH13
  8
1
 62
4
 10
9.2369649E+001
 20
2.2894321E+002
 41
4.0
 42
4.0
 43
4.0
 50
0.0
  0
INSERT
  2
_AH13
  8
1
 62
4
 10
1.3736965E+002
 20
2.2894321E+002
 41
4.0
 42
4.0
 43
4.0
 50
1.8E+002
  0
ENDBLK
  0
BLOCK
  2
*D1670
  3
*D
 10
0.0
 20
0.0
 70
65
  0
LINE
  8
1
  6
CONTINUOUS
 62
4
 10
9.7869649E+001
 20
1.8581873E+002
 11
8.175471E+001
 21
1.8581873E+002
  0
LINE
  8
1
  6
CONTINUOUS
 62
4
 10
9.7869649E+001
 20
1.4181873E+002
 11
8.175471E+001
 21
1.4181873E+002
  0
LINE
  8
1
  6
CONTINUOUS
 62
4
 10
8.325471E+001
 20
1.8581873E+002
 11
8.325471E+001
 21
1.6337896E+002
  0
LINE
  8
1
  6
CONTINUOUS
 62
4
 10
8.325471E+001
 20
1.4181873E+002
 11
8.325471E+001
 21
1.6337896E+002
  0
TEXT
  8
1
  6
CONTINUOUS
 62
4
 10
8.175371E+001
 20
1.6057896E+002
 40
3.5
  1
44
 41
8.0E-001
 50
9.0E+001
  0
INSERT
  2
_AH13
  8
1
 62
4
 10
8.325471E+001
 20
1.8581873E+002
 41
4.0
 42
4.0
 43
4.0
 50
2.7E+002
  0
INSERT
  2
_AH13
  8
1
 62
4
 10
8.325471E+001
 20
1.4181873E+002
 41
4.0
 42
4.0
 43
4.0
 50
4.5E+002
  0
ENDBLK
  0
BLOCK
  2
*D1671
  3
*D
 10
0.0
 20
0.0
 70
65
  0
LINE
  8
1
  6
CONTINUOUS
 62
4
 10
9.2369649E+001
 20
1.7414027E+002
 11
9.2369649E+001
 21
1.6904582E+002
  0
LINE
  8
1
  6
CONTINUOUS
 62
4
 10
9.7369649E+001
 20
1.739113E+002
 11
9.7369649E+001
 21
1.6904582E+002
  0
LINE
  8
1
  6
CONTINUOUS
 62
4
 10
9.2369649E+001
 20
1.7054582E+002
 11
8.4774001E+001
 21
1.7054582E+002
  0
LINE
  8
1
  6
CONTINUOUS
 62
4
 10
1.0536965E+002
 20
1.7054582E+002
 11
9.2369649E+001
 21
1.7054582E+002
  0
TEXT
  8
1
  6
CONTINUOUS
 62
4
 10
8.6274001E+001
 20
1.7204682E+002
 40
3.5
  1
5
 41
8.0E-001
  0
INSERT
  2
_AH13
  8
1
 62
4
 10
9.2369649E+001
 20
1.7054582E+002
 41
4.0
 42
4.0
 43
4.0
 50
1.8E+002
  0
INSERT
  2
_AH13
  8
1
 62
4
 10
9.7369649E+001
 20
1.7054582E+002
 41
4.0
 42
4.0
 43
4.0
 50
3.6E+002
  0
ENDBLK
  0
BLOCK
  2
*D1673
  3
*D
 10
0.0
 20
0.0
 70
65
  0
LINE
  8
1
  6
CONTINUOUS
 62
4
 10
9.7480346E+001
 20
1.4200497E+002
 11
1.1060599E+002
 21
1.5258349E+002
  0
SOLID
  8
1
  6
CONTINUOUS
 62
0
 10
9.7480346E+001
 20
1.4200497E+002
 11
1.0101312E+002
 21
1.4399594E+002
 12
1.0017643E+002
 22
1.4503409E+002
 13
1.0017643E+002
 23
1.4503409E+002
  0
TEXT
  8
1
  6
CONTINUOUS
 62
4
 10
9.9775793E+001
 20
1.4578277E+002
 40
3.5
  1
R0,5
 41
8.0E-001
 50
3.8866815E+001
  0
INSERT
  2
_AH13
  8
1
 62
4
 10
9.7480346E+001
 20
1.4200497E+002
 41
4.0
 42
4.0
 43
4.0
 50
3.9886682E+002
  0
ENDBLK
  0
ENDSEC
  0
SECTION
  2
ENTITIES
  0
TEXT
  8
1
  6
CONTINUOUS
 62
1
 10
9.624386
 20
4.8782258
 40
2.4948001
  1
Techn. Änderungen vorbehalten !
 41
6.6774196E-001
 50
9.0E+001
 11
9.624386
 21
6.1256259
 73
2
  0
TEXT
  8
1
  6
CONTINUOUS
 62
1
 10
1.3019569E+001
 20
5.2313124
 40
1.7820001
  1
Es gelten unsere Überlassungs- und Nutzungsbedingungen
 41
6.7083333E-001
 50
9.0E+001
 11
1.3019569E+001
 21
6.1223125
 73
2
  0
TEXT
  8
1
  6
CONTINUOUS
 62
1
 10
1.6024679E+001
 20
4.9738551
 40
1.7820001
  1
für DORMA - Dokumente.
 41
6.6477273E-001
 50
9.0E+001
 11
1.6024679E+001
 21
5.8648551
 73
2
  0
LINE
  8
1
  6
CONTINUOUS
 62
40
 10
2.0929426E+001
 20
6.1374007
 11
2.0929426E+001
 21
2.902674E+002
  0
LINE
  8
1
  6
CONTINUOUS
 62
40
 10
2.0929426E+001
 20
2.902674E+002
 11
2.0407943E+002
 21
2.902674E+002
  0
LINE
  8
1
  6
CONTINUOUS
 62
40
 10
2.0407943E+002
 20
2.902674E+002
 11
2.0407943E+002
 21
6.1374007
  0
TEXT
  8
1
  6
CONTINUOUS
 62
150
 10
2.6304272E+001
 20
2.8018783E+002
 40
4.100625
  1
Für Schlosstyp: 
 41
6.6093752E-001
 72
1
 11
4.7986327E+001
 21
2.8223814E+002
 73
2
  0
TEXT
  8
1
  6
CONTINUOUS
 62
150
 10
2.5660474E+001
 20
2.7371997E+002
 40
4.100625
  1
for lock type:
 41
6.5892857E-001
 72
1
 11
4.4574607E+001
 21
2.7577028E+002
 73
2
  0
TEXT
  8
1
  6
CONTINUOUS
 62
1
 10
2.7385654E+001
 20
2.5844146E+002
 40
2.9
  1
115,116,117,779
 41
8.0E-001
 72
1
 11
4.4785654E+001
 21
2.5989146E+002
 73
2
  0
INSERT
  2
*XH32
  8
1
 10
3.9201243E+001
 20
3.0697139E+001
  0
LINE
  8
1
  6
CONTINUOUS
 62
1
 10
4.6888683E+001
 20
3.0203838E+001
 11
4.7635269E+001
 21
3.0203838E+001
  0
LINE
  8
1
  6
CONTINUOUS
 62
1
 10
4.7635269E+001
 20
3.0203838E+001
 11
4.7373751E+001
 21
3.1656813E+001
  0
LINE
  8
1
  6
CONTINUOUS
 62
1
 10
4.7373751E+001
 20
3.1656813E+001
 11
4.7150202E+001
 21
3.1656813E+001
  0
LINE
  8
1
  6
CONTINUOUS
 62
1
 10
4.7150202E+001
 20
3.1656813E+001
 11
4.6888683E+001
 21
3.0203838E+001
  0
LINE
  8
1
  6
CONTINUOUS
 62
1
 10
4.5306063E+001
 20
2.8862649E+001
 11
4.620018E+001
 21
3.2662719E+001
  0
LINE
  8
1
  6
CONTINUOUS
 62
1
 10
4.620018E+001
 20
3.2662719E+001
 11
4.832375E+001
 21
3.2662719E+001
  0
LINE
  8
1
  6
CONTINUOUS
 62
1
 10
4.832375E+001
 20
3.2662719E+001
 11
4.9217889E+001
 21
2.8862649E+001
  0
LINE
  8
1
  6
CONTINUOUS
 62
1
 10
4.9217889E+001
 20
2.8862649E+001
 11
4.78767E+001
 21
2.8862649E+001
  0
LINE
  8
1
  6
CONTINUOUS
 62
1
 10
4.78767E+001
 20
2.8862649E+001
 11
4.7755972E+001
 21
2.9533243E+001
  0
LINE
  8
1
  6
CONTINUOUS
 62
1
 10
4.7755972E+001
 20
2.9533243E+001
 11
4.6767954E+001
 21
2.9533243E+001
  0
LINE
  8
1
  6
CONTINUOUS
 62
1
 10
4.6767954E+001
 20
2.9533243E+001
 11
4.6647252E+001
 21
2.8862649E+001
  0
LINE
  8
1
  6
CONTINUOUS
 62
1
 10
4.6647252E+001
 20
2.8862649E+001
 11
4.5306063E+001
 21
2.8862649E+001
  0
LINE
  8
1
  6
CONTINUOUS
 62
1
 10
4.150597E+001
 20
2.8862649E+001
 11
4.0388303E+001
 21
2.8862649E+001
  0
LINE
  8
1
  6
CONTINUOUS
 62
1
 10
4.0388303E+001
 20
2.8862649E+001
 11
4.0388303E+001
 21
3.2662719E+001
  0
LINE
  8
1
  6
CONTINUOUS
 62
1
 10
4.0388303E+001
 20
3.2662719E+001
 11
4.2176564E+001
 21
3.2662719E+001
  0
LINE
  8
1
  6
CONTINUOUS
 62
1
 10
4.2176564E+001
 20
3.2662719E+001
 11
4.2668351E+001
 21
3.0427379E+001
  0
LINE
  8
1
  6
CONTINUOUS
 62
1
 10
4.2668351E+001
 20
3.0427379E+001
 11
4.2735396E+001
 21
3.0427379E+001
  0
LINE
  8
1
  6
CONTINUOUS
 62
1
 10
4.2735396E+001
 20
3.0427379E+001
 11
4.2802467E+001
 21
3.0427379E+001
  0
LINE
  8
1
  6
CONTINUOUS
 62
1
 10
4.2802467E+001
 20
3.0427379E+001
 11
4.3294253E+001
 21
3.2662719E+001
  0
LINE
  8
1
  6
CONTINUOUS
 62
1
 10
4.3294253E+001
 20
3.2662719E+001
 11
4.5082514E+001
 21
3.2662719E+001
  0
LINE
  8
1
  6
CONTINUOUS
 62
1
 10
4.5082514E+001
 20
3.2662719E+001
 11
4.5082514E+001
 21
2.8862649E+001
  0
LINE
  8
1
  6
CONTINUOUS
 62
1
 10
4.5082514E+001
 20
2.8862649E+001
 11
4.3964848E+001
 21
2.8862649E+001
  0
LINE
  8
1
  6
CONTINUOUS
 62
1
 10
4.3964848E+001
 20
2.8862649E+001
 11
4.3964848E+001
 21
3.1656813E+001
  0
LINE
  8
1
  6
CONTINUOUS
 62
1
 10
4.3964848E+001
 20
3.1656813E+001
 11
4.3853088E+001
 21
3.1656813E+001
  0
LINE
  8
1
  6
CONTINUOUS
 62
1
 10
4.3853088E+001
 20
3.1656813E+001
 11
4.3238349E+001
 21
2.8862649E+001
  0
LINE
  8
1
  6
CONTINUOUS
 62
1
 10
4.3238349E+001
 20
2.8862649E+001
 11
4.2232446E+001
 21
2.8862649E+001
  0
LINE
  8
1
  6
CONTINUOUS
 62
1
 10
4.2232446E+001
 20
2.8862649E+001
 11
4.1617733E+001
 21
3.1656813E+001
  0
LINE
  8
1
  6
CONTINUOUS
 62
1
 10
4.1617733E+001
 20
3.1656813E+001
 11
4.150597E+001
 21
3.1656813E+001
  0
LINE
  8
1
  6
CONTINUOUS
 62
1
 10
4.150597E+001
 20
3.1656813E+001
 11
4.150597E+001
 21
2.8862649E+001
  0
ARC
  8
1
  6
CONTINUOUS
 62
1
 10
3.8220013E+001
 20
3.1505935E+001
 40
3.8000733E-001
 50
2.7000106E+002
 51
3.599995E+002
  0
LINE
  8
1
  6
CONTINUOUS
 62
1
 10
3.822002E+001
 20
3.1125928E+001
 11
3.7705903E+001
 21
3.1125928E+001
  0
LINE
  8
1
  6
CONTINUOUS
 62
1
 10
3.7705903E+001
 20
3.1125928E+001
 11
3.7705903E+001
 21
3.1964178E+001
  0
LINE
  8
1
  6
CONTINUOUS
 62
1
 10
3.7705903E+001
 20
3.1964178E+001
 11
3.822002E+001
 21
3.1964178E+001
  0
ARC
  8
1
  6
CONTINUOUS
 62
1
 10
3.8220019E+001
 20
3.1584161E+001
 40
3.8001767E-001
 50
9.153818E-004
 51
8.9999944E+001
  0
LINE
  8
1
  6
CONTINUOUS
 62
1
 10
3.8600037E+001
 20
3.1584167E+001
 11
3.860002E+001
 21
3.1505932E+001
  0
LINE
  8
1
  6
CONTINUOUS
 62
1
 10
3.6588212E+001
 20
2.8862649E+001
 11
3.6588212E+001
 21
3.2662719E+001
  0
LINE
  8
1
  6
CONTINUOUS
 62
1
 10
3.6588212E+001
 20
3.2662719E+001
 11
3.8823565E+001
 21
3.2662719E+001
  0
ARC
  8
1
  6
CONTINUOUS
 62
1
 10
3.882356E+001
 20
3.1545047E+001
 40
1.117672
 50
3.5999971E+002
 51
4.4999971E+002
  0
ARC
  8
1
  6
CONTINUOUS
 62
1
 10
3.8713948E+001
 20
3.1543974E+001
 40
1.2272843
 50
3.4224213E+002
 51
3.6004983E+002
  0
ARC
  8
1
  6
CONTINUOUS
 62
1
 10
3.8766337E+001
 20
3.1526416E+001
 40
1.1720366
 50
3.2391516E+002
 51
3.422785E+002
  0
ARC
  8
1
  6
CONTINUOUS
 62
1
 10
3.8819848E+001
 20
3.1487309E+001
 40
1.1057582
 50
3.0482971E+002
 51
3.2391966E+002
  0
ARC
  8
1
  6
CONTINUOUS
 62
1
 10
3.884901E+001
 20
3.1446574E+001
 40
1.0556655
 50
2.8510451E+002
 51
3.0479323E+002
  0
LINE
  8
1
  6
CONTINUOUS
 62
1
 10
3.9124096E+001
 20
3.0427379E+001
 11
3.9941232E+001
 21
2.8862649E+001
  0
LINE
  8
1
  6
CONTINUOUS
 62
1
 10
3.9941232E+001
 20
2.8862649E+001
 11
3.8711806E+001
 21
2.8862649E+001
  0
LINE
  8
1
  6
CONTINUOUS
 62
1
 10
3.8711806E+001
 20
2.8862649E+001
 11
3.8085899E+001
 21
3.0427379E+001
  0
LINE
  8
1
  6
CONTINUOUS
 62
1
 10
3.8085899E+001
 20
3.0427379E+001
 11
3.7705903E+001
 21
3.0427379E+001
  0
LINE
  8
1
  6
CONTINUOUS
 62
1
 10
3.7705903E+001
 20
3.0427379E+001
 11
3.7705903E+001
 21
2.8862649E+001
  0
LINE
  8
1
  6
CONTINUOUS
 62
1
 10
3.7705903E+001
 20
2.8862649E+001
 11
3.6588212E+001
 21
2.8862649E+001
  0
ARC
  8
1
  6
CONTINUOUS
 62
1
 10
3.4503774E+001
 20
3.0025016E+001
 40
3.8000005E-001
 50
2.6999996E+002
 51
3.6000145E+002
  0
LINE
  8
1
  6
CONTINUOUS
 62
1
 10
3.4503774E+001
 20
2.9645016E+001
 11
3.4425537E+001
 21
2.9645016E+001
  0
ARC
  8
1
  6
CONTINUOUS
 62
1
 10
3.442554E+001
 20
3.0025022E+001
 40
3.8000624E-001
 50
1.7999948E+002
 51
2.6999953E+002
  0
LINE
  8
1
  6
CONTINUOUS
 62
1
 10
3.4045533E+001
 20
3.0025026E+001
 11
3.4045533E+001
 21
3.1500342E+001
  0
ARC
  8
1
  6
CONTINUOUS
 62
1
 10
3.442554E+001
 20
3.1500346E+001
 40
3.8000686E-001
 50
9.0000566E+001
 51
1.8000058E+002
  0
LINE
  8
1
  6
CONTINUOUS
 62
1
 10
3.4425537E+001
 20
3.1880353E+001
 11
3.4503774E+001
 21
3.1880353E+001
  0
ARC
  8
1
  6
CONTINUOUS
 62
1
 10
3.4503763E+001
 20
3.1500353E+001
 40
3.8000066E-001
 50
3.5999849E+002
 51
4.4999838E+002
  0
LINE
  8
1
  6
CONTINUOUS
 62
1
 10
3.4883763E+001
 20
3.1500342E+001
 11
3.4883774E+001
 21
3.0025026E+001
  0
ARC
  8
1
  6
CONTINUOUS
 62
1
 10
3.4799948E+001
 20
3.0203828E+001
 40
1.3411926
 50
2.7000015E+002
 51
3.6000041E+002
  0
LINE
  8
1
  6
CONTINUOUS
 62
1
 10
3.4799951E+001
 20
2.8862636E+001
 11
3.4129357E+001
 21
2.8862636E+001
  0
ARC
  8
1
  6
CONTINUOUS
 62
1
 10
3.4129342E+001
 20
3.0203842E+001
 40
1.3412069
 50
1.800002E+002
 51
2.7000064E+002
  0
LINE
  8
1
  6
CONTINUOUS
 62
1
 10
3.2788135E+001
 20
3.0203838E+001
 11
3.2788135E+001
 21
3.1321515E+001
  0
ARC
  8
1
  6
CONTINUOUS
 62
1
 10
3.412935E+001
 20
3.1321509E+001
 40
1.3412151
 50
8.9999705E+001
 51
1.7999971E+002
  0
LINE
  8
1
  6
CONTINUOUS
 62
1
 10
3.4129357E+001
 20
3.2662724E+001
 11
3.4799951E+001
 21
3.2662724E+001
  0
ARC
  8
1
  6
CONTINUOUS
 62
1
 10
3.4799952E+001
 20
3.1321514E+001
 40
1.3412098
 50
6.32617E-005
 51
9.0000039E+001
  0
LINE
  8
1
  6
CONTINUOUS
 62
1
 10
3.6141162E+001
 20
3.1321515E+001
 11
3.614114E+001
 21
3.0203838E+001
  0
ARC
  8
1
  6
CONTINUOUS
 62
1
 10
3.111164E+001
 20
3.0092079E+001
 40
1.2294335
 50
2.7000028E+002
 51
3.6000014E+002
  0
LINE
  8
1
  6
CONTINUOUS
 62
1
 10
3.1111646E+001
 20
2.8862645E+001
 11
2.9099838E+001
 21
2.8862645E+001
  0
LINE
  8
1
  6
CONTINUOUS
 62
1
 10
2.9099838E+001
 20
2.8862645E+001
 11
2.9099838E+001
 21
3.2662719E+001
  0
LINE
  8
1
  6
CONTINUOUS
 62
1
 10
2.9099838E+001
 20
3.2662719E+001
 11
3.1111646E+001
 21
3.2662719E+001
  0
ARC
  8
1
  6
CONTINUOUS
 62
1
 10
3.1111642E+001
 20
3.1433285E+001
 40
1.2294342
 50
4.001E-005
 51
8.999983E+001
  0
LINE
  8
1
  6
CONTINUOUS
 62
1
 10
3.2341076E+001
 20
3.1433286E+001
 11
3.2341073E+001
 21
3.0092082E+001
  0
ARC
  8
1
  6
CONTINUOUS
 62
1
 10
3.0888114E+001
 20
2.9868547E+001
 40
2.2353157E-001
 50
2.6999599E+002
 51
3.5999819E+002
  0
LINE
  8
1
  6
CONTINUOUS
 62
1
 10
3.0888099E+001
 20
2.9645016E+001
 11
3.0329265E+001
 21
2.9645016E+001
  0
LINE
  8
1
  6
CONTINUOUS
 62
1
 10
3.0329265E+001
 20
2.9645016E+001
 11
3.0329265E+001
 21
3.1880354E+001
  0
LINE
  8
1
  6
CONTINUOUS
 62
1
 10
3.0329265E+001
 20
3.1880354E+001
 11
3.0888099E+001
 21
3.1880354E+001
  0
ARC
  8
1
  6
CONTINUOUS
 62
1
 10
3.0888097E+001
 20
3.1656814E+001
 40
2.2353978E-001
 50
3.5999953E+002
 51
4.4999949E+002
  0
LINE
  8
1
  6
CONTINUOUS
 62
1
 10
3.1111636E+001
 20
3.1656813E+001
 11
3.1111646E+001
 21
2.986854E+001
  0
INSERT
  2
*XH33
  8
1
 10
3.86166E+001
 20
3.6854065E+001
  0
ARC
  8
1
  6
CONTINUOUS
 62
1
 10
3.8616595E+001
 20
5.4331843E+001
 40
1.8247687E+001
 50
2.3080505E+002
 51
2.6231282E+002
  0
LINE
  8
1
  6
CONTINUOUS
 62
1
 10
2.7084769E+001
 20
4.0189883E+001
 11
2.9036562E+001
 21
3.3347015E+001
  0
LINE
  8
1
  6
CONTINUOUS
 62
1
 10
2.9036562E+001
 20
3.3347015E+001
 11
3.047066E+001
 21
3.3347015E+001
  0
LINE
  8
1
  6
CONTINUOUS
 62
1
 10
3.047066E+001
 20
3.3347015E+001
 11
2.9508938E+001
 21
3.6700939E+001
  0
ARC
  8
1
  6
CONTINUOUS
 62
1
 10
3.8616585E+001
 20
5.4331846E+001
 40
1.9844347E+001
 50
2.4268035E+002
 51
2.604333E+002
  0
ARC
  8
1
  6
CONTINUOUS
 62
1
 10
3.861686E+001
 20
5.4331806E+001
 40
1.9844354E+001
 50
2.604325E+002
 51
2.6471274E+002
  0
LINE
  8
1
  6
CONTINUOUS
 62
1
 10
3.6788218E+001
 20
3.4571886E+001
 11
3.8616603E+001
 21
3.7738735E+001
  0
LINE
  8
1
  6
CONTINUOUS
 62
1
 10
3.8616603E+001
 20
3.7738735E+001
 11
4.0444982E+001
 21
3.4571886E+001
  0
ARC
  8
1
  6
CONTINUOUS
 62
1
 10
3.8616603E+001
 20
5.433184E+001
 40
1.9844363E+001
 50
2.752865E+002
 51
2.9731967E+002
  0
LINE
  8
1
  6
CONTINUOUS
 62
1
 10
4.7724264E+001
 20
3.6700924E+001
 11
4.6762543E+001
 21
3.3347015E+001
  0
LINE
  8
1
  6
CONTINUOUS
 62
1
 10
4.6762543E+001
 20
3.3347015E+001
 11
4.8196638E+001
 21
3.3347015E+001
  0
LINE
  8
1
  6
CONTINUOUS
 62
1
 10
4.8196638E+001
 20
3.3347015E+001
 11
5.0148431E+001
 21
4.0189883E+001
  0
ARC
  8
1
  6
CONTINUOUS
 62
1
 10
3.8616606E+001
 20
5.4331841E+001
 40
1.8247684E+001
 50
2.7768718E+002
 51
3.0919495E+002
  0
LINE
  8
1
  6
CONTINUOUS
 62
1
 10
4.1057497E+001
 20
3.6248146E+001
 11
3.8616603E+001
 21
4.0475888E+001
  0
LINE
  8
1
  6
CONTINUOUS
 62
1
 10
3.8616603E+001
 20
4.0475888E+001
 11
3.6175703E+001
 21
3.6248146E+001
  0
LINE
  8
1
  6
HIDDEN
 62
40
 10
2.9727193E+001
 20
3.5939844E+001
 11
3.0239595E+001
 21
3.4152856E+001
  0
TEXT
  8
1
  6
CONTINUOUS
 62
6
 10
1.8556339E+002
 20
2.7742581E+001
 40
9.9
  1
23
 41
7.0E-001
 72
1
 11
1.9249339E+002
 21
3.2692581E+001
 73
2
  0
TEXT
  8
1
  6
CONTINUOUS
 62
40
 10
1.4396835E+002
 20
1.058835E+001
 40
4.95
  1
DSM_0023_00_01
 41
6.5892857E-001
  0
TEXT
  8
1
  6
CONTINUOUS
 62
3
 10
5.8962153E+001
 20
3.607108E+001
 40
5.0
  1
Schliessblech für Fallenschloss
 41
6.6774196E-001
 72
1
 11
1.1071215E+002
 21
3.857108E+001
 73
2
  0
LINE
  8
1
  6
CONTINUOUS
 62
1
 10
2.7701947E-001
 20
1.3129781
 11
2.0817702E+002
 21
1.3129781
  0
LINE
  8
1
  6
CONTINUOUS
 62
1
 10
2.0817702E+002
 20
1.3129781
 11
2.0817702E+002
 21
2.9534298E+002
  0
LINE
  8
1
  6
CONTINUOUS
 62
1
 10
2.0817702E+002
 20
2.9534298E+002
 11
2.7701947E-001
 21
2.9534298E+002
  0
LINE
  8
1
  6
CONTINUOUS
 62
1
 10
2.7701947E-001
 20
2.9534298E+002
 11
2.7701947E-001
 21
1.3129781
  0
LINE
  8
1
  6
CONTINUOUS
 62
1
 10
2.7701947E-001
 20
1.3129781
 11
2.7701947E-001
 21
1.3129781
  0
TEXT
  8
1
  6
CONTINUOUS
 62
150
 10
5.8803318E+001
 20
2.8898979E+001
 40
3.96
  1
strike plate for latch set
 41
6.6634615E-001
 72
1
 11
9.3106818E+001
 21
3.0878979E+001
 73
2
  0
LINE
  8
1
  6
CONTINUOUS
 62
40
 10
2.0929426E+001
 20
6.1374007
 11
2.0407943E+002
 21
6.1374007
  0
LINE
  8
1
  6
CONTINUOUS
 62
40
 10
1.9386756E+002
 20
1.9997401E+001
 11
1.9386756E+002
 21
6.1374007
  0
LINE
  8
1
  6
CONTINUOUS
 62
1
 10
1.1294257
 20
1.482024E+002
 11
1.3009426E+001
 21
1.482024E+002
  0
TEXT
  8
1
  6
CONTINUOUS
 62
1
 10
2.8512086E+001
 20
2.4457416E+001
 40
1.98
  1
 Schlosstechnik 
 41
6.66E-001
 72
1
 11
3.9061526E+001
 21
2.5447416E+001
 73
2
  0
LINE
  8
1
  6
CONTINUOUS
 62
40
 10
2.0929426E+001
 20
4.5737401E+001
 11
2.0407943E+002
 21
4.5737401E+001
  0
LINE
  8
1
  6
CONTINUOUS
 62
40
 10
5.6569426E+001
 20
4.5737401E+001
 11
5.6569426E+001
 21
6.1374007
  0
LINE
  8
1
  6
CONTINUOUS
 62
40
 10
1.3972943E+002
 20
1.9997401E+001
 11
1.3972943E+002
 21
6.1374007
  0
LINE
  8
1
  6
CONTINUOUS
 62
1
 10
2.0929426E+001
 20
1.6037401E+001
 11
5.6569426E+001
 21
1.6037401E+001
  0
LINE
  8
1
  6
CONTINUOUS
 62
1
 10
2.0929426E+001
 20
1.1087401E+001
 11
5.6569426E+001
 21
1.1087401E+001
  0
LINE
  8
1
  6
CONTINUOUS
 62
40
 10
2.0929426E+001
 20
1.9997401E+001
 11
2.0407943E+002
 21
1.9997401E+001
  0
TEXT
  8
1
  6
CONTINUOUS
 62
1
 10
2.1693395E+001
 20
1.2918681E+001
 40
1.485
  1
Gezeichn.
 41
6.5E-001
 72
1
 11
2.603702E+001
 21
1.3661181E+001
 73
2
  0
TEXT
  8
1
  6
CONTINUOUS
 62
1
 10
2.1713892E+001
 20
8.1214736
 40
1.485
  1
Geprüft
 41
6.4285714E-001
 72
1
 11
2.5055142E+001
 21
8.8639736
 73
2
  0
TEXT
  8
1
  6
CONTINUOUS
 62
1
 10
3.4842507E+001
 20
1.7355464E+001
 40
1.485
  1
Datum
 41
6.3E-001
 72
1
 11
3.7181382E+001
 21
1.8097964E+001
 73
2
  0
TEXT
  8
1
  6
CONTINUOUS
 62
1
 10
4.8176545E+001
 20
1.7355464E+001
 40
1.485
  1
Name
 41
6.1875E-001
 72
1
 11
5.0014233E+001
 21
1.8097964E+001
 73
2
  0
LINE
  8
1
  6
CONTINUOUS
 62
1
 10
3.0829426E+001
 20
1.9997401E+001
 11
3.0829426E+001
 21
6.1374007
  0
LINE
  8
1
  6
CONTINUOUS
 62
1
 10
4.3699426E+001
 20
1.9997401E+001
 11
4.3699426E+001
 21
6.1374007
  0
TEXT
  8
1
  6
CONTINUOUS
 62
1
 10
3.1909404E+001
 20
1.2538116E+001
 40
1.98
  1
09.04.03
 41
6.46875E-001
 72
1
 11
3.7032654E+001
 21
1.3528116E+001
 73
2
  0
TEXT
  8
1
  6
CONTINUOUS
 62
1
 10
3.6392637E+001
 20
7.3583723
 40
1.98
  1
*
 72
1
 11
3.7382637E+001
 21
8.3483723
 73
2
  0
TEXT
  8
1
  6
CONTINUOUS
 62
1
 10
4.4998757E+001
 20
1.2608113E+001
 40
1.98
  1
Hartmann
 41
6.46875E-001
 72
1
 11
5.0122007E+001
 21
1.3598113E+001
 73
2
  0
TEXT
  8
1
  6
CONTINUOUS
 62
1
 10
4.9202004E+001
 20
7.4283688
 40
1.98
  1
*
 72
1
 11
5.0192004E+001
 21
8.4183688
 73
2
  0
TEXT
  8
1
  6
CONTINUOUS
 62
221
 10
5.8939451E+001
 20
1.3733928E+001
 40
3.96
  1
Vollblattschlösser
 41
6.625E-001
 72
1
 11
8.2550951E+001
 21
1.5713928E+001
 73
2
  0
TEXT
  8
1
  6
CONTINUOUS
 62
150
 10
5.9105536E+001
 20
7.9146354
 40
3.5
  1
mortice locks
 41
6.5769231E-001
 72
1
 11
7.4068036E+001
 21
9.6646354
 73
2
  0
LINE
  8
1
  6
CONTINUOUS
 62
40
 10
1.8130943E+002
 20
4.5737401E+001
 11
1.8130943E+002
 21
1.9997401E+001
  0
TEXT
  8
1
  6
CONTINUOUS
 62
1
 10
1.951429E+002
 20
1.8010903E+001
 40
1.485
  1
Version:
 41
6.46875E-001
 72
1
 11
1.9898533E+002
 21
1.8753403E+001
 73
2
  0
TEXT
  8
1
  6
CONTINUOUS
 62
40
 10
1.9660014E+002
 20
1.0497836E+001
 40
4.95
  1
B
 72
1
 11
1.9907514E+002
 21
1.2972836E+001
 73
2
  0
TEXT
  8
1
  6
CONTINUOUS
 62
1
 10
4.2078587
 20
1.9467466E+001
 40
1.78
  1
Copyright    DORMA 1999 
 41
6.65625E-001
 50
9.0E+001
 72
1
 11
1.8425609E+001
 21
2.0357466E+001
 73
2
  0
CIRCLE
  8
1
  6
CONTINUOUS
 62
40
 10
1.8348802E+001
 20
1.9094063E+001
 40
9.9259683E-001
  0
TEXT
  8
1
  6
CONTINUOUS
 62
1
 10
1.7853802E+001
 20
1.8599063E+001
 40
9.9E-001
  1
C
 50
9.0E+001
 72
1
 11
1.8348802E+001
 21
1.9094063E+001
 73
2
  0
TEXT
  8
1
  6
CONTINUOUS
 62
150
 10
1.8415047E+002
 20
5.6071813E+001
 40
4.2
  1
M. 1:1
 41
6.375E-001
 72
1
 11
1.9218297E+002
 21
5.8171813E+001
 73
2
  0
TEXT
  8
1
  6
CONTINUOUS
 62
1
 10
1.5607929E+002
 20
4.9379588E+001
 40
2.5
  1
Zeichn.-Nr. 501532-00-1-40
 41
6.6634615E-001
 72
1
 11
1.7773554E+002
 21
5.0629588E+001
 73
2
  0
LINE
  8
1
  6
HIDDEN
 62
1
 10
1.113669E+002
 20
1.0212181E+002
 11
1.113669E+002
 21
1.0062181E+002
  0
LINE
  8
1
  6
CONTINUOUS
 62
40
 10
1.079169E+002
 20
1.0062181E+002
 11
1.071669E+002
 21
1.0137181E+002
  0
LINE
  8
1
  6
CONTINUOUS
 62
40
 10
1.071669E+002
 20
1.0137181E+002
 11
1.079169E+002
 21
1.0212181E+002
  0
LINE
  8
1
  6
CONTINUOUS
 62
40
 10
1.015669E+002
 20
1.0137181E+002
 11
1.071669E+002
 21
1.0137181E+002
  0
LINE
  8
1
  6
CENTERLINE
 62
1
 10
1.043669E+002
 20
1.0385301E+002
 11
1.043669E+002
 21
9.8851712E+001
  0
LINE
  8
1
  6
CONTINUOUS
 62
40
 10
1.008169E+002
 20
1.0062181E+002
 11
1.015669E+002
 21
1.0137181E+002
  0
LINE
  8
1
  6
CONTINUOUS
 62
40
 10
1.015669E+002
 20
1.0137181E+002
 11
1.008169E+002
 21
1.0212181E+002
  0
LINE
  8
1
  6
HIDDEN
 62
1
 10
9.7366896E+001
 20
1.0212181E+002
 11
9.7366896E+001
 21
1.0062181E+002
  0
LINE
  8
1
  6
HIDDEN
 62
1
 10
1.103669E+002
 20
1.0212181E+002
 11
1.103669E+002
 21
1.0062181E+002
  0
LINE
  8
1
  6
CONTINUOUS
 62
40
 10
1.373669E+002
 20
1.0062181E+002
 11
1.1473805E+002
 21
1.0062181E+002
  0
LINE
  8
1
  6
CONTINUOUS
 62
40
 10
9.2366896E+001
 20
1.0062181E+002
 11
9.2366896E+001
 21
1.0212181E+002
  0
LINE
  8
1
  6
CONTINUOUS
 62
40
 10
9.2366896E+001
 20
1.0212181E+002
 11
1.373669E+002
 21
1.0212181E+002
  0
LINE
  8
1
  6
CONTINUOUS
 62
40
 10
1.373669E+002
 20
1.0212181E+002
 11
1.373669E+002
 21
1.0062181E+002
  0
INSERT
  2
*XH37
  8
1
 10
0.0
 20
0.0
  0
ARC
  8
1
  6
CONTINUOUS
 62
1
 10
1.0928812E+002
 20
1.0184366E+002
 40
2.8076674E-001
 50
4.2025423E-002
 51
9.7827173E+001
  0
ARC
  8
1
  6
CONTINUOUS
 62
1
 10
1.0928811E+002
 20
1.0184366E+002
 40
2.8077155E-001
 50
3.1788319E+002
 51
3.6004166E+002
  0
ARC
  8
1
  6
CONTINUOUS
 62
1
 10
1.0975654E+002
 20
1.0141862E+002
 40
3.5175204E-001
 50
1.376989E+002
 51
1.4734722E+002
  0
ARC
  8
1
  6
CONTINUOUS
 62
1
 10
1.0968989E+002
 20
1.0146089E+002
 40
2.7282764E-001
 50
1.4726847E+002
 51
1.5870024E+002
  0
ARC
  8
1
  6
CONTINUOUS
 62
1
 10
1.0964173E+002
 20
1.0148043E+002
 40
2.2086481E-001
 50
1.5888382E+002
 51
1.654609E+002
  0
ARC
  8
1
  6
CONTINUOUS
 62
1
 10
1.0961347E+002
 20
1.0148774E+002
 40
1.9166715E-001
 50
1.6545629E+002
 51
1.7268531E+002
  0
ARC
  8
1
  6
CONTINUOUS
 62
1
 10
1.0959001E+002
 20
1.0149076E+002
 40
1.6801398E-001
 50
1.7268751E+002
 51
1.8057972E+002
  0
ARC
  8
1
  6
CONTINUOUS
 62
1
 10
1.0957231E+002
 20
1.0149061E+002
 40
1.5031994E-001
 50
1.805918E+002
 51
1.8909132E+002
  0
ARC
  8
1
  6
CONTINUOUS
 62
1
 10
1.096221E+002
 20
1.0149881E+002
 40
2.0077918E-001
 50
1.8915785E+002
 51
2.5247202E+002
  0
ARC
  8
1
  6
CONTINUOUS
 62
1
 10
1.0949309E+002
 20
1.0108856E+002
 40
2.2928504E-001
 50
5.7511429E+001
 51
7.2606648E+001
  0
ARC
  8
1
  6
CONTINUOUS
 62
1
 10
1.0950426E+002
 20
1.0110666E+002
 40
2.0801507E-001
 50
4.9374149E+001
 51
5.7427397E+001
  0
ARC
  8
1
  6
CONTINUOUS
 62
1
 10
1.0951497E+002
 20
1.011191E+002
 40
1.9159655E-001
 50
4.0876282E+001
 51
4.9383384E+001
  0
ARC
  8
1
  6
CONTINUOUS
 62
1
 10
1.0952713E+002
 20
1.0112961E+002
 40
1.755311E-001
 50
3.1862595E+001
 51
4.0881181E+001
  0
ARC
  8
1
  6
CONTINUOUS
 62
1
 10
1.0953926E+002
 20
1.0113715E+002
 40
1.6124898E-001
 50
2.2317305E+001
 51
3.1860744E+001
  0
ARC
  8
1
  6
CONTINUOUS
 62
1
 10
1.0954974E+002
 20
1.0114148E+002
 40
1.499028E-001
 50
1.2287735E+001
 51
2.2306631E+001
  0
ARC
  8
1
  6
CONTINUOUS
 62
1
 10
1.0955715E+002
 20
1.0114315E+002
 40
1.423149E-001
 50
1.8961895
 51
1.2267864E+001
  0
ARC
  8
1
  6
CONTINUOUS
 62
1
 10
1.0961197E+002
 20
1.0114531E+002
 40
8.7454901E-002
 50
3.506002E+002
 51
3.6166496E+002
  0
ARC
  8
1
  6
CONTINUOUS
 62
1
 10
1.095875E+002
 20
1.0114941E+002
 40
1.1226485E-001
 50
3.4120562E+002
 51
3.5057637E+002
  0
ARC
  8
1
  6
CONTINUOUS
 62
1
 10
1.0955042E+002
 20
1.0116197E+002
 40
1.5140783E-001
 50
3.3354787E+002
 51
3.412258E+002
  0
ARC
  8
1
  6
CONTINUOUS
 62
1
 10
1.0949995E+002
 20
1.0118694E+002
 40
2.0771498E-001
 50
3.2736453E+002
 51
3.3358337E+002
  0
ARC
  8
1
  6
CONTINUOUS
 62
1
 10
1.0943551E+002
 20
1.01228E+002
 40
2.8412447E-001
 50
3.2235306E+002
 51
3.2739958E+002
  0
ARC
  8
1
  6
CONTINUOUS
 62
1
 10
1.0935676E+002
 20
1.0128851E+002
 40
3.8344163E-001
 50
3.1825024E+002
 51
3.2238222E+002
  0
ARC
  8
1
  6
CONTINUOUS
 62
1
 10
1.0921303E+002
 20
1.0141914E+002
 40
5.7766025E-001
 50
3.1177638E+002
 51
3.1807586E+002
  0
ARC
  8
1
  6
CONTINUOUS
 62
1
 10
1.0983514E+002
 20
1.0072533E+002
 40
3.5422145E-001
 50
1.3205074E+002
 51
1.6300651E+002
  0
ARC
  8
1
  6
CONTINUOUS
 62
1
 10
1.0983513E+002
 20
1.0072533E+002
 40
3.5421376E-001
 50
1.6300686E+002
 51
1.9699314E+002
  0
LINE
  8
1
  6
CONTINUOUS
 62
1
 10
1.0949638E+002
 20
1.0062181E+002
 11
1.079169E+002
 21
1.0062181E+002
  0
LINE
  8
1
  6
CONTINUOUS
 62
1
 10
1.079169E+002
 20
1.0062181E+002
 11
1.071669E+002
 21
1.0137181E+002
  0
LINE
  8
1
  6
CONTINUOUS
 62
1
 10
1.071669E+002
 20
1.0137181E+002
 11
1.079169E+002
 21
1.0212181E+002
  0
LINE
  8
1
  6
CONTINUOUS
 62
1
 10
1.079169E+002
 20
1.0212181E+002
 11
1.0932635E+002
 21
1.0212181E+002
  0
INSERT
  2
*XH58
  8
1
 10
0.0
 20
0.0
  0
ARC
  8
1
  6
CONTINUOUS
 62
1
 10
9.8723992E+001
 20
1.0183315E+002
 40
2.8896779E-001
 50
2.1256491
 51
8.7368758E+001
  0
ARC
  8
1
  6
CONTINUOUS
 62
1
 10
9.8723992E+001
 20
1.0183315E+002
 40
2.8896771E-001
 50
3.163298E+002
 51
3.6212562E+002
  0
ARC
  8
1
  6
CONTINUOUS
 62
1
 10
9.9161713E+001
 20
1.0141464E+002
 40
3.1663029E-001
 50
1.3624499E+002
 51
1.4730176E+002
  0
ARC
  8
1
  6
CONTINUOUS
 62
1
 10
9.9135625E+001
 20
1.0143124E+002
 40
2.8570973E-001
 50
1.4727666E+002
 51
1.5911786E+002
  0
ARC
  8
1
  6
CONTINUOUS
 62
1
 10
9.9107004E+001
 20
1.0144211E+002
 40
2.5509335E-001
 50
1.5910794E+002
 51
1.7187861E+002
  0
ARC
  8
1
  6
CONTINUOUS
 62
1
 10
9.9082219E+001
 20
1.0144571E+002
 40
2.3004851E-001
 50
1.7189452E+002
 51
1.8557544E+002
  0
ARC
  8
1
  6
CONTINUOUS
 62
1
 10
9.9021038E+001
 20
1.0144029E+002
 40
1.6863167E-001
 50
1.8576361E+002
 51
1.9224516E+002
  0
ARC
  8
1
  6
CONTINUOUS
 62
1
 10
9.9051803E+001
 20
1.0144697E+002
 40
2.0011311E-001
 50
1.9224468E+002
 51
1.9802759E+002
  0
ARC
  8
1
  6
CONTINUOUS
 62
1
 10
9.9112764E+001
 20
1.0146787E+002
 40
2.6455193E-001
 50
1.9824669E+002
 51
2.0785868E+002
  0
ARC
  8
1
  6
CONTINUOUS
 62
1
 10
9.9221462E+001
 20
1.0152477E+002
 40
3.8723917E-001
 50
2.0778585E+002
 51
2.152414E+002
  0
ARC
  8
1
  6
CONTINUOUS
 62
1
 10
9.9360012E+001
 20
1.016219E+002
 40
5.5644308E-001
 50
2.1517762E+002
 51
2.210314E+002
  0
ARC
  8
1
  6
CONTINUOUS
 62
1
 10
9.8631257E+001
 20
1.0098932E+002
 40
4.0856689E-001
 50
1.4245444E+001
 51
4.0860156E+001
  0
ARC
  8
1
  6
CONTINUOUS
 62
1
 10
9.863126E+001
 20
1.0098932E+002
 40
4.08564E-001
 50
2.9590578E+002
 51
3.7424533E+002
  0
LINE
  8
1
  6
CONTINUOUS
 62
1
 10
9.8809758E+001
 20
1.0062181E+002
 11
1.008169E+002
 21
1.0062181E+002
  0
LINE
  8
1
  6
CONTINUOUS
 62
1
 10
1.008169E+002
 20
1.0062181E+002
 11
1.015669E+002
 21
1.0137181E+002
  0
LINE
  8
1
  6
CONTINUOUS
 62
1
 10
1.015669E+002
 20
1.0137181E+002
 11
1.008169E+002
 21
1.0212181E+002
  0
LINE
  8
1
  6
CONTINUOUS
 62
1
 10
1.008169E+002
 20
1.0212181E+002
 11
9.8737257E+001
 21
1.0212181E+002
  0
LINE
  8
1
  6
CONTINUOUS
 62
40
 10
1.163669E+002
 20
1.0212181E+002
 11
1.163669E+002
 21
1.0062181E+002
  0
DIMENSION
  8
1
  6
CONTINUOUS
 62
4
  2
*D954
  3
DSTYLE1
 10
8.327E+001
 20
1.0212181E+002
 11
8.03545E+001
 21
1.0998328E+002
 70
128
 13
9.2366896E+001
 23
1.0062181E+002
 14
9.2366896E+001
 24
1.0212181E+002
 40
3.0
 50
9.0E+001
1001
ACAD
1000
DSTYLE
1002
{
1070
173
1070
0
1070
5
1000
_AH13
1002
}
  0
DIMENSION
  8
1
  6
CONTINUOUS
 62
4
  2
*D975
  3
DSTYLE1
 10
1.008169E+002
 20
9.262E+001
 11
1.1682453E+002
 21
9.55355E+001
 70
128
 13
1.079169E+002
 23
1.0062181E+002
 14
1.008169E+002
 24
1.0062181E+002
 40
3.0
 50
1.8E+002
1001
ACAD
1000
DSTYLE
1002
{
1070
173
1070
0
1070
5
1000
_AH13
1002
}
  0
DIMENSION
  8
1
  6
CONTINUOUS
 62
4
  2
*D987
  3
DSTYLE2
 10
8.9837752E+001
 20
8.9642665E+001
 11
1.043669E+002
 21
8.8104934E+001
 70
130
 13
1.1889604E+002
 23
8.9642664E+001
 14
1.07874E+002
 24
1.006647E+002
 15
1.0085979E+002
 25
1.006647E+002
 16
1.043669E+002
 26
8.4624496E+001
1001
ACAD
1000
DSTYLE
1002
{
1070
173
1070
0
1070
5
1000
_AH13
1002
}
  0
LINE
  8
1
  6
CENTERLINE
 62
1
 10
9.0193888E+001
 20
1.6381873E+002
 11
1.1453891E+002
 21
1.6381873E+002
  0
CIRCLE
  8
1
  6
CONTINUOUS
 62
40
 10
1.0436965E+002
 20
1.9131873E+002
 40
2.8
  0
CIRCLE
  8
1
  6
CONTINUOUS
 62
40
 10
1.0436965E+002
 20
1.3631873E+002
 40
2.8
  0
CIRCLE
  8
1
  6
CONTINUOUS
 62
40
 10
1.0436965E+002
 20
1.3631873E+002
 40
3.55
  0
CIRCLE
  8
1
  6
CONTINUOUS
 62
40
 10
1.0436965E+002
 20
1.9131873E+002
 40
3.55
  0
LINE
  8
1
  6
CENTERLINE
 62
1
 10
1.0436965E+002
 20
1.5687446E+002
 11
1.0436965E+002
 21
1.7570117E+002
  0
LINE
  8
1
  6
CENTERLINE
 62
1
 10
1.0436965E+002
 20
1.8443537E+002
 11
1.0436965E+002
 21
1.9651431E+002
  0
LINE
  8
1
  6
CENTERLINE
 62
1
 10
9.9174065E+001
 20
1.9131873E+002
 11
1.0956137E+002
 21
1.9131873E+002
  0
LINE
  8
1
  6
CENTERLINE
 62
1
 10
9.9174065E+001
 20
1.3631873E+002
 11
1.0956137E+002
 21
1.3631873E+002
  0
LINE
  8
1
  6
CONTINUOUS
 62
40
 10
9.7369649E+001
 20
1.4531873E+002
 11
9.7369649E+001
 21
1.4581873E+002
  0
LINE
  8
1
  6
CONTINUOUS
 62
40
 10
9.7369649E+001
 20
1.4581873E+002
 11
9.7369649E+001
 21
1.8181873E+002
  0
LINE
  8
1
  6
CONTINUOUS
 62
40
 10
9.7369649E+001
 20
1.8181873E+002
 11
9.7369649E+001
 21
1.8231873E+002
  0
LINE
  8
1
  6
CONTINUOUS
 62
40
 10
9.7369649E+001
 20
1.8231873E+002
 11
9.7369649E+001
 21
1.8531873E+002
  0
ARC
  8
1
  6
CONTINUOUS
 62
40
 10
9.7869649E+001
 20
1.8531873E+002
 40
5.0E-001
 50
9.0E+001
 51
1.8E+002
  0
LINE
  8
1
  6
CONTINUOUS
 62
40
 10
9.7869649E+001
 20
1.8581873E+002
 11
1.0829907E+002
 21
1.8581873E+002
  0
LINE
  8
1
  6
CONTINUOUS
 62
40
 10
1.0829907E+002
 20
1.8581873E+002
 11
1.1036965E+002
 21
1.8581873E+002
  0
ARC
  8
1
  6
CONTINUOUS
 62
40
 10
1.1036965E+002
 20
1.8481873E+002
 40
1.0
 50
0.0
 51
9.0E+001
  0
LINE
  8
1
  6
CONTINUOUS
 62
40
 10
1.1136965E+002
 20
1.8481873E+002
 11
1.1136965E+002
 21
1.8231873E+002
  0
LINE
  8
1
  6
CONTINUOUS
 62
40
 10
1.1136965E+002
 20
1.8231873E+002
 11
1.1136965E+002
 21
1.8131873E+002
  0
LINE
  8
1
  6
CONTINUOUS
 62
40
 10
1.1136965E+002
 20
1.8131873E+002
 11
1.1136965E+002
 21
1.7270692E+002
  0
ARC
  8
1
  6
CONTINUOUS
 62
40
 10
1.5036965E+002
 20
1.6381873E+002
 40
4.0E+001
 50
1.6716143E+002
 51
1.9283857E+002
  0
LINE
  8
1
  6
CONTINUOUS
 62
40
 10
1.1136965E+002
 20
1.5493053E+002
 11
1.1136965E+002
 21
1.4631873E+002
  0
LINE
  8
1
  6
CONTINUOUS
 62
40
 10
1.1136965E+002
 20
1.4631873E+002
 11
1.1136965E+002
 21
1.4531873E+002
  0
LINE
  8
1
  6
CONTINUOUS
 62
40
 10
1.1136965E+002
 20
1.4531873E+002
 11
1.1136965E+002
 21
1.4281873E+002
  0
ARC
  8
1
  6
CONTINUOUS
 62
40
 10
1.1036965E+002
 20
1.4281873E+002
 40
1.0
 50
2.7E+002
 51
3.6E+002
  0
LINE
  8
1
  6
CONTINUOUS
 62
40
 10
1.1036965E+002
 20
1.4181873E+002
 11
1.080031E+002
 21
1.4181873E+002
  0
LINE
  8
1
  6
CONTINUOUS
 62
40
 10
1.080031E+002
 20
1.4181873E+002
 11
9.7869649E+001
 21
1.4181873E+002
  0
ARC
  8
1
  6
CONTINUOUS
 62
40
 10
9.7869649E+001
 20
1.4231873E+002
 40
5.0E-001
 50
1.8E+002
 51
2.7E+002
  0
LINE
  8
1
  6
CONTINUOUS
 62
40
 10
9.7369649E+001
 20
1.4231873E+002
 11
9.7369649E+001
 21
1.4531873E+002
  0
LINE
  8
1
  6
CONTINUOUS
 62
40
 10
9.2369649E+001
 20
2.0031873E+002
 11
1.1636965E+002
 21
2.0031873E+002
  0
LINE
  8
1
  6
CONTINUOUS
 62
40
 10
1.1636965E+002
 20
2.0031873E+002
 11
1.1636965E+002
 21
1.8681873E+002
  0
ARC
  8
1
  6
CONTINUOUS
 62
40
 10
1.1686965E+002
 20
1.8681873E+002
 40
5.0000011E-001
 50
1.8000001E+002
 51
2.6999999E+002
  0
LINE
  8
1
  6
CONTINUOUS
 62
40
 10
1.1686965E+002
 20
1.8631873E+002
 11
1.2536965E+002
 21
1.8631873E+002
  0
ARC
  8
1
  6
CONTINUOUS
 62
40
 10
1.2536965E+002
 20
1.7431873E+002
 40
1.2E+001
 50
3.6E+002
 51
4.5E+002
  0
LINE
  8
1
  6
CONTINUOUS
 62
40
 10
1.3736965E+002
 20
1.7431873E+002
 11
1.3736965E+002
 21
1.5331873E+002
  0
ARC
  8
1
  6
CONTINUOUS
 62
40
 10
1.2536965E+002
 20
1.5331873E+002
 40
1.2E+001
 50
2.7E+002
 51
3.6E+002
  0
LINE
  8
1
  6
CONTINUOUS
 62
40
 10
1.2536965E+002
 20
1.4131873E+002
 11
1.1686965E+002
 21
1.4131873E+002
  0
ARC
  8
1
  6
CONTINUOUS
 62
40
 10
1.1686965E+002
 20
1.4081873E+002
 40
4.9999997E-001
 50
9.0E+001
 51
1.8E+002
  0
LINE
  8
1
  6
CONTINUOUS
 62
40
 10
1.1636965E+002
 20
1.4081873E+002
 11
1.1636965E+002
 21
1.2731873E+002
  0
LINE
  8
1
  6
CONTINUOUS
 62
40
 10
1.1636965E+002
 20
1.2731873E+002
 11
9.2369649E+001
 21
1.2731873E+002
  0
LINE
  8
1
  6
CONTINUOUS
 62
40
 10
9.2369649E+001
 20
1.2731873E+002
 11
9.2369649E+001
 21
2.0031873E+002
  0
DIMENSION
  8
1
  6
CONTINUOUS
 62
4
  2
*D1053
  3
DSTYLE3
 10
1.1037155E+002
 20
1.8481684E+002
 11
1.0375067E+002
 21
1.8164095E+002
 70
4
 15
1.1107449E+002
 25
1.8552809E+002
 40
-1.241175E+001
1001
ACAD
1000
DSTYLE
1002
{
1070
173
1070
0
1070
5
1000
_AH13
1002
}
  0
DIMENSION
  8
1
  6
CONTINUOUS
 62
4
  2
*D1062
  3
DSTYLE4
 10
7.6492104E+001
 20
2.0031873E+002
 11
7.3575604E+001
 21
1.6740488E+002
 70
128
 13
9.2317187E+001
 23
1.2731873E+002
 14
9.2369649E+001
 24
2.0031873E+002
 40
3.0
 50
9.0E+001
1001
ACAD
1000
DSTYLE
1002
{
1070
173
1070
0
1070
5
1000
_AH13
1002
}
  0
DIMENSION
  8
1
  6
CONTINUOUS
 62
4
  2
*D1108
  3
DSTYLE4
 10
9.2369649E+001
 20
2.2231873E+002
 11
1.0444743E+002
 21
2.2523423E+002
 70
128
 13
1.1636965E+002
 23
2.0031873E+002
 14
9.2369649E+001
 24
2.0031873E+002
 40
3.0
 50
1.8E+002
1001
ACAD
1000
DSTYLE
1002
{
1070
173
1070
0
1070
5
1000
_AH13
1002
}
  0
DIMENSION
  8
1
  6
CONTINUOUS
 62
4
  2
*D1138
  3
DSTYLE5
 10
9.2369649E+001
 20
2.1475424E+002
 11
1.017577E+002
 21
2.1783724E+002
 70
128
 13
1.1136965E+002
 23
1.8231873E+002
 14
9.2369649E+001
 24
2.1208221E+002
 40
3.0
 50
0.0
1001
ACAD
1000
DSTYLE
1002
{
1070
173
1070
0
1070
5
1000
_AH13
1002
}
  0
DIMENSION
  8
1
  6
CONTINUOUS
 62
4
  2
*D1147
  3
DSTYLE4
 10
1.5352E+002
 20
1.9131873E+002
 11
1.506035E+002
 21
1.6055568E+002
 70
128
 13
1.0791965E+002
 23
1.3631873E+002
 14
1.0956137E+002
 24
1.9131873E+002
 40
3.0
 50
9.0E+001
1001
ACAD
1000
DSTYLE
1002
{
1070
173
1070
0
1070
5
1000
_AH13
1002
}
  0
DIMENSION
  8
1
  6
CONTINUOUS
 62
4
  2
*D1190
  3
DSTYLE6
 10
1.1686965E+002
 20
1.4081873E+002
 11
1.2221429E+002
 21
1.3265144E+002
 70
4
 15
1.1659586E+002
 25
1.4123711E+002
 40
-1.7360624E+001
1001
ACAD
1000
DSTYLE
1002
{
1070
173
1070
0
1070
5
1000
_AH13
1002
}
  0
DIMENSION
  8
1
  6
CONTINUOUS
 62
4
  2
*D1193
  3
DSTYLE6
 10
1.1686965E+002
 20
1.8681873E+002
 11
1.2435024E+002
 21
1.9275111E+002
 70
4
 15
1.1647789E+002
 25
1.8650805E+002
 40
-1.7147383E+001
1001
ACAD
1000
DSTYLE
1002
{
1070
173
1070
0
1070
5
1000
_AH13
1002
}
  0
DIMENSION
  8
1
  6
CONTINUOUS
 62
4
  2
*D1198
  3
DSTYLE7
 10
1.015669E+002
 20
1.084377E+002
 11
1.1823335E+002
 21
1.116887E+002
 70
129
 13
1.071669E+002
 23
1.0137181E+002
 14
1.015669E+002
 24
1.0137181E+002
 40
5.0
1001
ACAD
1000
DSTYLE
1002
{
1070
173
1070
0
1070
5
1000
_AH13
1002
}
  0
TEXT
  8
1
  6
CONTINUOUS
 62
1
 10
5.8590512E+001
 20
2.1737344E+001
 40
3.2
  1
45x1,5x73 mm
 41
8.0E-001
  0
LINE
  8
1
  6
CONTINUOUS
 62
40
 10
1.1473805E+002
 20
1.0062181E+002
 11
9.2366896E+001
 21
1.0062181E+002
  0
LINE
  8
1
  6
CONTINUOUS
 62
4
 10
9.2366665E+001
 20
2.2231626E+002
 11
9.2366665E+001
 21
2.292825E+002
  0
DIMENSION
  8
1
  6
CONTINUOUS
 62
4
  2
*D1412
  3
DSTYLE7
 10
1.4729625E+002
 20
1.4131873E+002
 11
1.4404525E+002
 21
1.6673121E+002
 70
128
 13
1.2536965E+002
 23
1.8631873E+002
 14
1.2536965E+002
 24
1.4131873E+002
 40
5.0
 50
9.0E+001
1001
ACAD
1000
DSTYLE
1002
{
1070
173
1070
0
1070
5
1000
_AH13
1002
}
  0
LINE
  8
1
  6
CENTERLINE
 62
1
 10
1.2850844E+002
 20
1.6381873E+002
 11
1.4030387E+002
 21
1.6381873E+002
  0
DIMENSION
  8
1
  6
CONTINUOUS
 62
4
  2
*D1564
  3
DSTYLE7
 10
9.2369649E+001
 20
2.0729341E+002
 11
1.0153339E+002
 21
2.1054441E+002
 70
128
 13
1.1036965E+002
 23
1.6381873E+002
 14
9.2369649E+001
 24
2.0031873E+002
 40
5.0
 50
0.0
1001
ACAD
1000
DSTYLE
1002
{
1070
173
1070
0
1070
5
1000
_AH13
1002
}
  0
DIMENSION
  8
1
  6
CONTINUOUS
 62
4
  2
*D1666
  3
DSTYLE8
 10
1.5036965E+002
 20
1.6381873E+002
 11
1.2228443E+002
 21
1.5996012E+002
 70
4
 15
1.107419E+002
 25
1.583743E+002
 40
-4.0E+001
1001
ACAD
1000
DSTYLE
1002
{
1070
173
1070
0
1070
5
1000
_AH13
1002
}
  0
DIMENSION
  8
1
  6
CONTINUOUS
 62
4
  2
*D1667
  3
DSTYLE8
 10
1.2536965E+002
 20
1.7431873E+002
 11
1.2821687E+002
 21
1.7652989E+002
 70
4
 15
1.3484726E+002
 25
1.8167909E+002
 40
-1.2E+001
1001
ACAD
1000
DSTYLE
1002
{
1070
173
1070
0
1070
5
1000
_AH13
1002
}
  0
DIMENSION
  8
1
  6
CONTINUOUS
 62
4
  2
*D1669
  3
DSTYLE7
 10
1.3736965E+002
 20
2.2894321E+002
 11
1.1493943E+002
 21
2.3219421E+002
 70
128
 13
9.2369649E+001
 23
2.0031873E+002
 14
1.3736965E+002
 24
1.7431873E+002
 40
5.0
 50
0.0
1001
ACAD
1000
DSTYLE
1002
{
1070
173
1070
0
1070
5
1000
_AH13
1002
}
  0
DIMENSION
  8
1
  6
CONTINUOUS
 62
4
  2
*D1670
  3
DSTYLE7
 10
8.325471E+001
 20
1.4181873E+002
 11
8.000371E+001
 21
1.6337896E+002
 70
128
 13
9.7869649E+001
 23
1.8581873E+002
 14
9.7869649E+001
 24
1.4181873E+002
 40
5.0
 50
9.0E+001
1001
ACAD
1000
DSTYLE
1002
{
1070
173
1070
0
1070
5
1000
_AH13
1002
}
  0
DIMENSION
  8
1
  6
CONTINUOUS
 62
4
  2
*D1671
  3
DSTYLE7
 10
9.7369649E+001
 20
1.7054582E+002
 11
8.7674001E+001
 21
1.7379682E+002
 70
128
 13
9.2369649E+001
 23
2.0031873E+002
 14
9.7369649E+001
 24
1.8181873E+002
 40
5.0
 50
0.0
1001
ACAD
1000
DSTYLE
1002
{
1070
173
1070
0
1070
5
1000
_AH13
1002
}
  0
DIMENSION
  8
1
  6
CONTINUOUS
 62
4
  2
*D1673
  3
DSTYLE6
 10
9.7869649E+001
 20
1.4231873E+002
 11
1.0507789E+002
 21
1.4812815E+002
 70
4
 15
9.7480346E+001
 25
1.4200497E+002
 40
-1.6857866E+001
1001
ACAD
1000
DSTYLE
1002
{
1070
173
1070
0
1070
5
1000
_AH13
1002
}
  0
LINE
  8
1
  6
CENTERLINE
 62
1
 10
1.0436965E+002
 20
1.4422969E+002
 11
1.0436965E+002
 21
1.2420037E+002
  0
INSERT
  2
O
  8
1
 10
4.5736744E+001
 20
2.6453909E+002
  0
TEXT
  8
1
  6
CONTINUOUS
 62
1
 10
2.769312E+001
 20
2.5272647E+002
 40
2.9
  1
115F,116F,515F
 41
8.0E-001
  0
VIEWPORT
 67
1
  8
0
  6
CONTINUOUS
 62
3
100
AcDbViewport
 10
1.05E+002
 20
1.485E+002
 30
0.0
 40
2.97E+002
 41
2.97E+002
 68
1
 69
1
1001
ACAD
1000
MVIEW
1002
{
1070
16
1010
0.0
1020
0.0
1030
0.0
1010
0.0
1020
0.0
1030
1.0
1040
0.0
1040
2.97E+002
1040
5.775E+001
1040
1.485E+002
1040
5.0E+001
1040
0.0
1040
0.0
1070
0
1070
1000
1070
1
1070
0
1070
0
1070
0
1070
0
1070
0
1040
0.0
1040
0.0
1040
0.0
1040
5.0E-001
1040
5.0E-001
1040
5.0E-001
1040
5.0E-001
1070
0
1002
{
1002
}
1002
}
  0
VIEWPORT
 67
1
  8
0
  6
CONTINUOUS
 62
3
100
AcDbViewport
 10
1.05E+002
 20
1.485E+002
 30
0.0
 40
2.1E+002
 41
2.97E+002
 68
2
 69
2
1001
ACAD
1000
MVIEW
1002
{
1070
16
1010
0.0
1020
0.0
1030
0.0
1010
0.0
1020
0.0
1030
1.0
1040
0.0
1040
2.97E+002
1040
1.05E+002
1040
1.485E+002
1040
5.0E+001
1040
0.0
1040
0.0
1070
0
1070
1000
1070
1
1070
0
1070
0
1070
0
1070
0
1070
0
1040
0.0
1040
0.0
1040
0.0
1040
5.0E-001
1040
5.0E-001
1040
5.0E-001
1040
5.0E-001
1070
0
1002
{
1002
}
1002
}
  0
ENDSEC
  0
EOF
