  0
SECTION
  2
HEADER
  9
$ACADVER
  1
AC1009
999
I-DEAS 11 NX Not Encoded
  9
$EXTMIN
 10
0.0
 20
0.0
  9
$EXTMAX
 10
2.1E+002
 20
2.97E+002
  9
$TEXTSIZE
 40
1.25E-001
  9
$LTSCALE
 40
1.0
  9
$CLAYER
  8
104
  9
$CECOLOR
 62
40
  9
$DIMASZ
 40
1.25E-001
  9
$DIMEXO
 40
6.25E-002
  9
$DIMDLI
 40
2.5E-001
  9
$DIMEXE
 40
1.25E-001
  9
$DIMTP
 40
5.0E-003
  9
$DIMTM
 40
-5.0E-003
  9
$DIMTXT
 40
3.0
  9
$DIMLIM
 70
0
  9
$DIMTIH
 70
1
  9
$DIMTOH
 70
1
  9
$DIMSE1
 70
0
  9
$DIMSE2
 70
0
  9
$DIMTAD
 70
0
  9
$DIMASO
 70
1
  9
$DIMALT
 70
0
  9
$DIMALTD
 70
0
  9
$DIMTOFL
 70
1
  9
$DIMTIX
 70
0
  9
$DIMSAH
 70
0
  9
$DIMTFAC
 40
1.0
  9
$DIMGAP
 40
6.25E-002
  9
$LUNITS
 70
2
  9
$LUPREC
 70
3
  9
$FILLETRAD
 40
2.0
  9
$AUNITS
 70
0
  9
$AUPREC
 70
1
  9
$CHAMFERA
 40
1.0E+001
  9
$CHAMFERB
 40
1.0E+001
  9
$ANGBASE
 50
0.0
  9
$ANGDIR
 70
0
  9
$PEXTMIN
 10
0.0
 20
0.0
 30
0.0
  9
$PEXTMAX
 10
2.1E+002
 20
2.97E+002
 30
0.0
  9
$PLIMMIN
 10
0.0
 20
0.0
  9
$PLIMMAX
 10
2.1E+002
 20
2.97E+002
  9
$PDMODE
 70
2
  9
$PDSIZE
 40
-1.0E-002
  9
$SPLINETYPE
 70
6
  9
$TILEMODE
 70
0
  0
ENDSEC
  0
SECTION
  2
TABLES
  0
TABLE
  2
VPORT
 70
2
  0
VPORT
  2
*Active
 70
0
 10
0.0
 20
0.0
 11
2.1E+002
 21
2.97E+002
 12
1.05E+002
 22
1.485E+002
 13
0.0
 23
0.0
 14
1.0
 24
1.0
 15
0.0
 25
0.0
 16
0.0
 26
0.0
 36
1.0
 17
0.0
 27
0.0
 37
0.0
 40
2.97E+002
 41
7.0707071E-001
 42
5.0E+001
 43
0.0
 44
0.0
 50
0.0
 51
0.0
 71
0
 72
1000
 73
1
 74
3
 75
0
 76
0
 77
0
 78
0
  0
ENDTAB
  0
TABLE
  2
LTYPE
 70
7
  0
LTYPE
  2
HIDDENNEW0
  3
_ 
 70
64
 72
65
 73
3
 40
4.5
 49
1.5
 49
-1.5
 49
1.5
  0
LTYPE
  2
HIDDENNEW1
  3
_ 
 70
64
 72
65
 73
3
 40
4.5
 49
1.5
 49
-1.5
 49
1.5
  0
LTYPE
  2
HIDDEN
  3
_ 
 70
64
 72
65
 73
3
 40
4.5
 49
1.5
 49
-1.5
 49
1.5
  0
LTYPE
  2
CENTERLINE
  3
_ 
 70
64
 72
65
 73
5
 40
3.0E+001
 49
1.2E+001
 49
-1.5
 49
3.0
 49
-1.5
 49
1.2E+001
  0
LTYPE
  2
PHANTOM
  3
_ 
 70
64
 72
65
 73
7
 40
2.95E+001
 49
9.5
 49
-1.5
 49
3.0
 49
-1.5
 49
3.0
 49
-1.5
 49
9.5
  0
LTYPE
  2
SHORT_DASH
  3
_ 
 70
64
 72
65
 73
3
 40
3.0
 49
7.5E-001
 49
-1.5
 49
7.5E-001
  0
LTYPE
  2
LONG_DASH
  3
_ 
 70
64
 72
65
 73
3
 40
9.0
 49
2.25
 49
-4.5
 49
2.25
  0
ENDTAB
  0
TABLE
  2
LAYER
 70
258
  0
LAYER
  2
0
 70
0
 62
7
  6
CONTINUOUS
  0
LAYER
  2
1
 70
0
 62
7
  6
CONTINUOUS
  0
LAYER
  2
Drafting_Hidden_Entities
 70
1
 62
7
  6
CONTINUOUS
  0
ENDTAB
  0
TABLE
  2
STYLE
 70
1
  0
STYLE
  2
STANDARD
 70
64
 40
0.0
 41
1.0
 50
0.0
 71
0
 42
1.0
  3
monotxt.shx
  4

  0
ENDTAB
  0
TABLE
  2
VIEW
 70
0
  0
ENDTAB
  0
TABLE
  2
DIMSTYLE
 70
5
  0
DIMSTYLE
  2
DSTYLE1
 70
0
  3

  4

  5

  6

  7

 40
1.0
 41
3.5
 42
1.0
 43
3.8E-001
 44
1.0
 45
1.0E-001
 46
0.0
 47
1.0E-001
 48
1.0E-001
 71
0
 72
0
 73
0
 74
0
 75
0
 76
0
 77
1
 78
11
140
3.5
141
9.0E-002
142
0.0
143
1.0
144
1.0
145
0.0
146
1.0
147
1.1655
170
0
171
2
172
0
173
0
174
0
175
0
176
0
177
0
178
0
  0
DIMSTYLE
  2
DSTYLE2
 70
0
  3

  4

  5

  6

  7

 40
1.0
 41
4.0
 42
0.0
 43
3.8E-001
 44
1.5
 45
1.0E-003
 46
0.0
 47
1.0E-001
 48
1.0E-001
 71
0
 72
0
 73
0
 74
0
 75
0
 76
0
 77
1
 78
11
140
3.5
141
9.0E-002
142
0.0
143
3.9370079E-002
144
1.0
145
0.0
146
1.0
147
1.5
170
0
171
2
172
0
173
0
174
0
175
0
176
0
177
0
178
0
  0
DIMSTYLE
  2
DSTYLE3
 70
0
  3

  4

  5

  6

  7

 40
1.0
 41
3.5
 42
1.0
 43
3.8E-001
 44
1.0
 45
0.0
 46
0.0
 47
1.0E-001
 48
1.0E-001
 71
0
 72
0
 73
0
 74
0
 75
0
 76
0
 77
1
 78
11
140
3.5
141
9.0E-002
142
0.0
143
1.0
144
1.0
145
0.0
146
1.0
147
1.1655
170
0
171
2
172
0
173
0
174
0
175
0
176
0
177
0
178
0
  0
DIMSTYLE
  2
DSTYLE4
 70
0
  3

  4

  5

  6

  7

 40
1.0
 41
3.5
 42
1.0
 43
3.8E-001
 44
1.0
 45
1.0E-002
 46
0.0
 47
1.0E-001
 48
1.0E-001
 71
0
 72
0
 73
0
 74
0
 75
0
 76
0
 77
1
 78
11
140
3.5
141
9.0E-002
142
0.0
143
1.0
144
1.0
145
0.0
146
1.0
147
1.1655
170
0
171
2
172
0
173
0
174
0
175
0
176
0
177
0
178
0
  0
DIMSTYLE
  2
DSTYLE5
 70
0
  3

  4

  5

  6

  7

 40
1.0
 41
4.0
 42
0.0
 43
3.8E-001
 44
1.5
 45
1.0E-003
 46
0.0
 47
1.0E-001
 48
1.0E-001
 71
0
 72
0
 73
0
 74
0
 75
1
 76
0
 77
1
 78
11
140
2.6
141
9.0E-002
142
0.0
143
3.9370079E-002
144
1.0
145
0.0
146
1.0
147
1.5
170
0
171
2
172
1
173
0
174
0
175
0
176
0
177
0
178
0
  0
ENDTAB
  0
ENDSEC
  0
SECTION
  2
BLOCKS
  0
BLOCK
  2
_AH12
  3
_AH
 10
0.0
 20
0.0
 70
64
  0
LINE
  8
0
  6
CONTINUOUS
 62
0
 10
0.0
 20
0.0
 11
1.0
 21
0.0
  0
LINE
  8
0
  6
CONTINUOUS
 62
0
 10
0.0
 20
0.0
 11
-1.0
 21
0.0
  0
ENDBLK
  0
BLOCK
  2
_AH13
  3
_AH
 10
0.0
 20
0.0
 70
64
  0
SOLID
  8
0
  6
CONTINUOUS
 62
0
 10
0.0
 20
0.0
 11
1.0
 21
-1.66667E-001
 12
1.0
 22
1.66667E-001
 13
0.0
 23
0.0
  0
ENDBLK
  0
BLOCK
  2
_AH14
  3
_AH
 10
0.0
 20
0.0
 70
64
  0
ENDBLK
  0
BLOCK
  2
_AH15
  3
_AH
 10
0.0
 20
0.0
 70
64
  0
CIRCLE
  8
0
  6
CONTINUOUS
 62
0
 10
0.0
 20
0.0
 40
1.66667E-001
  0
LINE
  8
0
  6
CONTINUOUS
 62
0
 10
0.0
 20
0.0
 11
-1.0
 21
0.0
  0
ENDBLK
  0
BLOCK
  2
_AH16
  3
_AH
 10
0.0
 20
0.0
 70
64
  0
POLYLINE
  8
0
  6
CONTINUOUS
 62
0
 66
1
 40
1.66667E-001
 41
1.66667E-001
 70
0
  0
VERTEX
  8
0
 42
1.0
 10
8.3335E-002
 20
0.0
 70
0
  0
VERTEX
  8
0
 42
1.0
 10
-8.3335E-002
 20
0.0
 70
0
  0
VERTEX
  8
0
 42
0.0
 10
8.3335E-002
 20
0.0
 70
0
  0
SEQEND
  0
LINE
  8
0
  6
CONTINUOUS
 62
0
 10
0.0
 20
0.0
 11
-1.0
 21
0.0
  0
ENDBLK
  0
BLOCK
  2
_AH17
  3
_AH
 10
0.0
 20
0.0
 70
64
  0
LINE
  8
0
  6
CONTINUOUS
 62
0
 10
-1.66667E-001
 20
-1.66667E-001
 11
1.66667E-001
 21
-1.66667E-001
  0
LINE
  8
0
  6
CONTINUOUS
 62
0
 10
1.66667E-001
 20
-1.66667E-001
 11
1.66667E-001
 21
1.66667E-001
  0
LINE
  8
0
  6
CONTINUOUS
 62
0
 10
1.66667E-001
 20
1.66667E-001
 11
-1.66667E-001
 21
1.66667E-001
  0
LINE
  8
0
  6
CONTINUOUS
 62
0
 10
-1.66667E-001
 20
1.66667E-001
 11
-1.66667E-001
 21
-1.66667E-001
  0
LINE
  8
0
  6
CONTINUOUS
 62
0
 10
0.0
 20
0.0
 11
-1.0
 21
0.0
  0
ENDBLK
  0
BLOCK
  2
_AH18
  3
_AH
 10
0.0
 20
0.0
 70
64
  0
SOLID
  8
0
  6
CONTINUOUS
 62
0
 10
-1.66667E-001
 20
-1.66667E-001
 11
1.66667E-001
 21
-1.66667E-001
 12
-1.66667E-001
 22
1.66667E-001
 13
1.66667E-001
 23
1.66667E-001
  0
LINE
  8
0
  6
CONTINUOUS
 62
0
 10
0.0
 20
0.0
 11
-1.0
 21
0.0
  0
ENDBLK
  0
BLOCK
  2
_AH19
  3
_AH
 10
0.0
 20
0.0
 70
64
  0
LINE
  8
0
  6
CONTINUOUS
 62
0
 10
-5.0E-001
 20
-5.0E-001
 11
5.0E-001
 21
5.0E-001
  0
LINE
  8
0
  6
CONTINUOUS
 62
0
 10
0.0
 20
0.0
 11
-1.0
 21
0.0
  0
ENDBLK
  0
BLOCK
  2
_AH20
  3
_AH
 10
0.0
 20
0.0
 70
64
  0
POLYLINE
  8
0
  6
CONTINUOUS
 62
0
 66
1
 40
5.0E-001
 41
5.0E-001
 70
0
  0
VERTEX
  8
0
 42
4.1421356E-001
 10
-1.66667E-001
 20
-1.66667E-001
 70
0
  0
VERTEX
  8
0
 42
0.0
 10
0.0
 20
0.0
 70
0
  0
SEQEND
  0
POLYLINE
  8
0
  6
CONTINUOUS
 62
0
 66
1
 40
5.0E-001
 41
5.0E-001
 70
0
  0
VERTEX
  8
0
 42
4.1421356E-001
 10
1.66667E-001
 20
1.66667E-001
 70
0
  0
VERTEX
  8
0
 42
0.0
 10
0.0
 20
0.0
 70
0
  0
SEQEND
  0
LINE
  8
0
  6
CONTINUOUS
 62
0
 10
0.0
 20
0.0
 11
-1.0
 21
0.0
  0
ENDBLK
  0
BLOCK
  2
_AH21
  3
_AH
 10
0.0
 20
0.0
 70
64
  0
LINE
  8
0
  6
CONTINUOUS
 62
0
 10
0.0
 20
0.0
 11
-1.0
 21
-1.66667E-001
  0
LINE
  8
0
  6
CONTINUOUS
 62
0
 10
-1.0
 20
-1.66667E-001
 11
-1.0
 21
1.66667E-001
  0
LINE
  8
0
  6
CONTINUOUS
 62
0
 10
-1.0
 20
1.66667E-001
 11
0.0
 21
0.0
  0
ENDBLK
  0
BLOCK
  2
*XH25
  3
*XH
 10
0.0
 20
0.0
 70
65
  0
LINE
  8
1
  6
CONTINUOUS
 62
1
 10
-1.0101406E+001
 20
-1.775546
 11
-7.7134892
 21
-1.775546
  0
LINE
  8
1
  6
CONTINUOUS
 62
1
 10
-5.4651539
 20
-1.775546
 11
-4.0080475
 21
-1.775546
  0
LINE
  8
1
  6
CONTINUOUS
 62
1
 10
-2.6130314
 20
-1.775546
 11
-1.4953406
 21
-1.775546
  0
LINE
  8
1
  6
CONTINUOUS
 62
1
 10
-5.1302958E-001
 20
-1.775546
 11
7.0919802E-001
 21
-1.775546
  0
LINE
  8
1
  6
CONTINUOUS
 62
1
 10
1.18706
 20
-1.775546
 11
2.3047263
 21
-1.775546
  0
LINE
  8
1
  6
CONTINUOUS
 62
1
 10
3.0182451
 20
-1.775546
 11
4.0500855
 21
-1.775546
  0
LINE
  8
1
  6
CONTINUOUS
 62
1
 10
4.7636042
 20
-1.775546
 11
5.8812705
 21
-1.775546
  0
LINE
  8
1
  6
CONTINUOUS
 62
1
 10
6.1186682
 20
-1.775546
 11
7.4566169
 21
-1.775546
  0
LINE
  8
1
  6
CONTINUOUS
 62
1
 10
8.6648487
 20
-1.775546
 11
1.0002797E+001
 21
-1.775546
  0
LINE
  8
1
  6
CONTINUOUS
 62
1
 10
9.9813125
 20
-1.6843196
 11
8.6484131
 21
-1.6843196
  0
LINE
  8
1
  6
CONTINUOUS
 62
1
 10
7.4730525
 20
-1.6843196
 11
6.140153
 21
-1.6843196
  0
LINE
  8
1
  6
CONTINUOUS
 62
1
 10
5.8812705
 20
-1.6843196
 11
4.7636042
 21
-1.6843196
  0
LINE
  8
1
  6
CONTINUOUS
 62
1
 10
4.0701465
 20
-1.6843196
 11
2.9981614
 21
-1.6843196
  0
LINE
  8
1
  6
CONTINUOUS
 62
1
 10
2.3047263
 20
-1.6843196
 11
1.18706
 21
-1.6843196
  0
LINE
  8
1
  6
CONTINUOUS
 62
1
 10
6.6155682E-001
 20
-1.6843196
 11
-5.4952618E-001
 21
-1.6843196
  0
LINE
  8
1
  6
CONTINUOUS
 62
1
 10
-1.4953406
 20
-1.6843196
 11
-2.6130314
 21
-1.6843196
  0
LINE
  8
1
  6
CONTINUOUS
 62
1
 10
-3.7846193
 20
-1.6843196
 11
-5.6885822
 21
-1.6843196
  0
LINE
  8
1
  6
CONTINUOUS
 62
1
 10
-7.5007693
 20
-1.6843196
 11
-1.0101406E+001
 21
-1.6843196
  0
LINE
  8
1
  6
CONTINUOUS
 62
1
 10
-1.0101406E+001
 20
-1.5930782
 11
-7.3579251
 21
-1.5930782
  0
LINE
  8
1
  6
CONTINUOUS
 62
1
 10
-5.8395706
 20
-1.5930782
 11
-3.6336309
 21
-1.5930782
  0
LINE
  8
1
  6
CONTINUOUS
 62
1
 10
-2.6130314
 20
-1.5930782
 11
-1.4953406
 21
-1.5930782
  0
LINE
  8
1
  6
CONTINUOUS
 62
1
 10
-5.8602278E-001
 20
-1.5930782
 11
6.1391942E-001
 21
-1.5930782
  0
LINE
  8
1
  6
CONTINUOUS
 62
1
 10
1.18706
 20
-1.5930782
 11
2.3047263
 21
-1.5930782
  0
LINE
  8
1
  6
CONTINUOUS
 62
1
 10
2.9781003
 20
-1.5930782
 11
4.0902302
 21
-1.5930782
  0
LINE
  8
1
  6
CONTINUOUS
 62
1
 10
4.7636042
 20
-1.5930782
 11
5.8812705
 21
-1.5930782
  0
LINE
  8
1
  6
CONTINUOUS
 62
1
 10
6.1616189
 20
-1.5930782
 11
7.4894653
 21
-1.5930782
  0
LINE
  8
1
  6
CONTINUOUS
 62
1
 10
8.6320002
 20
-1.5930782
 11
9.9598466
 21
-1.5930782
  0
LINE
  8
1
  6
CONTINUOUS
 62
1
 10
9.9383845
 20
-1.5018367
 11
8.6155647
 21
-1.5018367
  0
LINE
  8
1
  6
CONTINUOUS
 62
1
 10
7.5059009
 20
-1.5018367
 11
6.1830811
 21
-1.5018367
  0
LINE
  8
1
  6
CONTINUOUS
 62
1
 10
5.8812705
 20
-1.5018367
 11
4.7636042
 21
-1.5018367
  0
LINE
  8
1
  6
CONTINUOUS
 62
1
 10
4.1103177
 20
-1.5018367
 11
2.9580166
 21
-1.5018367
  0
LINE
  8
1
  6
CONTINUOUS
 62
1
 10
2.3047263
 20
-1.5018367
 11
1.18706
 21
-1.5018367
  0
LINE
  8
1
  6
CONTINUOUS
 62
1
 10
5.6625562E-001
 20
-1.5018367
 11
-6.2251938E-001
 21
-1.5018367
  0
LINE
  8
1
  6
CONTINUOUS
 62
1
 10
-1.4953406
 20
-1.5018367
 11
-2.6130314
 21
-1.5018367
  0
LINE
  8
1
  6
CONTINUOUS
 62
1
 10
-3.5171791
 20
-1.5018367
 11
-5.9560224
 21
-1.5018367
  0
LINE
  8
1
  6
CONTINUOUS
 62
1
 10
-7.2485807
 20
-1.5018367
 11
-1.0101406E+001
 21
-1.5018367
  0
LINE
  8
1
  6
CONTINUOUS
 62
1
 10
-1.0101406E+001
 20
-1.4105953
 11
-7.1608193
 21
-1.4105953
  0
LINE
  8
1
  6
CONTINUOUS
 62
1
 10
-6.0503568
 20
-1.4105953
 11
-3.4228446
 21
-1.4105953
  0
LINE
  8
1
  6
CONTINUOUS
 62
1
 10
-2.6130314
 20
-1.4105953
 11
-1.4953406
 21
-1.4105953
  0
LINE
  8
1
  6
CONTINUOUS
 62
1
 10
-6.5901588E-001
 20
-1.4105953
 11
5.1861822E-001
 21
-1.4105953
  0
LINE
  8
1
  6
CONTINUOUS
 62
1
 10
1.18706
 20
-1.4105953
 11
2.3047263
 21
-1.4105953
  0
LINE
  8
1
  6
CONTINUOUS
 62
1
 10
2.9379556
 20
-1.4105953
 11
4.1303787
 21
-1.4105953
  0
LINE
  8
1
  6
CONTINUOUS
 62
1
 10
4.7636042
 20
-1.4105953
 11
5.8812705
 21
-1.4105953
  0
LINE
  8
1
  6
CONTINUOUS
 62
1
 10
6.2045432
 20
-1.4105953
 11
7.52231
 21
-1.4105953
  0
LINE
  8
1
  6
CONTINUOUS
 62
1
 10
8.5991556
 20
-1.4105953
 11
9.9169224
 21
-1.4105953
  0
LINE
  8
1
  6
CONTINUOUS
 62
1
 10
9.8954338
 20
-1.3193689
 11
8.58272
 21
-1.3193689
  0
LINE
  8
1
  6
CONTINUOUS
 62
1
 10
7.5387456
 20
-1.3193689
 11
6.2260318
 21
-1.3193689
  0
LINE
  8
1
  6
CONTINUOUS
 62
1
 10
5.8812705
 20
-1.3193689
 11
4.7636042
 21
-1.3193689
  0
LINE
  8
1
  6
CONTINUOUS
 62
1
 10
4.1504397
 20
-1.3193689
 11
2.9178946
 21
-1.3193689
  0
LINE
  8
1
  6
CONTINUOUS
 62
1
 10
2.3047263
 20
-1.3193689
 11
1.18706
 21
-1.3193689
  0
LINE
  8
1
  6
CONTINUOUS
 62
1
 10
4.7097702E-001
 20
-1.3193689
 11
-6.9551248E-001
 21
-1.3193689
  0
LINE
  8
1
  6
CONTINUOUS
 62
1
 10
-1.4953406
 20
-1.3193689
 11
-2.6130314
 21
-1.3193689
  0
LINE
  8
1
  6
CONTINUOUS
 62
1
 10
-3.3446795
 20
-1.3193689
 11
-6.128522
 21
-1.3193689
  0
LINE
  8
1
  6
CONTINUOUS
 62
1
 10
-7.0889629
 20
-1.3193689
 11
-1.0101406E+001
 21
-1.3193689
  0
LINE
  8
1
  6
CONTINUOUS
 62
1
 10
-1.0101406E+001
 20
-1.2281275
 11
-7.0297466
 21
-1.2281275
  0
LINE
  8
1
  6
CONTINUOUS
 62
1
 10
-6.1938771
 20
-1.2281275
 11
-3.2792998
 21
-1.2281275
  0
LINE
  8
1
  6
CONTINUOUS
 62
1
 10
-2.6130314
 20
-1.2281275
 11
-1.4953406
 21
-1.2281275
  0
LINE
  8
1
  6
CONTINUOUS
 62
1
 10
-7.3200908E-001
 20
-1.2281275
 11
4.2331692E-001
 21
-1.2281275
  0
LINE
  8
1
  6
CONTINUOUS
 62
1
 10
1.18706
 20
-1.2281275
 11
2.3047263
 21
-1.2281275
  0
LINE
  8
1
  6
CONTINUOUS
 62
1
 10
2.8978071
 20
-1.2281275
 11
4.1705234
 21
-1.2281275
  0
LINE
  8
1
  6
CONTINUOUS
 62
1
 10
4.7636042
 20
-1.2281275
 11
5.8812705
 21
-1.2281275
  0
LINE
  8
1
  6
CONTINUOUS
 62
1
 10
6.2474939
 20
-1.2281275
 11
7.5551584
 21
-1.2281275
  0
LINE
  8
1
  6
CONTINUOUS
 62
1
 10
8.5663071
 20
-1.2281275
 11
9.8739717
 21
-1.2281275
  0
LINE
  8
1
  6
CONTINUOUS
 62
1
 10
9.8525095
 20
-1.136886
 11
6.268956
 21
-1.136886
  0
LINE
  8
1
  6
CONTINUOUS
 62
1
 10
5.8812705
 20
-1.136886
 11
4.7636042
 21
-1.136886
  0
LINE
  8
1
  6
CONTINUOUS
 62
1
 10
4.1905845
 20
-1.136886
 11
2.8777461
 21
-1.136886
  0
LINE
  8
1
  6
CONTINUOUS
 62
1
 10
2.3047263
 20
-1.136886
 11
1.18706
 21
-1.136886
  0
LINE
  8
1
  6
CONTINUOUS
 62
1
 10
3.7567582E-001
 20
-1.136886
 11
-7.6850568E-001
 21
-1.136886
  0
LINE
  8
1
  6
CONTINUOUS
 62
1
 10
-1.4953406
 20
-1.136886
 11
-2.6130314
 21
-1.136886
  0
LINE
  8
1
  6
CONTINUOUS
 62
1
 10
-3.2246022
 20
-1.136886
 11
-6.2485993
 21
-1.136886
  0
LINE
  8
1
  6
CONTINUOUS
 62
1
 10
-6.9811405
 20
-1.136886
 11
-1.0101406E+001
 21
-1.136886
  0
LINE
  8
1
  6
CONTINUOUS
 62
1
 10
-1.0101406E+001
 20
-1.0456446
 11
-8.8719781
 21
-1.0456446
  0
LINE
  8
1
  6
CONTINUOUS
 62
1
 10
-8.2596803
 20
-1.0456446
 11
-6.9418153
 21
-1.0456446
  0
LINE
  8
1
  6
CONTINUOUS
 62
1
 10
-6.2940859
 20
-1.0456446
 11
-4.8456316
 21
-1.0456446
  0
LINE
  8
1
  6
CONTINUOUS
 62
1
 10
-4.6275698
 20
-1.0456446
 11
-3.1791155
 21
-1.0456446
  0
LINE
  8
1
  6
CONTINUOUS
 62
1
 10
-2.6130314
 20
-1.0456446
 11
-1.4953406
 21
-1.0456446
  0
LINE
  8
1
  6
CONTINUOUS
 62
1
 10
-8.0500228E-001
 20
-1.0456446
 11
3.2803832E-001
 21
-1.0456446
  0
LINE
  8
1
  6
CONTINUOUS
 62
1
 10
1.18706
 20
-1.0456446
 11
2.3047263
 21
-1.0456446
  0
LINE
  8
1
  6
CONTINUOUS
 62
1
 10
2.8576624
 20
-1.0456446
 11
4.2106682
 21
-1.0456446
  0
LINE
  8
1
  6
CONTINUOUS
 62
1
 10
4.7636042
 20
-1.0456446
 11
5.8812705
 21
-1.0456446
  0
LINE
  8
1
  6
CONTINUOUS
 62
1
 10
6.2904182
 20
-1.0456446
 11
9.8310474
 21
-1.0456446
  0
LINE
  8
1
  6
CONTINUOUS
 62
1
 10
9.8095852
 20
-9.5440314E-001
 11
6.3118803
 21
-9.5440314E-001
  0
LINE
  8
1
  6
CONTINUOUS
 62
1
 10
5.8812705
 20
-9.5440314E-001
 11
4.7636042
 21
-9.5440314E-001
  0
LINE
  8
1
  6
CONTINUOUS
 62
1
 10
4.2307292
 20
-9.5440314E-001
 11
2.8376013
 21
-9.5440314E-001
  0
LINE
  8
1
  6
CONTINUOUS
 62
1
 10
2.3047263
 20
-9.5440314E-001
 11
1.18706
 21
-9.5440314E-001
  0
LINE
  8
1
  6
CONTINUOUS
 62
1
 10
2.8037452E-001
 20
-9.5440314E-001
 11
-8.4149888E-001
 21
-9.5440314E-001
  0
LINE
  8
1
  6
CONTINUOUS
 62
1
 10
-1.4953406
 20
-9.5440314E-001
 11
-2.6130314
 21
-9.5440314E-001
  0
LINE
  8
1
  6
CONTINUOUS
 62
1
 10
-3.1418447
 20
-9.5440314E-001
 11
-4.4430816
 21
-9.5440314E-001
  0
LINE
  8
1
  6
CONTINUOUS
 62
1
 10
-5.0301199
 20
-9.5440314E-001
 11
-6.3313567
 21
-9.5440314E-001
  0
LINE
  8
1
  6
CONTINUOUS
 62
1
 10
-6.9108551
 20
-9.5440314E-001
 11
-8.1283659
 21
-9.5440314E-001
  0
LINE
  8
1
  6
CONTINUOUS
 62
1
 10
-8.8719781
 20
-9.5440314E-001
 11
-1.0101406E+001
 21
-9.5440314E-001
  0
LINE
  8
1
  6
CONTINUOUS
 62
1
 10
-1.0101406E+001
 20
-8.6316164E-001
 11
-8.8719781
 21
-8.6316164E-001
  0
LINE
  8
1
  6
CONTINUOUS
 62
1
 10
-8.0923036
 20
-8.6316164E-001
 11
-6.8875784
 21
-8.6316164E-001
  0
LINE
  8
1
  6
CONTINUOUS
 62
1
 10
-6.3610857
 20
-8.6316164E-001
 11
-5.1042007
 21
-8.6316164E-001
  0
LINE
  8
1
  6
CONTINUOUS
 62
1
 10
-4.3689762
 20
-8.6316164E-001
 11
-3.1120912
 21
-8.6316164E-001
  0
LINE
  8
1
  6
CONTINUOUS
 62
1
 10
-2.6130314
 20
-8.6316164E-001
 11
-1.4953406
 21
-8.6316164E-001
  0
LINE
  8
1
  6
CONTINUOUS
 62
1
 10
-8.7799538E-001
 20
-8.6316164E-001
 11
2.3273712E-001
 21
-8.6316164E-001
  0
LINE
  8
1
  6
CONTINUOUS
 62
1
 10
1.18706
 20
-8.6316164E-001
 11
2.3047263
 21
-8.6316164E-001
  0
LINE
  8
1
  6
CONTINUOUS
 62
1
 10
2.8175139
 20
-8.6316164E-001
 11
4.2508167
 21
-8.6316164E-001
  0
LINE
  8
1
  6
CONTINUOUS
 62
1
 10
4.7636042
 20
-8.6316164E-001
 11
5.8812705
 21
-8.6316164E-001
  0
LINE
  8
1
  6
CONTINUOUS
 62
1
 10
6.3333462
 20
-8.6316164E-001
 11
9.7880967
 21
-8.6316164E-001
  0
LINE
  8
1
  6
CONTINUOUS
 62
1
 10
9.7666345
 20
-7.7192024E-001
 11
6.354831
 21
-7.7192024E-001
  0
LINE
  8
1
  6
CONTINUOUS
 62
1
 10
5.8812705
 20
-7.7192024E-001
 11
4.7636042
 21
-7.7192024E-001
  0
LINE
  8
1
  6
CONTINUOUS
 62
1
 10
4.2708777
 20
-7.7192024E-001
 11
2.7974528
 21
-7.7192024E-001
  0
LINE
  8
1
  6
CONTINUOUS
 62
1
 10
2.3047263
 20
-7.7192024E-001
 11
1.18706
 21
-7.7192024E-001
  0
LINE
  8
1
  6
CONTINUOUS
 62
1
 10
1.8509592E-001
 20
-7.7192024E-001
 11
-9.1446558E-001
 21
-7.7192024E-001
  0
LINE
  8
1
  6
CONTINUOUS
 62
1
 10
-1.4953406
 20
-7.7192024E-001
 11
-2.6130314
 21
-7.7192024E-001
  0
LINE
  8
1
  6
CONTINUOUS
 62
1
 10
-3.0893488
 20
-7.7192024E-001
 11
-4.3308123
 21
-7.7192024E-001
  0
LINE
  8
1
  6
CONTINUOUS
 62
1
 10
-5.1423892
 20
-7.7192024E-001
 11
-6.38383
 21
-7.7192024E-001
  0
LINE
  8
1
  6
CONTINUOUS
 62
1
 10
-6.8715545
 20
-7.7192024E-001
 11
-8.0895977
 21
-7.7192024E-001
  0
LINE
  8
1
  6
CONTINUOUS
 62
1
 10
-8.8719781
 20
-7.7192024E-001
 11
-1.0101406E+001
 21
-7.7192024E-001
  0
LINE
  8
1
  6
CONTINUOUS
 62
1
 10
-1.0101406E+001
 20
-6.8067874E-001
 11
-8.8719781
 21
-6.8067874E-001
  0
LINE
  8
1
  6
CONTINUOUS
 62
1
 10
-8.0895977
 20
-6.8067874E-001
 11
-6.8624908
 21
-6.8067874E-001
  0
LINE
  8
1
  6
CONTINUOUS
 62
1
 10
-6.3999502
 20
-6.8067874E-001
 11
-5.1556354
 21
-6.8067874E-001
  0
LINE
  8
1
  6
CONTINUOUS
 62
1
 10
-4.317566
 20
-6.8067874E-001
 11
-3.0732512
 21
-6.8067874E-001
  0
LINE
  8
1
  6
CONTINUOUS
 62
1
 10
-2.6130314
 20
-6.8067874E-001
 11
-1.4953406
 21
-6.8067874E-001
  0
LINE
  8
1
  6
CONTINUOUS
 62
1
 10
-9.5096218E-001
 20
-6.8067874E-001
 11
1.3743592E-001
 21
-6.8067874E-001
  0
LINE
  8
1
  6
CONTINUOUS
 62
1
 10
1.18706
 20
-6.8067874E-001
 11
2.3047263
 21
-6.8067874E-001
  0
LINE
  8
1
  6
CONTINUOUS
 62
1
 10
2.7773691
 20
-6.8067874E-001
 11
4.2909614
 21
-6.8067874E-001
  0
LINE
  8
1
  6
CONTINUOUS
 62
1
 10
4.7636042
 20
-6.8067874E-001
 11
5.8812705
 21
-6.8067874E-001
  0
LINE
  8
1
  6
CONTINUOUS
 62
1
 10
6.3762932
 20
-6.8067874E-001
 11
9.7451724
 21
-6.8067874E-001
  0
LINE
  8
1
  6
CONTINUOUS
 62
1
 10
9.7237065
 20
-5.8945244E-001
 11
6.3977591
 21
-5.8945244E-001
  0
LINE
  8
1
  6
CONTINUOUS
 62
1
 10
5.8812705
 20
-5.8945244E-001
 11
4.7636042
 21
-5.8945244E-001
  0
LINE
  8
1
  6
CONTINUOUS
 62
1
 10
4.3110224
 20
-5.8945244E-001
 11
2.7573081
 21
-5.8945244E-001
  0
LINE
  8
1
  6
CONTINUOUS
 62
1
 10
2.3047263
 20
-5.8945244E-001
 11
1.18706
 21
-5.8945244E-001
  0
LINE
  8
1
  6
CONTINUOUS
 62
1
 10
8.9794719E-002
 20
-5.8945244E-001
 11
-9.8745868E-001
 21
-5.8945244E-001
  0
LINE
  8
1
  6
CONTINUOUS
 62
1
 10
-1.4953406
 20
-5.8945244E-001
 11
-2.6130314
 21
-5.8945244E-001
  0
LINE
  8
1
  6
CONTINUOUS
 62
1
 10
-3.0635342
 20
-5.8945244E-001
 11
-4.3174697
 21
-5.8945244E-001
  0
LINE
  8
1
  6
CONTINUOUS
 62
1
 10
-5.1557317
 20
-5.8945244E-001
 11
-6.4096427
 21
-5.8945244E-001
  0
LINE
  8
1
  6
CONTINUOUS
 62
1
 10
-6.8601701
 20
-5.8945244E-001
 11
-8.0895977
 21
-5.8945244E-001
  0
LINE
  8
1
  6
CONTINUOUS
 62
1
 10
-8.8719781
 20
-5.8945244E-001
 11
-1.0101406E+001
 21
-5.8945244E-001
  0
LINE
  8
1
  6
CONTINUOUS
 62
1
 10
-1.0101406E+001
 20
-4.9821094E-001
 11
-8.8719781
 21
-4.9821094E-001
  0
LINE
  8
1
  6
CONTINUOUS
 62
1
 10
-8.0895977
 20
-4.9821094E-001
 11
-6.8601701
 21
-4.9821094E-001
  0
LINE
  8
1
  6
CONTINUOUS
 62
1
 10
-6.4130983
 20
-4.9821094E-001
 11
-5.1557317
 21
-4.9821094E-001
  0
LINE
  8
1
  6
CONTINUOUS
 62
1
 10
-4.3174697
 20
-4.9821094E-001
 11
-3.0601032
 21
-4.9821094E-001
  0
LINE
  8
1
  6
CONTINUOUS
 62
1
 10
-2.6130314
 20
-4.9821094E-001
 11
-1.4953406
 21
-4.9821094E-001
  0
LINE
  8
1
  6
CONTINUOUS
 62
1
 10
-1.0239553
 20
-4.9821094E-001
 11
4.2153519E-002
 21
-4.9821094E-001
  0
LINE
  8
1
  6
CONTINUOUS
 62
1
 10
1.18706
 20
-4.9821094E-001
 11
2.3047263
 21
-4.9821094E-001
  0
LINE
  8
1
  6
CONTINUOUS
 62
1
 10
2.7372244
 20
-4.9821094E-001
 11
4.3311099
 21
-4.9821094E-001
  0
LINE
  8
1
  6
CONTINUOUS
 62
1
 10
4.7636042
 20
-4.9821094E-001
 11
5.8812705
 21
-4.9821094E-001
  0
LINE
  8
1
  6
CONTINUOUS
 62
1
 10
6.4192212
 20
-4.9821094E-001
 11
9.7022444
 21
-4.9821094E-001
  0
LINE
  8
1
  6
CONTINUOUS
 62
1
 10
9.6807596
 20
-4.0696954E-001
 11
8.4184854
 21
-4.0696954E-001
  0
LINE
  8
1
  6
CONTINUOUS
 62
1
 10
7.7029575
 20
-4.0696954E-001
 11
6.440706
 21
-4.0696954E-001
  0
LINE
  8
1
  6
CONTINUOUS
 62
1
 10
5.8812705
 20
-4.0696954E-001
 11
4.7636042
 21
-4.0696954E-001
  0
LINE
  8
1
  6
CONTINUOUS
 62
1
 10
4.3511709
 20
-4.0696954E-001
 11
2.7171634
 21
-4.0696954E-001
  0
LINE
  8
1
  6
CONTINUOUS
 62
1
 10
2.3047263
 20
-4.0696954E-001
 11
1.18706
 21
-4.0696954E-001
  0
LINE
  8
1
  6
CONTINUOUS
 62
1
 10
-5.506581E-003
 20
-4.0696954E-001
 11
-1.0604519
 21
-4.0696954E-001
  0
LINE
  8
1
  6
CONTINUOUS
 62
1
 10
-1.4953406
 20
-4.0696954E-001
 11
-2.6130314
 21
-4.0696954E-001
  0
LINE
  8
1
  6
CONTINUOUS
 62
1
 10
-3.0601032
 20
-4.0696954E-001
 11
-4.3174697
 21
-4.0696954E-001
  0
LINE
  8
1
  6
CONTINUOUS
 62
1
 10
-5.1557317
 20
-4.0696954E-001
 11
-6.4130983
 21
-4.0696954E-001
  0
LINE
  8
1
  6
CONTINUOUS
 62
1
 10
-6.8601701
 20
-4.0696954E-001
 11
-8.0895977
 21
-4.0696954E-001
  0
LINE
  8
1
  6
CONTINUOUS
 62
1
 10
-8.8719781
 20
-4.0696954E-001
 11
-1.0101406E+001
 21
-4.0696954E-001
  0
LINE
  8
1
  6
CONTINUOUS
 62
1
 10
-1.0101406E+001
 20
-3.1572804E-001
 11
-8.8719781
 21
-3.1572804E-001
  0
LINE
  8
1
  6
CONTINUOUS
 62
1
 10
-8.0895977
 20
-3.1572804E-001
 11
-6.8601701
 21
-3.1572804E-001
  0
LINE
  8
1
  6
CONTINUOUS
 62
1
 10
-6.4130983
 20
-3.1572804E-001
 11
-5.1557317
 21
-3.1572804E-001
  0
LINE
  8
1
  6
CONTINUOUS
 62
1
 10
-4.3174697
 20
-3.1572804E-001
 11
-3.0601032
 21
-3.1572804E-001
  0
LINE
  8
1
  6
CONTINUOUS
 62
1
 10
-2.6130314
 20
-3.1572804E-001
 11
-1.4953406
 21
-3.1572804E-001
  0
LINE
  8
1
  6
CONTINUOUS
 62
1
 10
-1.0969485
 20
-3.1572804E-001
 11
-5.3143981E-002
 21
-3.1572804E-001
  0
LINE
  8
1
  6
CONTINUOUS
 62
1
 10
1.18706
 20
-3.1572804E-001
 11
2.3047263
 21
-3.1572804E-001
  0
LINE
  8
1
  6
CONTINUOUS
 62
1
 10
2.6970759
 20
-3.1572804E-001
 11
4.3712546
 21
-3.1572804E-001
  0
LINE
  8
1
  6
CONTINUOUS
 62
1
 10
4.7636042
 20
-3.1572804E-001
 11
5.8812705
 21
-3.1572804E-001
  0
LINE
  8
1
  6
CONTINUOUS
 62
1
 10
6.4621719
 20
-3.1572804E-001
 11
7.7193931
 21
-3.1572804E-001
  0
LINE
  8
1
  6
CONTINUOUS
 62
1
 10
8.4020725
 20
-3.1572804E-001
 11
9.6592937
 21
-3.1572804E-001
  0
LINE
  8
1
  6
CONTINUOUS
 62
1
 10
9.6378315
 20
-2.2450174E-001
 11
8.3856596
 21
-2.2450174E-001
  0
LINE
  8
1
  6
CONTINUOUS
 62
1
 10
7.7358059
 20
-2.2450174E-001
 11
6.4836341
 21
-2.2450174E-001
  0
LINE
  8
1
  6
CONTINUOUS
 62
1
 10
5.8812705
 20
-2.2450174E-001
 11
4.7636042
 21
-2.2450174E-001
  0
LINE
  8
1
  6
CONTINUOUS
 62
1
 10
4.3913157
 20
-2.2450174E-001
 11
3.6111823
 21
-2.2450174E-001
  0
LINE
  8
1
  6
CONTINUOUS
 62
1
 10
3.4571482
 20
-2.2450174E-001
 11
2.6770149
 21
-2.2450174E-001
  0
LINE
  8
1
  6
CONTINUOUS
 62
1
 10
2.3047263
 20
-2.2450174E-001
 11
1.18706
 21
-2.2450174E-001
  0
LINE
  8
1
  6
CONTINUOUS
 62
1
 10
5.5137319E-002
 20
-2.2450174E-001
 11
-2.6130314
 21
-2.2450174E-001
  0
LINE
  8
1
  6
CONTINUOUS
 62
1
 10
-3.0601032
 20
-2.2450174E-001
 11
-4.3174697
 21
-2.2450174E-001
  0
LINE
  8
1
  6
CONTINUOUS
 62
1
 10
-5.1557317
 20
-2.2450174E-001
 11
-6.4130983
 21
-2.2450174E-001
  0
LINE
  8
1
  6
CONTINUOUS
 62
1
 10
-6.8601701
 20
-2.2450174E-001
 11
-8.0895977
 21
-2.2450174E-001
  0
LINE
  8
1
  6
CONTINUOUS
 62
1
 10
-8.8719781
 20
-2.2450174E-001
 11
-1.0101406E+001
 21
-2.2450174E-001
  0
LINE
  8
1
  6
CONTINUOUS
 62
1
 10
-1.0101406E+001
 20
-1.3326024E-001
 11
-8.8719781
 21
-1.3326024E-001
  0
LINE
  8
1
  6
CONTINUOUS
 62
1
 10
-8.0895977
 20
-1.3326024E-001
 11
-6.8601701
 21
-1.3326024E-001
  0
LINE
  8
1
  6
CONTINUOUS
 62
1
 10
-6.4130983
 20
-1.3326024E-001
 11
-5.1557317
 21
-1.3326024E-001
  0
LINE
  8
1
  6
CONTINUOUS
 62
1
 10
-4.3174697
 20
-1.3326024E-001
 11
-3.0601032
 21
-1.3326024E-001
  0
LINE
  8
1
  6
CONTINUOUS
 62
1
 10
-2.6130314
 20
-1.3326024E-001
 11
2.2676642E-001
 21
-1.3326024E-001
  0
LINE
  8
1
  6
CONTINUOUS
 62
1
 10
1.18706
 20
-1.3326024E-001
 11
2.3047263
 21
-1.3326024E-001
  0
LINE
  8
1
  6
CONTINUOUS
 62
1
 10
2.6569312
 20
-1.3326024E-001
 11
3.4370645
 21
-1.3326024E-001
  0
LINE
  8
1
  6
CONTINUOUS
 62
1
 10
3.6312434
 20
-1.3326024E-001
 11
4.4113994
 21
-1.3326024E-001
  0
LINE
  8
1
  6
CONTINUOUS
 62
1
 10
4.7636042
 20
-1.3326024E-001
 11
5.8812705
 21
-1.3326024E-001
  0
LINE
  8
1
  6
CONTINUOUS
 62
1
 10
6.5050962
 20
-1.3326024E-001
 11
7.7522415
 21
-1.3326024E-001
  0
LINE
  8
1
  6
CONTINUOUS
 62
1
 10
8.3692241
 20
-1.3326024E-001
 11
9.6163694
 21
-1.3326024E-001
  0
LINE
  8
1
  6
CONTINUOUS
 62
1
 10
9.5949072
 20
-4.2018841E-002
 11
8.3527885
 21
-4.2018841E-002
  0
LINE
  8
1
  6
CONTINUOUS
 62
1
 10
7.7686506
 20
-4.2018841E-002
 11
6.5265583
 21
-4.2018841E-002
  0
LINE
  8
1
  6
CONTINUOUS
 62
1
 10
5.8812705
 20
-4.2018841E-002
 11
4.7636042
 21
-4.2018841E-002
  0
LINE
  8
1
  6
CONTINUOUS
 62
1
 10
4.4314604
 20
-4.2018841E-002
 11
3.6513309
 21
-4.2018841E-002
  0
LINE
  8
1
  6
CONTINUOUS
 62
1
 10
3.4170035
 20
-4.2018841E-002
 11
2.6368701
 21
-4.2018841E-002
  0
LINE
  8
1
  6
CONTINUOUS
 62
1
 10
2.3047263
 20
-4.2018841E-002
 11
1.18706
 21
-4.2018841E-002
  0
LINE
  8
1
  6
CONTINUOUS
 62
1
 10
3.4679272E-001
 20
-4.2018841E-002
 11
-2.6130314
 21
-4.2018841E-002
  0
LINE
  8
1
  6
CONTINUOUS
 62
1
 10
-3.0601032
 20
-4.2018841E-002
 11
-4.3174697
 21
-4.2018841E-002
  0
LINE
  8
1
  6
CONTINUOUS
 62
1
 10
-5.1557317
 20
-4.2018841E-002
 11
-6.4130983
 21
-4.2018841E-002
  0
LINE
  8
1
  6
CONTINUOUS
 62
1
 10
-6.8601701
 20
-4.2018841E-002
 11
-8.0895977
 21
-4.2018841E-002
  0
LINE
  8
1
  6
CONTINUOUS
 62
1
 10
-8.8719781
 20
-4.2018841E-002
 11
-1.0101406E+001
 21
-4.2018841E-002
  0
LINE
  8
1
  6
CONTINUOUS
 62
1
 10
-1.0101406E+001
 20
4.9222659E-002
 11
-8.8719781
 21
4.9222659E-002
  0
LINE
  8
1
  6
CONTINUOUS
 62
1
 10
-8.0895977
 20
4.9222659E-002
 11
-6.8601701
 21
4.9222659E-002
  0
LINE
  8
1
  6
CONTINUOUS
 62
1
 10
-6.4130983
 20
4.9222659E-002
 11
-5.1557317
 21
4.9222659E-002
  0
LINE
  8
1
  6
CONTINUOUS
 62
1
 10
-4.3174697
 20
4.9222659E-002
 11
-3.0601032
 21
4.9222659E-002
  0
LINE
  8
1
  6
CONTINUOUS
 62
1
 10
-2.6130314
 20
4.9222659E-002
 11
4.3934082E-001
 21
4.9222659E-002
  0
LINE
  8
1
  6
CONTINUOUS
 62
1
 10
1.18706
 20
4.9222659E-002
 11
2.3047263
 21
4.9222659E-002
  0
LINE
  8
1
  6
CONTINUOUS
 62
1
 10
2.6168091
 20
4.9222659E-002
 11
3.396916
 21
4.9222659E-002
  0
LINE
  8
1
  6
CONTINUOUS
 62
1
 10
3.6714145
 20
4.9222659E-002
 11
4.4515214
 21
4.9222659E-002
  0
LINE
  8
1
  6
CONTINUOUS
 62
1
 10
4.7636042
 20
4.9222659E-002
 11
5.8812705
 21
4.9222659E-002
  0
LINE
  8
1
  6
CONTINUOUS
 62
1
 10
6.5480469
 20
4.9222659E-002
 11
7.7850862
 21
4.9222659E-002
  0
LINE
  8
1
  6
CONTINUOUS
 62
1
 10
8.3363794
 20
4.9222659E-002
 11
9.5734187
 21
4.9222659E-002
  0
LINE
  8
1
  6
CONTINUOUS
 62
1
 10
9.5519565
 20
1.4044896E-001
 11
8.3199665
 21
1.4044896E-001
  0
LINE
  8
1
  6
CONTINUOUS
 62
1
 10
7.801499
 20
1.4044896E-001
 11
6.569509
 21
1.4044896E-001
  0
LINE
  8
1
  6
CONTINUOUS
 62
1
 10
5.8812705
 20
1.4044896E-001
 11
4.7636042
 21
1.4044896E-001
  0
LINE
  8
1
  6
CONTINUOUS
 62
1
 10
4.4716089
 20
1.4044896E-001
 11
3.6914756
 21
1.4044896E-001
  0
LINE
  8
1
  6
CONTINUOUS
 62
1
 10
3.376855
 20
1.4044896E-001
 11
2.5967216
 21
1.4044896E-001
  0
LINE
  8
1
  6
CONTINUOUS
 62
1
 10
2.3047263
 20
1.4044896E-001
 11
1.18706
 21
1.4044896E-001
  0
LINE
  8
1
  6
CONTINUOUS
 62
1
 10
5.1334992E-001
 20
1.4044896E-001
 11
-2.6130314
 21
1.4044896E-001
  0
LINE
  8
1
  6
CONTINUOUS
 62
1
 10
-3.0601032
 20
1.4044896E-001
 11
-4.3174697
 21
1.4044896E-001
  0
LINE
  8
1
  6
CONTINUOUS
 62
1
 10
-5.1557317
 20
1.4044896E-001
 11
-6.4130983
 21
1.4044896E-001
  0
LINE
  8
1
  6
CONTINUOUS
 62
1
 10
-6.8601701
 20
1.4044896E-001
 11
-8.0895977
 21
1.4044896E-001
  0
LINE
  8
1
  6
CONTINUOUS
 62
1
 10
-8.8719781
 20
1.4044896E-001
 11
-1.0101406E+001
 21
1.4044896E-001
  0
LINE
  8
1
  6
CONTINUOUS
 62
1
 10
-1.0101406E+001
 20
2.3169046E-001
 11
-8.8719781
 21
2.3169046E-001
  0
LINE
  8
1
  6
CONTINUOUS
 62
1
 10
-8.0895977
 20
2.3169046E-001
 11
-6.8601701
 21
2.3169046E-001
  0
LINE
  8
1
  6
CONTINUOUS
 62
1
 10
-6.4130983
 20
2.3169046E-001
 11
-5.1557317
 21
2.3169046E-001
  0
LINE
  8
1
  6
CONTINUOUS
 62
1
 10
-4.3174697
 20
2.3169046E-001
 11
-3.0601032
 21
2.3169046E-001
  0
LINE
  8
1
  6
CONTINUOUS
 62
1
 10
-2.6130314
 20
2.3169046E-001
 11
5.7338572E-001
 21
2.3169046E-001
  0
LINE
  8
1
  6
CONTINUOUS
 62
1
 10
1.18706
 20
2.3169046E-001
 11
2.3047263
 21
2.3169046E-001
  0
LINE
  8
1
  6
CONTINUOUS
 62
1
 10
2.5766606
 20
2.3169046E-001
 11
3.3567939
 21
2.3169046E-001
  0
LINE
  8
1
  6
CONTINUOUS
 62
1
 10
3.7115366
 20
2.3169046E-001
 11
4.4916699
 21
2.3169046E-001
  0
LINE
  8
1
  6
CONTINUOUS
 62
1
 10
4.7636042
 20
2.3169046E-001
 11
5.8812705
 21
2.3169046E-001
  0
LINE
  8
1
  6
CONTINUOUS
 62
1
 10
6.5909712
 20
2.3169046E-001
 11
7.8179346
 21
2.3169046E-001
  0
LINE
  8
1
  6
CONTINUOUS
 62
1
 10
8.303531
 20
2.3169046E-001
 11
9.5304944
 21
2.3169046E-001
  0
LINE
  8
1
  6
CONTINUOUS
 62
1
 10
9.5090323
 20
3.2293196E-001
 11
8.2871219
 21
3.2293196E-001
  0
LINE
  8
1
  6
CONTINUOUS
 62
1
 10
7.8343437
 20
3.2293196E-001
 11
6.6124333
 21
3.2293196E-001
  0
LINE
  8
1
  6
CONTINUOUS
 62
1
 10
5.8812705
 20
3.2293196E-001
 11
4.7636042
 21
3.2293196E-001
  0
LINE
  8
1
  6
CONTINUOUS
 62
1
 10
4.5117536
 20
3.2293196E-001
 11
3.7316203
 21
3.2293196E-001
  0
LINE
  8
1
  6
CONTINUOUS
 62
1
 10
3.3367102
 20
3.2293196E-001
 11
2.5565769
 21
3.2293196E-001
  0
LINE
  8
1
  6
CONTINUOUS
 62
1
 10
2.3047263
 20
3.2293196E-001
 11
1.18706
 21
3.2293196E-001
  0
LINE
  8
1
  6
CONTINUOUS
 62
1
 10
6.2208812E-001
 20
3.2293196E-001
 11
-2.6130314
 21
3.2293196E-001
  0
LINE
  8
1
  6
CONTINUOUS
 62
1
 10
-3.0601032
 20
3.2293196E-001
 11
-4.3174697
 21
3.2293196E-001
  0
LINE
  8
1
  6
CONTINUOUS
 62
1
 10
-5.1557317
 20
3.2293196E-001
 11
-6.4130983
 21
3.2293196E-001
  0
LINE
  8
1
  6
CONTINUOUS
 62
1
 10
-6.8601701
 20
3.2293196E-001
 11
-8.0895977
 21
3.2293196E-001
  0
LINE
  8
1
  6
CONTINUOUS
 62
1
 10
-8.8719781
 20
3.2293196E-001
 11
-1.0101406E+001
 21
3.2293196E-001
  0
LINE
  8
1
  6
CONTINUOUS
 62
1
 10
-1.0101406E+001
 20
4.1417336E-001
 11
-8.8719781
 21
4.1417336E-001
  0
LINE
  8
1
  6
CONTINUOUS
 62
1
 10
-8.0895977
 20
4.1417336E-001
 11
-6.8601701
 21
4.1417336E-001
  0
LINE
  8
1
  6
CONTINUOUS
 62
1
 10
-6.4130983
 20
4.1417336E-001
 11
-5.1557317
 21
4.1417336E-001
  0
LINE
  8
1
  6
CONTINUOUS
 62
1
 10
-4.3174697
 20
4.1417336E-001
 11
-3.0601032
 21
4.1417336E-001
  0
LINE
  8
1
  6
CONTINUOUS
 62
1
 10
-2.6130314
 20
4.1417336E-001
 11
6.6109992E-001
 21
4.1417336E-001
  0
LINE
  8
1
  6
CONTINUOUS
 62
1
 10
1.18706
 20
4.1417336E-001
 11
2.3047263
 21
4.1417336E-001
  0
LINE
  8
1
  6
CONTINUOUS
 62
1
 10
2.5365159
 20
4.1417336E-001
 11
3.3166492
 21
4.1417336E-001
  0
LINE
  8
1
  6
CONTINUOUS
 62
1
 10
3.7516813
 20
4.1417336E-001
 11
4.5318147
 21
4.1417336E-001
  0
LINE
  8
1
  6
CONTINUOUS
 62
1
 10
4.7636042
 20
4.1417336E-001
 11
5.8812705
 21
4.1417336E-001
  0
LINE
  8
1
  6
CONTINUOUS
 62
1
 10
6.6338992
 20
4.1417336E-001
 11
7.8507792
 21
4.1417336E-001
  0
LINE
  8
1
  6
CONTINUOUS
 62
1
 10
8.2706863
 20
4.1417336E-001
 11
9.4875437
 21
4.1417336E-001
  0
LINE
  8
1
  6
CONTINUOUS
 62
1
 10
9.4660816
 20
5.0539976E-001
 11
8.2542734
 21
5.0539976E-001
  0
LINE
  8
1
  6
CONTINUOUS
 62
1
 10
7.8671921
 20
5.0539976E-001
 11
6.6553613
 21
5.0539976E-001
  0
LINE
  8
1
  6
CONTINUOUS
 62
1
 10
5.8812705
 20
5.0539976E-001
 11
4.7636042
 21
5.0539976E-001
  0
LINE
  8
1
  6
CONTINUOUS
 62
1
 10
4.5519021
 20
5.0539976E-001
 11
3.7717688
 21
5.0539976E-001
  0
LINE
  8
1
  6
CONTINUOUS
 62
1
 10
3.2965617
 20
5.0539976E-001
 11
2.5164322
 21
5.0539976E-001
  0
LINE
  8
1
  6
CONTINUOUS
 62
1
 10
2.3047263
 20
5.0539976E-001
 11
1.18706
 21
5.0539976E-001
  0
LINE
  8
1
  6
CONTINUOUS
 62
1
 10
6.9155402E-001
 20
5.0539976E-001
 11
-7.5237978E-001
 21
5.0539976E-001
  0
LINE
  8
1
  6
CONTINUOUS
 62
1
 10
-1.4953406
 20
5.0539976E-001
 11
-2.6130314
 21
5.0539976E-001
  0
LINE
  8
1
  6
CONTINUOUS
 62
1
 10
-3.0601032
 20
5.0539976E-001
 11
-4.3174697
 21
5.0539976E-001
  0
LINE
  8
1
  6
CONTINUOUS
 62
1
 10
-5.1557317
 20
5.0539976E-001
 11
-6.4130983
 21
5.0539976E-001
  0
LINE
  8
1
  6
CONTINUOUS
 62
1
 10
-6.8601701
 20
5.0539976E-001
 11
-8.0895977
 21
5.0539976E-001
  0
LINE
  8
1
  6
CONTINUOUS
 62
1
 10
-8.8719781
 20
5.0539976E-001
 11
-1.0101406E+001
 21
5.0539976E-001
  0
LINE
  8
1
  6
CONTINUOUS
 62
1
 10
-1.0101406E+001
 20
5.9664116E-001
 11
-8.8719781
 21
5.9664116E-001
  0
LINE
  8
1
  6
CONTINUOUS
 62
1
 10
-8.0895977
 20
5.9664116E-001
 11
-6.8601701
 21
5.9664116E-001
  0
LINE
  8
1
  6
CONTINUOUS
 62
1
 10
-6.4130983
 20
5.9664116E-001
 11
-5.1557317
 21
5.9664116E-001
  0
LINE
  8
1
  6
CONTINUOUS
 62
1
 10
-4.3174697
 20
5.9664116E-001
 11
-3.0601032
 21
5.9664116E-001
  0
LINE
  8
1
  6
CONTINUOUS
 62
1
 10
-2.6130314
 20
5.9664116E-001
 11
-1.4953406
 21
5.9664116E-001
  0
LINE
  8
1
  6
CONTINUOUS
 62
1
 10
-6.6594968E-001
 20
5.9664116E-001
 11
7.1422462E-001
 21
5.9664116E-001
  0
LINE
  8
1
  6
CONTINUOUS
 62
1
 10
1.18706
 20
5.9664116E-001
 11
2.3047263
 21
5.9664116E-001
  0
LINE
  8
1
  6
CONTINUOUS
 62
1
 10
2.4963711
 20
5.9664116E-001
 11
3.2765007
 21
5.9664116E-001
  0
LINE
  8
1
  6
CONTINUOUS
 62
1
 10
3.7918299
 20
5.9664116E-001
 11
4.5719632
 21
5.9664116E-001
  0
LINE
  8
1
  6
CONTINUOUS
 62
1
 10
4.7636042
 20
5.9664116E-001
 11
5.8812705
 21
5.9664116E-001
  0
LINE
  8
1
  6
CONTINUOUS
 62
1
 10
6.6768461
 20
5.9664116E-001
 11
7.8836277
 21
5.9664116E-001
  0
LINE
  8
1
  6
CONTINUOUS
 62
1
 10
8.2378379
 20
5.9664116E-001
 11
9.4446194
 21
5.9664116E-001
  0
LINE
  8
1
  6
CONTINUOUS
 62
1
 10
9.4231535
 20
6.8788266E-001
 11
8.221425
 21
6.8788266E-001
  0
LINE
  8
1
  6
CONTINUOUS
 62
1
 10
7.9000406
 20
6.8788266E-001
 11
6.6983121
 21
6.8788266E-001
  0
LINE
  8
1
  6
CONTINUOUS
 62
1
 10
5.8812705
 20
6.8788266E-001
 11
4.7636042
 21
6.8788266E-001
  0
LINE
  8
1
  6
CONTINUOUS
 62
1
 10
4.5920469
 20
6.8788266E-001
 11
3.8119135
 21
6.8788266E-001
  0
LINE
  8
1
  6
CONTINUOUS
 62
1
 10
3.256417
 20
6.8788266E-001
 11
2.4762837
 21
6.8788266E-001
  0
LINE
  8
1
  6
CONTINUOUS
 62
1
 10
2.3047263
 20
6.8788266E-001
 11
1.18706
 21
6.8788266E-001
  0
LINE
  8
1
  6
CONTINUOUS
 62
1
 10
7.2962162E-001
 20
6.8788266E-001
 11
-6.2097098E-001
 21
6.8788266E-001
  0
LINE
  8
1
  6
CONTINUOUS
 62
1
 10
-1.4953406
 20
6.8788266E-001
 11
-2.6130314
 21
6.8788266E-001
  0
LINE
  8
1
  6
CONTINUOUS
 62
1
 10
-3.0616006
 20
6.8788266E-001
 11
-4.3174697
 21
6.8788266E-001
  0
LINE
  8
1
  6
CONTINUOUS
 62
1
 10
-5.1557317
 20
6.8788266E-001
 11
-6.4116009
 21
6.8788266E-001
  0
LINE
  8
1
  6
CONTINUOUS
 62
1
 10
-6.8601701
 20
6.8788266E-001
 11
-8.0895977
 21
6.8788266E-001
  0
LINE
  8
1
  6
CONTINUOUS
 62
1
 10
-8.8719781
 20
6.8788266E-001
 11
-1.0101406E+001
 21
6.8788266E-001
  0
LINE
  8
1
  6
CONTINUOUS
 62
1
 10
-1.0101406E+001
 20
7.7912406E-001
 11
-8.8719781
 21
7.7912406E-001
  0
LINE
  8
1
  6
CONTINUOUS
 62
1
 10
-8.0895977
 20
7.7912406E-001
 11
-6.8609197
 21
7.7912406E-001
  0
LINE
  8
1
  6
CONTINUOUS
 62
1
 10
-6.4041554
 20
7.7912406E-001
 11
-5.1557317
 21
7.7912406E-001
  0
LINE
  8
1
  6
CONTINUOUS
 62
1
 10
-4.3174697
 20
7.7912406E-001
 11
-3.0690461
 21
7.7912406E-001
  0
LINE
  8
1
  6
CONTINUOUS
 62
1
 10
-2.6130314
 20
7.7912406E-001
 11
-1.4953406
 21
7.7912406E-001
  0
LINE
  8
1
  6
CONTINUOUS
 62
1
 10
-6.0238278E-001
 20
7.7912406E-001
 11
7.3808112E-001
 21
7.7912406E-001
  0
LINE
  8
1
  6
CONTINUOUS
 62
1
 10
1.18706
 20
7.7912406E-001
 11
2.3047263
 21
7.7912406E-001
  0
LINE
  8
1
  6
CONTINUOUS
 62
1
 10
2.4562226
 20
7.7912406E-001
 11
3.236356
 21
7.7912406E-001
  0
LINE
  8
1
  6
CONTINUOUS
 62
1
 10
3.8319746
 20
7.7912406E-001
 11
4.6121079
 21
7.7912406E-001
  0
LINE
  8
1
  6
CONTINUOUS
 62
1
 10
4.7636042
 20
7.7912406E-001
 11
5.8812705
 21
7.7912406E-001
  0
LINE
  8
1
  6
CONTINUOUS
 62
1
 10
6.7197742
 20
7.7912406E-001
 11
7.9164497
 21
7.7912406E-001
  0
LINE
  8
1
  6
CONTINUOUS
 62
1
 10
8.2049895
 20
7.7912406E-001
 11
9.4016914
 21
7.7912406E-001
  0
LINE
  8
1
  6
CONTINUOUS
 62
1
 10
9.3802066
 20
8.7036556E-001
 11
8.1885803
 21
8.7036556E-001
  0
LINE
  8
1
  6
CONTINUOUS
 62
1
 10
7.9328852
 20
8.7036556E-001
 11
6.7412363
 21
8.7036556E-001
  0
LINE
  8
1
  6
CONTINUOUS
 62
1
 10
5.8812705
 20
8.7036556E-001
 11
4.7636042
 21
8.7036556E-001
  0
LINE
  8
1
  6
CONTINUOUS
 62
1
 10
4.6321916
 20
8.7036556E-001
 11
3.8520621
 21
8.7036556E-001
  0
LINE
  8
1
  6
CONTINUOUS
 62
1
 10
3.2162723
 20
8.7036556E-001
 11
2.4361389
 21
8.7036556E-001
  0
LINE
  8
1
  6
CONTINUOUS
 62
1
 10
2.3047263
 20
8.7036556E-001
 11
1.18706
 21
8.7036556E-001
  0
LINE
  8
1
  6
CONTINUOUS
 62
1
 10
7.3977302E-001
 20
8.7036556E-001
 11
-6.0122338E-001
 21
8.7036556E-001
  0
LINE
  8
1
  6
CONTINUOUS
 62
1
 10
-1.4953406
 20
8.7036556E-001
 11
-2.6130314
 21
8.7036556E-001
  0
LINE
  8
1
  6
CONTINUOUS
 62
1
 10
-3.0828456
 20
8.7036556E-001
 11
-4.323465
 21
8.7036556E-001
  0
LINE
  8
1
  6
CONTINUOUS
 62
1
 10
-5.1497364
 20
8.7036556E-001
 11
-6.3903559
 21
8.7036556E-001
  0
LINE
  8
1
  6
CONTINUOUS
 62
1
 10
-6.8675173
 20
8.7036556E-001
 11
-8.0895977
 21
8.7036556E-001
  0
LINE
  8
1
  6
CONTINUOUS
 62
1
 10
-8.8719781
 20
8.7036556E-001
 11
-1.0101406E+001
 21
8.7036556E-001
  0
LINE
  8
1
  6
CONTINUOUS
 62
1
 10
-1.0101406E+001
 20
9.6160696E-001
 11
-8.8719781
 21
9.6160696E-001
  0
LINE
  8
1
  6
CONTINUOUS
 62
1
 10
-8.0896222
 20
9.6160696E-001
 11
-6.8810279
 21
9.6160696E-001
  0
LINE
  8
1
  6
CONTINUOUS
 62
1
 10
-6.370004
 20
9.6160696E-001
 11
-5.1211442
 21
9.6160696E-001
  0
LINE
  8
1
  6
CONTINUOUS
 62
1
 10
-4.3520573
 20
9.6160696E-001
 11
-3.1031729
 21
9.6160696E-001
  0
LINE
  8
1
  6
CONTINUOUS
 62
1
 10
-2.6130314
 20
9.6160696E-001
 11
-1.4953406
 21
9.6160696E-001
  0
LINE
  8
1
  6
CONTINUOUS
 62
1
 10
-6.0859518E-001
 20
9.6160696E-001
 11
7.3418742E-001
 21
9.6160696E-001
  0
LINE
  8
1
  6
CONTINUOUS
 62
1
 10
1.18706
 20
9.6160696E-001
 11
3.1962112
 21
9.6160696E-001
  0
LINE
  8
1
  6
CONTINUOUS
 62
1
 10
3.8721231
 20
9.6160696E-001
 11
5.8812705
 21
9.6160696E-001
  0
LINE
  8
1
  6
CONTINUOUS
 62
1
 10
6.7627249
 20
9.6160696E-001
 11
9.3587407
 21
9.6160696E-001
  0
LINE
  8
1
  6
CONTINUOUS
 62
1
 10
9.3372785
 20
1.0528485
 11
6.784187
 21
1.0528485
  0
LINE
  8
1
  6
CONTINUOUS
 62
1
 10
5.8812705
 20
1.0528485
 11
3.8922068
 21
1.0528485
  0
LINE
  8
1
  6
CONTINUOUS
 62
1
 10
3.1761238
 20
1.0528485
 11
1.18706
 21
1.0528485
  0
LINE
  8
1
  6
CONTINUOUS
 62
1
 10
7.2104132E-001
 20
1.0528485
 11
-6.3929098E-001
 21
1.0528485
  0
LINE
  8
1
  6
CONTINUOUS
 62
1
 10
-1.4953406
 20
1.0528485
 11
-2.6130314
 21
1.0528485
  0
LINE
  8
1
  6
CONTINUOUS
 62
1
 10
-3.130364
 20
1.0528485
 11
-4.4109601
 21
1.0528485
  0
LINE
  8
1
  6
CONTINUOUS
 62
1
 10
-5.0622187
 20
1.0528485
 11
-6.3428129
 21
1.0528485
  0
LINE
  8
1
  6
CONTINUOUS
 62
1
 10
-6.9016706
 20
1.0528485
 11
-8.1099476
 21
1.0528485
  0
LINE
  8
1
  6
CONTINUOUS
 62
1
 10
-8.8719781
 20
1.0528485
 11
-1.0101406E+001
 21
1.0528485
  0
LINE
  8
1
  6
CONTINUOUS
 62
1
 10
-1.0101406E+001
 20
1.1440899
 11
-8.8719781
 21
1.1440899
  0
LINE
  8
1
  6
CONTINUOUS
 62
1
 10
-8.1867853
 20
1.1440899
 11
-6.9298285
 21
1.1440899
  0
LINE
  8
1
  6
CONTINUOUS
 62
1
 10
-6.3083216
 20
1.1440899
 11
-4.9436652
 21
1.1440899
  0
LINE
  8
1
  6
CONTINUOUS
 62
1
 10
-4.5295136
 20
1.1440899
 11
-3.1648798
 21
1.1440899
  0
LINE
  8
1
  6
CONTINUOUS
 62
1
 10
-2.6130314
 20
1.1440899
 11
-1.4953406
 21
1.1440899
  0
LINE
  8
1
  6
CONTINUOUS
 62
1
 10
-7.0133598E-001
 20
1.1440899
 11
7.0003612E-001
 21
1.1440899
  0
LINE
  8
1
  6
CONTINUOUS
 62
1
 10
1.18706
 20
1.1440899
 11
3.1560627
 21
1.1440899
  0
LINE
  8
1
  6
CONTINUOUS
 62
1
 10
3.9122678
 20
1.1440899
 11
5.8812705
 21
1.1440899
  0
LINE
  8
1
  6
CONTINUOUS
 62
1
 10
6.8056492
 20
1.1440899
 11
9.3158164
 21
1.1440899
  0
LINE
  8
1
  6
CONTINUOUS
 62
1
 10
9.2943543
 20
1.2353163
 11
6.8271113
 21
1.2353163
  0
LINE
  8
1
  6
CONTINUOUS
 62
1
 10
5.8812705
 20
1.2353163
 11
3.9323289
 21
1.2353163
  0
LINE
  8
1
  6
CONTINUOUS
 62
1
 10
3.135979
 20
1.2353163
 11
1.18706
 21
1.2353163
  0
LINE
  8
1
  6
CONTINUOUS
 62
1
 10
6.7069612E-001
 20
1.2353163
 11
-8.2924018E-001
 21
1.2353163
  0
LINE
  8
1
  6
CONTINUOUS
 62
1
 10
-1.4953406
 20
1.2353163
 11
-2.6130314
 21
1.2353163
  0
LINE
  8
1
  6
CONTINUOUS
 62
1
 10
-3.2073207
 20
1.2353163
 11
-6.2658808
 21
1.2353163
  0
LINE
  8
1
  6
CONTINUOUS
 62
1
 10
-6.9660589
 20
1.2353163
 11
-1.0101406E+001
 21
1.2353163
  0
LINE
  8
1
  6
CONTINUOUS
 62
1
 10
-1.0101406E+001
 20
1.3265577
 11
-7.0112075
 21
1.3265577
  0
LINE
  8
1
  6
CONTINUOUS
 62
1
 10
-6.2145914
 20
1.3265577
 11
-3.2585855
 21
1.3265577
  0
LINE
  8
1
  6
CONTINUOUS
 62
1
 10
-2.6130314
 20
1.3265577
 11
6.3231122E-001
 21
1.3265577
  0
LINE
  8
1
  6
CONTINUOUS
 62
1
 10
1.18706
 20
1.3265577
 11
3.115918
 21
1.3265577
  0
LINE
  8
1
  6
CONTINUOUS
 62
1
 10
3.9524125
 20
1.3265577
 11
5.8812705
 21
1.3265577
  0
LINE
  8
1
  6
CONTINUOUS
 62
1
 10
6.8485734
 20
1.3265577
 11
9.2728657
 21
1.3265577
  0
LINE
  8
1
  6
CONTINUOUS
 62
1
 10
9.2514036
 20
1.4177992
 11
6.870062
 21
1.4177992
  0
LINE
  8
1
  6
CONTINUOUS
 62
1
 10
5.8812705
 20
1.4177992
 11
3.9725
 21
1.4177992
  0
LINE
  8
1
  6
CONTINUOUS
 62
1
 10
3.0958305
 20
1.4177992
 11
1.18706
 21
1.4177992
  0
LINE
  8
1
  6
CONTINUOUS
 62
1
 10
5.8377882E-001
 20
1.4177992
 11
-2.6130314
 21
1.4177992
  0
LINE
  8
1
  6
CONTINUOUS
 62
1
 10
-3.3199525
 20
1.4177992
 11
-6.1532489
 21
1.4177992
  0
LINE
  8
1
  6
CONTINUOUS
 62
1
 10
-7.0664358
 20
1.4177992
 11
-1.0101406E+001
 21
1.4177992
  0
LINE
  8
1
  6
CONTINUOUS
 62
1
 10
-1.0101406E+001
 20
1.5090407
 11
-7.1334828
 21
1.5090407
  0
LINE
  8
1
  6
CONTINUOUS
 62
1
 10
-6.079965
 20
1.5090407
 11
-3.3932119
 21
1.5090407
  0
LINE
  8
1
  6
CONTINUOUS
 62
1
 10
-2.6130314
 20
1.5090407
 11
5.2347482E-001
 21
1.5090407
  0
LINE
  8
1
  6
CONTINUOUS
 62
1
 10
1.18706
 20
1.5090407
 11
3.0757695
 21
1.5090407
  0
LINE
  8
1
  6
CONTINUOUS
 62
1
 10
3.9925611
 20
1.5090407
 11
5.8812705
 21
1.5090407
  0
LINE
  8
1
  6
CONTINUOUS
 62
1
 10
6.8915241
 20
1.5090407
 11
9.2299414
 21
1.5090407
  0
LINE
  8
1
  6
CONTINUOUS
 62
1
 10
9.2084793
 20
1.600267
 11
6.9129863
 21
1.600267
  0
LINE
  8
1
  6
CONTINUOUS
 62
1
 10
5.8812705
 20
1.600267
 11
4.0126221
 21
1.600267
  0
LINE
  8
1
  6
CONTINUOUS
 62
1
 10
3.0556858
 20
1.600267
 11
1.18706
 21
1.600267
  0
LINE
  8
1
  6
CONTINUOUS
 62
1
 10
4.4883892E-001
 20
1.600267
 11
-2.6130314
 21
1.600267
  0
LINE
  8
1
  6
CONTINUOUS
 62
1
 10
-3.4812641
 20
1.600267
 11
-5.9919374
 21
1.600267
  0
LINE
  8
1
  6
CONTINUOUS
 62
1
 10
-7.2150808
 20
1.600267
 11
-1.0101406E+001
 21
1.600267
  0
LINE
  8
1
  6
CONTINUOUS
 62
1
 10
-1.0101406E+001
 20
1.6915085
 11
-7.3157976
 21
1.6915085
  0
LINE
  8
1
  6
CONTINUOUS
 62
1
 10
-5.884334
 20
1.6915085
 11
-3.5888674
 21
1.6915085
  0
LINE
  8
1
  6
CONTINUOUS
 62
1
 10
-2.6130314
 20
1.6915085
 11
3.5549392E-001
 21
1.6915085
  0
LINE
  8
1
  6
CONTINUOUS
 62
1
 10
1.18706
 20
1.6915085
 11
3.0356248
 21
1.6915085
  0
LINE
  8
1
  6
CONTINUOUS
 62
1
 10
4.0327058
 20
1.6915085
 11
5.8812705
 21
1.6915085
  0
LINE
  8
1
  6
CONTINUOUS
 62
1
 10
6.9344522
 20
1.6915085
 11
9.1870134
 21
1.6915085
  0
LINE
  8
1
  6
CONTINUOUS
 62
1
 10
9.1655286
 20
1.7827499
 11
6.9559143
 21
1.7827499
  0
LINE
  8
1
  6
CONTINUOUS
 62
1
 10
5.8812705
 20
1.7827499
 11
4.0527668
 21
1.7827499
  0
LINE
  8
1
  6
CONTINUOUS
 62
1
 10
3.0155637
 20
1.7827499
 11
1.18706
 21
1.7827499
  0
LINE
  8
1
  6
CONTINUOUS
 62
1
 10
2.3491242E-001
 20
1.7827499
 11
-2.6130314
 21
1.7827499
  0
LINE
  8
1
  6
CONTINUOUS
 62
1
 10
-3.7252821
 20
1.7827499
 11
-5.7479194
 21
1.7827499
  0
LINE
  8
1
  6
CONTINUOUS
 62
1
 10
-7.444527
 20
1.7827499
 11
-1.0101406E+001
 21
1.7827499
  0
LINE
  8
1
  6
CONTINUOUS
 62
1
 10
-1.0101406E+001
 20
1.8739763
 11
-7.6239641
 21
1.8739763
  0
LINE
  8
1
  6
CONTINUOUS
 62
1
 10
-5.5590314
 20
1.8739763
 11
-3.91417
 21
1.8739763
  0
LINE
  8
1
  6
CONTINUOUS
 62
1
 10
-2.6130314
 20
1.8739763
 11
6.5432119E-002
 21
1.8739763
  0
LINE
  8
1
  6
CONTINUOUS
 62
1
 10
1.18706
 20
1.8739763
 11
2.99548
 21
1.8739763
  0
LINE
  8
1
  6
CONTINUOUS
 62
1
 10
4.0728543
 20
1.8739763
 11
5.8812705
 21
1.8739763
  0
LINE
  8
1
  6
CONTINUOUS
 62
1
 10
6.9773991
 20
1.8739763
 11
9.1440664
 21
1.8739763
  0
LINE
  8
1
  6
CONTINUOUS
 62
1
 10
9.1226005
 20
1.9652177
 11
6.998865
 21
1.9652177
  0
LINE
  8
1
  6
CONTINUOUS
 62
1
 10
5.8812705
 20
1.9652177
 11
4.0929153
 21
1.9652177
  0
LINE
  8
1
  6
CONTINUOUS
 62
1
 10
2.975419
 20
1.9652177
 11
1.18706
 21
1.9652177
  0
LINE
  8
1
  6
CONTINUOUS
 62
1
 10
-3.4944458E-001
 20
1.9652177
 11
-2.6130314
 21
1.9652177
  0
LINE
  8
1
  6
CONTINUOUS
 62
1
 10
-4.370451
 20
1.9652177
 11
-5.1027259
 21
1.9652177
  0
LINE
  8
1
  6
CONTINUOUS
 62
1
 10
-8.0600141
 20
1.9652177
 11
-1.0101406E+001
 21
1.9652177
  0
ENDBLK
  0
BLOCK
  2
*XH26
  3
*XH
 10
0.0
 20
0.0
 70
65
  0
LINE
  8
1
  6
CONTINUOUS
 62
1
 10
-9.5929448
 20
-3.4617919
 11
-8.1589188
 21
-3.4617919
  0
LINE
  8
1
  6
CONTINUOUS
 62
1
 10
8.1589186
 20
-3.4617919
 11
9.5929465
 21
-3.4617919
  0
LINE
  8
1
  6
CONTINUOUS
 62
1
 10
9.6189783
 20
-3.3705505
 11
8.1850713
 21
-3.3705505
  0
LINE
  8
1
  6
CONTINUOUS
 62
1
 10
-8.1850714
 20
-3.3705505
 11
-9.6189766
 21
-3.3705505
  0
LINE
  8
1
  6
CONTINUOUS
 62
1
 10
-9.6449838
 20
-3.279309
 11
-8.2112467
 21
-3.279309
  0
LINE
  8
1
  6
CONTINUOUS
 62
1
 10
8.2112465
 20
-3.279309
 11
9.6449836
 21
-3.279309
  0
LINE
  8
1
  6
CONTINUOUS
 62
1
 10
9.6710154
 20
-3.1880827
 11
8.2373991
 21
-3.1880827
  0
LINE
  8
1
  6
CONTINUOUS
 62
1
 10
-8.2373993
 20
-3.1880827
 11
-9.6710137
 21
-3.1880827
  0
LINE
  8
1
  6
CONTINUOUS
 62
1
 10
-9.6970454
 20
-3.0968412
 11
-8.2635519
 21
-3.0968412
  0
LINE
  8
1
  6
CONTINUOUS
 62
1
 10
8.2635517
 20
-3.0968412
 11
9.6970471
 21
-3.0968412
  0
LINE
  8
1
  6
CONTINUOUS
 62
1
 10
9.7230525
 20
-3.0055998
 11
8.289727
 21
-3.0055998
  0
LINE
  8
1
  6
CONTINUOUS
 62
1
 10
-8.2897272
 20
-3.0055998
 11
-9.7230527
 21
-3.0055998
  0
LINE
  8
1
  6
CONTINUOUS
 62
1
 10
-9.7490825
 20
-2.9143583
 11
-8.3158798
 21
-2.9143583
  0
LINE
  8
1
  6
CONTINUOUS
 62
1
 10
8.3158796
 20
-2.9143583
 11
9.7490842
 21
-2.9143583
  0
LINE
  8
1
  6
CONTINUOUS
 62
1
 10
9.775116
 20
-2.8231169
 11
8.3420549
 21
-2.8231169
  0
LINE
  8
1
  6
CONTINUOUS
 62
1
 10
-8.3420551
 20
-2.8231169
 11
-9.7751143
 21
-2.8231169
  0
LINE
  8
1
  6
CONTINUOUS
 62
1
 10
-9.8011442
 20
-2.7318905
 11
-8.3682077
 21
-2.7318905
  0
LINE
  8
1
  6
CONTINUOUS
 62
1
 10
8.3682075
 20
-2.7318905
 11
9.8011213
 21
-2.7318905
  0
LINE
  8
1
  6
CONTINUOUS
 62
1
 10
9.8271531
 20
-2.6406491
 11
8.3943828
 21
-2.6406491
  0
LINE
  8
1
  6
CONTINUOUS
 62
1
 10
-8.394383
 20
-2.6406491
 11
-9.8271514
 21
-2.6406491
  0
LINE
  8
1
  6
CONTINUOUS
 62
1
 10
-9.8531831
 20
-2.5494076
 11
-8.4205356
 21
-2.5494076
  0
LINE
  8
1
  6
CONTINUOUS
 62
1
 10
8.4205354
 20
-2.5494076
 11
9.8531848
 21
-2.5494076
  0
LINE
  8
1
  6
CONTINUOUS
 62
1
 10
9.8792128
 20
-2.4581813
 11
8.446688
 21
-2.4581813
  0
LINE
  8
1
  6
CONTINUOUS
 62
1
 10
-8.4466863
 20
-2.4581813
 11
-9.879213
 21
-2.4581813
  0
LINE
  8
1
  6
CONTINUOUS
 62
1
 10
-9.9052202
 20
-2.3669398
 11
-8.4728635
 21
-2.3669398
  0
LINE
  8
1
  6
CONTINUOUS
 62
1
 10
8.4728633
 20
-2.3669398
 11
9.9052219
 21
-2.3669398
  0
LINE
  8
1
  6
CONTINUOUS
 62
1
 10
9.9312537
 20
-2.2756983
 11
8.4990159
 21
-2.2756983
  0
LINE
  8
1
  6
CONTINUOUS
 62
1
 10
1.8970508
 20
-2.2756983
 11
1.8246355
 21
-2.2756983
  0
LINE
  8
1
  6
CONTINUOUS
 62
1
 10
-1.8246356
 20
-2.2756983
 11
-1.8970491
 21
-2.2756983
  0
LINE
  8
1
  6
CONTINUOUS
 62
1
 10
-8.4990142
 20
-2.2756983
 11
-9.931252
 21
-2.2756983
  0
LINE
  8
1
  6
CONTINUOUS
 62
1
 10
-9.9572819
 20
-2.1844569
 11
-8.5251913
 21
-2.1844569
  0
LINE
  8
1
  6
CONTINUOUS
 62
1
 10
-2.6823299
 20
-2.1844569
 11
-1.7719698
 21
-2.1844569
  0
LINE
  8
1
  6
CONTINUOUS
 62
1
 10
1.7719715
 20
-2.1844569
 11
2.6823542
 21
-2.1844569
  0
LINE
  8
1
  6
CONTINUOUS
 62
1
 10
8.5251911
 20
-2.1844569
 11
9.9572817
 21
-2.1844569
  0
LINE
  8
1
  6
CONTINUOUS
 62
1
 10
9.9832908
 20
-2.0932305
 11
8.5513438
 21
-2.0932305
  0
LINE
  8
1
  6
CONTINUOUS
 62
1
 10
3.2824707
 20
-2.0932305
 11
1.719281
 21
-2.0932305
  0
LINE
  8
1
  6
CONTINUOUS
 62
1
 10
-1.7192793
 20
-2.0932305
 11
-3.2824445
 21
-2.0932305
  0
LINE
  8
1
  6
CONTINUOUS
 62
1
 10
-8.5513421
 20
-2.0932305
 11
-9.9833136
 21
-2.0932305
  0
LINE
  8
1
  6
CONTINUOUS
 62
1
 10
-1.0009321E+001
 20
-2.0019891
 11
-8.5775192
 21
-2.0019891
  0
LINE
  8
1
  6
CONTINUOUS
 62
1
 10
-3.7864837
 20
-2.0019891
 11
-1.6666135
 21
-2.0019891
  0
LINE
  8
1
  6
CONTINUOUS
 62
1
 10
1.6666133
 20
-2.0019891
 11
3.7864854
 21
-2.0019891
  0
LINE
  8
1
  6
CONTINUOUS
 62
1
 10
8.577519
 20
-2.0019891
 11
1.0009322E+001
 21
-2.0019891
  0
LINE
  8
1
  6
CONTINUOUS
 62
1
 10
1.003535E+001
 20
-1.9107476
 11
8.6036716
 21
-1.9107476
  0
LINE
  8
1
  6
CONTINUOUS
 62
1
 10
4.2289158
 20
-1.9107476
 11
1.6139455
 21
-1.9107476
  0
LINE
  8
1
  6
CONTINUOUS
 62
1
 10
-1.6139438
 20
-1.9107476
 11
-4.2289141
 21
-1.9107476
  0
LINE
  8
1
  6
CONTINUOUS
 62
1
 10
-8.6036699
 20
-1.9107476
 11
-1.0035351E+001
 21
-1.9107476
  0
LINE
  8
1
  6
CONTINUOUS
 62
1
 10
-1.0061383E+001
 20
-1.8195062
 11
-8.6298225
 21
-1.8195062
  0
LINE
  8
1
  6
CONTINUOUS
 62
1
 10
-4.6274515
 20
-1.8195062
 11
-1.5612534
 21
-1.8195062
  0
LINE
  8
1
  6
CONTINUOUS
 62
1
 10
1.5612551
 20
-1.8195062
 11
4.6274514
 21
-1.8195062
  0
LINE
  8
1
  6
CONTINUOUS
 62
1
 10
8.6298242
 20
-1.8195062
 11
1.0061382E+001
 21
-1.8195062
  0
LINE
  8
1
  6
CONTINUOUS
 62
1
 10
1.0087391E+001
 20
-1.7282647
 11
8.6559995
 21
-1.7282647
  0
LINE
  8
1
  6
CONTINUOUS
 62
1
 10
4.9926362
 20
-1.7282647
 11
1.5085911
 21
-1.7282647
  0
LINE
  8
1
  6
CONTINUOUS
 62
1
 10
-1.5085894
 20
-1.7282647
 11
-4.9926364
 21
-1.7282647
  0
LINE
  8
1
  6
CONTINUOUS
 62
1
 10
-8.6559978
 20
-1.7282647
 11
-1.008739E+001
 21
-1.7282647
  0
LINE
  8
1
  6
CONTINUOUS
 62
1
 10
-1.011342E+001
 20
-1.6370233
 11
-8.6821504
 21
-1.6370233
  0
LINE
  8
1
  6
CONTINUOUS
 62
1
 10
-5.3312797
 20
-1.6370233
 11
-1.4558989
 21
-1.6370233
  0
LINE
  8
1
  6
CONTINUOUS
 62
1
 10
1.4559006
 20
-1.6370233
 11
5.3313059
 21
-1.6370233
  0
LINE
  8
1
  6
CONTINUOUS
 62
1
 10
8.6821521
 20
-1.6370233
 11
1.0113419E+001
 21
-1.6370233
  0
LINE
  8
1
  6
CONTINUOUS
 62
1
 10
1.0139451E+001
 20
-1.5457818
 11
8.7083274
 21
-1.5457818
  0
LINE
  8
1
  6
CONTINUOUS
 62
1
 10
5.6482227
 20
-1.5457818
 11
1.4032329
 21
-1.5457818
  0
LINE
  8
1
  6
CONTINUOUS
 62
1
 10
-1.4032349
 20
-1.5457818
 11
-5.648221
 21
-1.5457818
  0
LINE
  8
1
  6
CONTINUOUS
 62
1
 10
-8.7083257
 20
-1.5457818
 11
-1.0139451E+001
 21
-1.5457818
  0
LINE
  8
1
  6
CONTINUOUS
 62
1
 10
-1.0165459E+001
 20
-1.4545404
 11
-8.7344783
 21
-1.4545404
  0
LINE
  8
1
  6
CONTINUOUS
 62
1
 10
-5.9468876
 20
-1.4545404
 11
-1.3505445
 21
-1.4545404
  0
LINE
  8
1
  6
CONTINUOUS
 62
1
 10
1.3505424
 20
-1.4545404
 11
5.9468874
 21
-1.4545404
  0
LINE
  8
1
  6
CONTINUOUS
 62
1
 10
8.73448
 20
-1.4545404
 11
1.016546E+001
 21
-1.4545404
  0
LINE
  8
1
  6
CONTINUOUS
 62
1
 10
1.0191488E+001
 20
-1.363314
 11
8.7606553
 21
-1.363314
  0
LINE
  8
1
  6
CONTINUOUS
 62
1
 10
6.2299172
 20
-1.363314
 11
1.2978784
 21
-1.363314
  0
LINE
  8
1
  6
CONTINUOUS
 62
1
 10
-1.2978767
 20
-1.363314
 11
-6.2299174
 21
-1.363314
  0
LINE
  8
1
  6
CONTINUOUS
 62
1
 10
-8.7606536
 20
-1.363314
 11
-1.0191488E+001
 21
-1.363314
  0
LINE
  8
1
  6
CONTINUOUS
 62
1
 10
-1.021752E+001
 20
-1.2720726
 11
-8.7868062
 21
-1.2720726
  0
LINE
  8
1
  6
CONTINUOUS
 62
1
 10
-6.4993402
 20
-1.2720726
 11
-1.2451863
 21
-1.2720726
  0
LINE
  8
1
  6
CONTINUOUS
 62
1
 10
1.245188
 20
-1.2720726
 11
6.49934
 21
-1.2720726
  0
LINE
  8
1
  6
CONTINUOUS
 62
1
 10
8.7868079
 20
-1.2720726
 11
1.021752E+001
 21
-1.2720726
  0
LINE
  8
1
  6
CONTINUOUS
 62
1
 10
1.0243529E+001
 20
-1.1808311
 11
8.8129567
 21
-1.1808311
  0
LINE
  8
1
  6
CONTINUOUS
 62
1
 10
6.7568215
 20
-1.1808311
 11
1.1925202
 21
-1.1808311
  0
LINE
  8
1
  6
CONTINUOUS
 62
1
 10
-1.1925185
 20
-1.1808311
 11
-6.7568217
 21
-1.1808311
  0
LINE
  8
1
  6
CONTINUOUS
 62
1
 10
-8.8129569
 20
-1.1808311
 11
-1.0243552E+001
 21
-1.1808311
  0
LINE
  8
1
  6
CONTINUOUS
 62
1
 10
-1.0269557E+001
 20
-1.0895896
 11
-8.8391341
 21
-1.0895896
  0
LINE
  8
1
  6
CONTINUOUS
 62
1
 10
-7.0036457
 20
-1.0895896
 11
-1.1398508
 21
-1.0895896
  0
LINE
  8
1
  6
CONTINUOUS
 62
1
 10
1.1398525
 20
-1.0895896
 11
7.0036455
 21
-1.0895896
  0
LINE
  8
1
  6
CONTINUOUS
 62
1
 10
8.8391358
 20
-1.0895896
 11
1.0269557E+001
 21
-1.0895896
  0
LINE
  8
1
  6
CONTINUOUS
 62
1
 10
1.0295589E+001
 20
-9.9834822E-001
 11
8.8652846
 21
-9.9834822E-001
  0
LINE
  8
1
  6
CONTINUOUS
 62
1
 10
7.2409223
 20
-9.9834822E-001
 11
1.087162
 21
-9.9834822E-001
  0
LINE
  8
1
  6
CONTINUOUS
 62
1
 10
-1.0871603
 20
-9.9834822E-001
 11
-7.2409225
 21
-9.9834822E-001
  0
LINE
  8
1
  6
CONTINUOUS
 62
1
 10
-8.8652848
 20
-9.9834822E-001
 11
-1.0295589E+001
 21
-9.9834822E-001
  0
LINE
  8
1
  6
CONTINUOUS
 62
1
 10
-1.0321621E+001
 20
-9.0712182E-001
 11
-8.891462
 21
-9.0712182E-001
  0
LINE
  8
1
  6
CONTINUOUS
 62
1
 10
-7.4695454
 20
-9.0712182E-001
 11
-1.0344964
 21
-9.0712182E-001
  0
LINE
  8
1
  6
CONTINUOUS
 62
1
 10
1.0344981
 20
-9.0712182E-001
 11
7.4695471
 21
-9.0712182E-001
  0
LINE
  8
1
  6
CONTINUOUS
 62
1
 10
8.8914637
 20
-9.0712182E-001
 11
1.0321621E+001
 21
-9.0712182E-001
  0
LINE
  8
1
  6
CONTINUOUS
 62
1
 10
1.0347626E+001
 20
-8.1588042E-001
 11
8.9176125
 21
-8.1588042E-001
  0
LINE
  8
1
  6
CONTINUOUS
 62
1
 10
7.6902903
 20
-8.1588042E-001
 11
9.8180755E-001
 21
-8.1588042E-001
  0
LINE
  8
1
  6
CONTINUOUS
 62
1
 10
-9.8180595E-001
 20
-8.1588042E-001
 11
-7.6902886
 21
-8.1588042E-001
  0
LINE
  8
1
  6
CONTINUOUS
 62
1
 10
-8.9176127
 20
-8.1588042E-001
 11
-1.0347626E+001
 21
-8.1588042E-001
  0
LINE
  8
1
  6
CONTINUOUS
 62
1
 10
-1.0373658E+001
 20
-7.2463892E-001
 11
-8.9437898
 21
-7.2463892E-001
  0
LINE
  8
1
  6
CONTINUOUS
 62
1
 10
-7.9038053
 20
-7.2463892E-001
 11
-9.2914195E-001
 21
-7.2463892E-001
  0
LINE
  8
1
  6
CONTINUOUS
 62
1
 10
9.2913985E-001
 20
-7.2463892E-001
 11
7.9038316
 21
-7.2463892E-001
  0
LINE
  8
1
  6
CONTINUOUS
 62
1
 10
8.9437915
 20
-7.2463892E-001
 11
1.0373658E+001
 21
-7.2463892E-001
  0
LINE
  8
1
  6
CONTINUOUS
 62
1
 10
1.0399689E+001
 20
-6.3341262E-001
 11
8.9699404
 21
-6.3341262E-001
  0
LINE
  8
1
  6
CONTINUOUS
 62
1
 10
8.1106996
 20
-6.3341262E-001
 11
8.7647585E-001
 21
-6.3341262E-001
  0
LINE
  8
1
  6
CONTINUOUS
 62
1
 10
-8.7647425E-001
 20
-6.3341262E-001
 11
-8.1106998
 21
-6.3341262E-001
  0
LINE
  8
1
  6
CONTINUOUS
 62
1
 10
-8.9699406
 20
-6.3341262E-001
 11
-1.039969E+001
 21
-6.3341262E-001
  0
LINE
  8
1
  6
CONTINUOUS
 62
1
 10
-1.0425695E+001
 20
-5.4217112E-001
 11
-8.9960932
 21
-5.4217112E-001
  0
LINE
  8
1
  6
CONTINUOUS
 62
1
 10
-8.311431
 20
-5.4217112E-001
 11
-2.8739483
 21
-5.4217112E-001
  0
LINE
  8
1
  6
CONTINUOUS
 62
1
 10
-2.404085
 20
-5.4217112E-001
 11
-8.2378375E-001
 21
-5.4217112E-001
  0
LINE
  8
1
  6
CONTINUOUS
 62
1
 10
8.2378535E-001
 20
-5.4217112E-001
 11
2.4040867
 21
-5.4217112E-001
  0
LINE
  8
1
  6
CONTINUOUS
 62
1
 10
2.87395
 20
-5.4217112E-001
 11
8.3114573
 21
-5.4217112E-001
  0
LINE
  8
1
  6
CONTINUOUS
 62
1
 10
8.996093
 20
-5.4217112E-001
 11
1.0425695E+001
 21
-5.4217112E-001
  0
LINE
  8
1
  6
CONTINUOUS
 62
1
 10
1.0451726E+001
 20
-4.5092972E-001
 11
9.0222682
 21
-4.5092972E-001
  0
LINE
  8
1
  6
CONTINUOUS
 62
1
 10
8.5064595
 20
-4.5092972E-001
 11
3.3969871
 21
-4.5092972E-001
  0
LINE
  8
1
  6
CONTINUOUS
 62
1
 10
2.3513962
 20
-4.5092972E-001
 11
7.7111765E-001
 21
-4.5092972E-001
  0
LINE
  8
1
  6
CONTINUOUS
 62
1
 10
-7.7111605E-001
 20
-4.5092972E-001
 11
-2.3513945
 21
-4.5092972E-001
  0
LINE
  8
1
  6
CONTINUOUS
 62
1
 10
-3.3969854
 20
-4.5092972E-001
 11
-8.5064596
 21
-4.5092972E-001
  0
LINE
  8
1
  6
CONTINUOUS
 62
1
 10
-9.0222684
 20
-4.5092972E-001
 11
-1.0451727E+001
 21
-4.5092972E-001
  0
LINE
  8
1
  6
CONTINUOUS
 62
1
 10
-1.0477759E+001
 20
-3.5968822E-001
 11
-9.048421
 21
-3.5968822E-001
  0
LINE
  8
1
  6
CONTINUOUS
 62
1
 10
-8.6961444
 20
-3.5968822E-001
 11
-3.8474164
 21
-3.5968822E-001
  0
LINE
  8
1
  6
CONTINUOUS
 62
1
 10
-2.2987287
 20
-3.5968822E-001
 11
-7.1842555E-001
 21
-3.5968822E-001
  0
LINE
  8
1
  6
CONTINUOUS
 62
1
 10
7.1842715E-001
 20
-3.5968822E-001
 11
2.2987285
 21
-3.5968822E-001
  0
LINE
  8
1
  6
CONTINUOUS
 62
1
 10
3.8474162
 20
-3.5968822E-001
 11
8.6961707
 21
-3.5968822E-001
  0
LINE
  8
1
  6
CONTINUOUS
 62
1
 10
9.0484209
 20
-3.5968822E-001
 11
1.0477758E+001
 21
-3.5968822E-001
  0
LINE
  8
1
  6
CONTINUOUS
 62
1
 10
1.050379E+001
 20
-2.6846192E-001
 11
9.0745961
 21
-2.6846192E-001
  0
LINE
  8
1
  6
CONTINUOUS
 62
1
 10
8.8808742
 20
-2.6846192E-001
 11
4.2484443
 21
-2.6846192E-001
  0
LINE
  8
1
  6
CONTINUOUS
 62
1
 10
2.2460645
 20
-2.6846192E-001
 11
6.6576315E-001
 21
-2.6846192E-001
  0
LINE
  8
1
  6
CONTINUOUS
 62
1
 10
-6.6575785E-001
 20
-2.6846192E-001
 11
-2.2460628
 21
-2.6846192E-001
  0
LINE
  8
1
  6
CONTINUOUS
 62
1
 10
-4.2484445
 20
-2.6846192E-001
 11
-8.8808744
 21
-2.6846192E-001
  0
LINE
  8
1
  6
CONTINUOUS
 62
1
 10
-9.0745963
 20
-2.6846192E-001
 11
-1.0503788E+001
 21
-2.6846192E-001
  0
LINE
  8
1
  6
CONTINUOUS
 62
1
 10
-1.0529796E+001
 20
-1.7722042E-001
 11
-9.1007489
 21
-1.7722042E-001
  0
LINE
  8
1
  6
CONTINUOUS
 62
1
 10
-9.0608931
 20
-1.7722042E-001
 11
-4.6129496
 21
-1.7722042E-001
  0
LINE
  8
1
  6
CONTINUOUS
 62
1
 10
-2.1933724
 20
-1.7722042E-001
 11
-6.1306735E-001
 21
-1.7722042E-001
  0
LINE
  8
1
  6
CONTINUOUS
 62
1
 10
6.1307275E-001
 20
-1.7722042E-001
 11
2.1933741
 21
-1.7722042E-001
  0
LINE
  8
1
  6
CONTINUOUS
 62
1
 10
4.6129494
 20
-1.7722042E-001
 11
9.0608948
 21
-1.7722042E-001
  0
LINE
  8
1
  6
CONTINUOUS
 62
1
 10
9.1007487
 20
-1.7722042E-001
 11
1.0529795E+001
 21
-1.7722042E-001
  0
LINE
  8
1
  6
CONTINUOUS
 62
1
 10
1.0555827E+001
 20
-8.5979021E-002
 11
4.9489868
 21
-8.5979021E-002
  0
LINE
  8
1
  6
CONTINUOUS
 62
1
 10
2.1407063
 20
-8.5979021E-002
 11
5.6040495E-001
 21
-8.5979021E-002
  0
LINE
  8
1
  6
CONTINUOUS
 62
1
 10
-5.6040335E-001
 20
-8.5979021E-002
 11
-2.1407065
 21
-8.5979021E-002
  0
LINE
  8
1
  6
CONTINUOUS
 62
1
 10
-4.9489851
 20
-8.5979021E-002
 11
-1.0555827E+001
 21
-8.5979021E-002
  0
LINE
  8
1
  6
CONTINUOUS
 62
1
 10
-1.0581857E+001
 20
5.2624789E-003
 11
-5.2620574
 21
5.2624789E-003
  0
LINE
  8
1
  6
CONTINUOUS
 62
1
 10
-2.088016
 20
5.2624789E-003
 11
-5.0773935E-001
 21
5.2624789E-003
  0
LINE
  8
1
  6
CONTINUOUS
 62
1
 10
5.0773725E-001
 20
5.2624789E-003
 11
2.0880159
 21
5.2624789E-003
  0
LINE
  8
1
  6
CONTINUOUS
 62
1
 10
5.2620591
 20
5.2624789E-003
 11
1.0581859E+001
 21
5.2624789E-003
  0
LINE
  8
1
  6
CONTINUOUS
 62
1
 10
1.0607864E+001
 20
9.6503979E-002
 11
5.5560144
 21
9.6503979E-002
  0
LINE
  8
1
  6
CONTINUOUS
 62
1
 10
2.0353481
 20
9.6503979E-002
 11
4.5504675E-001
 21
9.6503979E-002
  0
LINE
  8
1
  6
CONTINUOUS
 62
1
 10
-4.5504895E-001
 20
9.6503979E-002
 11
-2.0353483
 21
9.6503979E-002
  0
LINE
  8
1
  6
CONTINUOUS
 62
1
 10
-5.5560127
 20
9.6503979E-002
 11
-1.0607864E+001
 21
9.6503979E-002
  0
LINE
  8
1
  6
CONTINUOUS
 62
1
 10
-1.0633896E+001
 20
1.8774538E-001
 11
-5.8337497
 21
1.8774538E-001
  0
LINE
  8
1
  6
CONTINUOUS
 62
1
 10
-1.9826578
 20
1.8774538E-001
 11
-4.0238115E-001
 21
1.8774538E-001
  0
LINE
  8
1
  6
CONTINUOUS
 62
1
 10
4.0237905E-001
 20
1.8774538E-001
 11
1.9826577
 21
1.8774538E-001
  0
LINE
  8
1
  6
CONTINUOUS
 62
1
 10
5.8337495
 20
1.8774538E-001
 11
1.0633896E+001
 21
1.8774538E-001
  0
LINE
  8
1
  6
CONTINUOUS
 62
1
 10
1.0659928E+001
 20
2.7898688E-001
 11
6.097466
 21
2.7898688E-001
  0
LINE
  8
1
  6
CONTINUOUS
 62
1
 10
1.9299937
 20
2.7898688E-001
 11
3.4968855E-001
 21
2.7898688E-001
  0
LINE
  8
1
  6
CONTINUOUS
 62
1
 10
-3.4969075E-001
 20
2.7898688E-001
 11
-1.929992
 21
2.7898688E-001
  0
LINE
  8
1
  6
CONTINUOUS
 62
1
 10
-6.0974907
 20
2.7898688E-001
 11
-1.0659926E+001
 21
2.7898688E-001
  0
LINE
  8
1
  6
CONTINUOUS
 62
1
 10
-1.0685958E+001
 20
3.7022828E-001
 11
-6.3489542
 21
3.7022828E-001
  0
LINE
  8
1
  6
CONTINUOUS
 62
1
 10
-1.8773261
 20
3.7022828E-001
 11
-2.9702295E-001
 21
3.7022828E-001
  0
LINE
  8
1
  6
CONTINUOUS
 62
1
 10
2.9702455E-001
 20
3.7022828E-001
 11
1.8773259
 21
3.7022828E-001
  0
LINE
  8
1
  6
CONTINUOUS
 62
1
 10
6.348954
 20
3.7022828E-001
 11
1.0685933E+001
 21
3.7022828E-001
  0
LINE
  8
1
  6
CONTINUOUS
 62
1
 10
1.0711965E+001
 20
4.6145468E-001
 11
6.589592
 21
4.6145468E-001
  0
LINE
  8
1
  6
CONTINUOUS
 62
1
 10
1.8246355
 20
4.6145468E-001
 11
2.4433415E-001
 21
4.6145468E-001
  0
LINE
  8
1
  6
CONTINUOUS
 62
1
 10
-2.4433255E-001
 20
4.6145468E-001
 11
-1.8246356
 21
4.6145468E-001
  0
LINE
  8
1
  6
CONTINUOUS
 62
1
 10
-6.5895903
 20
4.6145468E-001
 11
-1.0711965E+001
 21
4.6145468E-001
  0
LINE
  8
1
  6
CONTINUOUS
 62
1
 10
-1.0737995E+001
 20
5.5269608E-001
 11
-6.8205094
 21
5.5269608E-001
  0
LINE
  8
1
  6
CONTINUOUS
 62
1
 10
-1.7719698
 20
5.5269608E-001
 11
-1.9166475E-001
 21
5.5269608E-001
  0
LINE
  8
1
  6
CONTINUOUS
 62
1
 10
1.9167015E-001
 20
5.5269608E-001
 11
1.7719715
 21
5.5269608E-001
  0
LINE
  8
1
  6
CONTINUOUS
 62
1
 10
6.8205092
 20
5.5269608E-001
 11
1.0737997E+001
 21
5.5269608E-001
  0
LINE
  8
1
  6
CONTINUOUS
 62
1
 10
1.0764028E+001
 20
6.4393758E-001
 11
7.0427063
 21
6.4393758E-001
  0
LINE
  8
1
  6
CONTINUOUS
 62
1
 10
1.719281
 20
6.4393758E-001
 11
1.3897975E-001
 21
6.4393758E-001
  0
LINE
  8
1
  6
CONTINUOUS
 62
1
 10
-1.3897435E-001
 20
6.4393758E-001
 11
-1.7192793
 21
6.4393758E-001
  0
LINE
  8
1
  6
CONTINUOUS
 62
1
 10
-7.0427046
 20
6.4393758E-001
 11
-1.0764027E+001
 21
6.4393758E-001
  0
LINE
  8
1
  6
CONTINUOUS
 62
1
 10
-1.0790034E+001
 20
7.3517898E-001
 11
-7.2569219
 21
7.3517898E-001
  0
LINE
  8
1
  6
CONTINUOUS
 62
1
 10
-1.6666135
 20
7.3517898E-001
 11
-8.6310348E-002
 21
7.3517898E-001
  0
LINE
  8
1
  6
CONTINUOUS
 62
1
 10
8.6311952E-002
 20
7.3517898E-001
 11
1.6666133
 21
7.3517898E-001
  0
LINE
  8
1
  6
CONTINUOUS
 62
1
 10
7.2569236
 20
7.3517898E-001
 11
1.0790034E+001
 21
7.3517898E-001
  0
LINE
  8
1
  6
CONTINUOUS
 62
1
 10
1.0816065E+001
 20
8.2640538E-001
 11
7.4639125
 21
8.2640538E-001
  0
LINE
  8
1
  6
CONTINUOUS
 62
1
 10
1.6139228
 20
8.2640538E-001
 11
3.3644152E-002
 21
8.2640538E-001
  0
LINE
  8
1
  6
CONTINUOUS
 62
1
 10
-3.3646348E-002
 20
8.2640538E-001
 11
-1.6139211
 21
8.2640538E-001
  0
LINE
  8
1
  6
CONTINUOUS
 62
1
 10
-7.4639127
 20
8.2640538E-001
 11
-1.0816064E+001
 21
8.2640538E-001
  0
LINE
  8
1
  6
CONTINUOUS
 62
1
 10
-1.0842096E+001
 20
9.1764678E-001
 11
-7.6642096
 21
9.1764678E-001
  0
LINE
  8
1
  6
CONTINUOUS
 62
1
 10
-1.5612534
 20
9.1764678E-001
 11
1.5612551
 21
9.1764678E-001
  0
LINE
  8
1
  6
CONTINUOUS
 62
1
 10
7.6642094
 20
9.1764678E-001
 11
1.0842097E+001
 21
9.1764678E-001
  0
LINE
  8
1
  6
CONTINUOUS
 62
1
 10
1.0868102E+001
 20
1.0088883
 11
7.858343
 21
1.0088883
  0
LINE
  8
1
  6
CONTINUOUS
 62
1
 10
1.5085911
 20
1.0088883
 11
-1.5085894
 21
1.0088883
  0
LINE
  8
1
  6
CONTINUOUS
 62
1
 10
-7.8583432
 20
1.0088883
 11
-1.0868125E+001
 21
1.0088883
  0
LINE
  8
1
  6
CONTINUOUS
 62
1
 10
-1.0894133E+001
 20
1.1001297
 11
-8.0467704
 21
1.1001297
  0
LINE
  8
1
  6
CONTINUOUS
 62
1
 10
-1.4558989
 20
1.1001297
 11
1.4559006
 21
1.1001297
  0
LINE
  8
1
  6
CONTINUOUS
 62
1
 10
8.0467702
 20
1.1001297
 11
1.0894134E+001
 21
1.1001297
  0
LINE
  8
1
  6
CONTINUOUS
 62
1
 10
1.0920166E+001
 20
1.1913561
 11
8.2298574
 21
1.1913561
  0
LINE
  8
1
  6
CONTINUOUS
 62
1
 10
1.4032329
 20
1.1913561
 11
-1.4032349
 21
1.1913561
  0
LINE
  8
1
  6
CONTINUOUS
 62
1
 10
-8.2298575
 20
1.1913561
 11
-1.0920164E+001
 21
1.1913561
  0
LINE
  8
1
  6
CONTINUOUS
 62
1
 10
-1.0946194E+001
 20
1.2825975
 11
-8.4079899
 21
1.2825975
  0
LINE
  8
1
  6
CONTINUOUS
 62
1
 10
-1.3505445
 20
1.2825975
 11
1.3505424
 21
1.2825975
  0
LINE
  8
1
  6
CONTINUOUS
 62
1
 10
8.4079897
 20
1.2825975
 11
1.0946194E+001
 21
1.2825975
  0
LINE
  8
1
  6
CONTINUOUS
 62
1
 10
1.0972203E+001
 20
1.373839
 11
8.5814353
 21
1.373839
  0
LINE
  8
1
  6
CONTINUOUS
 62
1
 10
1.2978784
 20
1.373839
 11
-1.2978767
 21
1.373839
  0
LINE
  8
1
  6
CONTINUOUS
 62
1
 10
-8.5814336
 20
1.373839
 11
-1.0972201E+001
 21
1.373839
  0
LINE
  8
1
  6
CONTINUOUS
 62
1
 10
-1.0998233E+001
 20
1.4650654
 11
-8.7505022
 21
1.4650654
  0
LINE
  8
1
  6
CONTINUOUS
 62
1
 10
-1.2451863
 20
1.4650654
 11
1.245188
 21
1.4650654
  0
LINE
  8
1
  6
CONTINUOUS
 62
1
 10
8.7505039
 20
1.4650654
 11
1.0998235E+001
 21
1.4650654
  0
LINE
  8
1
  6
CONTINUOUS
 62
1
 10
1.1024263E+001
 20
1.5563068
 11
8.9154372
 21
1.5563068
  0
LINE
  8
1
  6
CONTINUOUS
 62
1
 10
1.1925202
 20
1.5563068
 11
-1.1925185
 21
1.5563068
  0
LINE
  8
1
  6
CONTINUOUS
 62
1
 10
-8.9154374
 20
1.5563068
 11
-1.1024263E+001
 21
1.5563068
  0
LINE
  8
1
  6
CONTINUOUS
 62
1
 10
-1.1050295E+001
 20
1.6475483
 11
-9.0764582
 21
1.6475483
  0
LINE
  8
1
  6
CONTINUOUS
 62
1
 10
-1.1398508
 20
1.6475483
 11
1.1398525
 21
1.6475483
  0
LINE
  8
1
  6
CONTINUOUS
 62
1
 10
9.076458
 20
1.6475483
 11
1.1050272E+001
 21
1.6475483
  0
LINE
  8
1
  6
CONTINUOUS
 62
1
 10
1.1076304E+001
 20
1.7387897
 11
9.2337551
 21
1.7387897
  0
LINE
  8
1
  6
CONTINUOUS
 62
1
 10
1.087162
 20
1.7387897
 11
-1.0871603
 21
1.7387897
  0
LINE
  8
1
  6
CONTINUOUS
 62
1
 10
-9.2337553
 20
1.7387897
 11
-1.1076302E+001
 21
1.7387897
  0
LINE
  8
1
  6
CONTINUOUS
 62
1
 10
-1.1102332E+001
 20
1.8300312
 11
-9.3875496
 21
1.8300312
  0
LINE
  8
1
  6
CONTINUOUS
 62
1
 10
-1.0344964
 20
1.8300312
 11
1.0344981
 21
1.8300312
  0
LINE
  8
1
  6
CONTINUOUS
 62
1
 10
9.3875513
 20
1.8300312
 11
1.1102332E+001
 21
1.8300312
  0
LINE
  8
1
  6
CONTINUOUS
 62
1
 10
1.1128341E+001
 20
1.9212726
 11
9.5379826
 21
1.9212726
  0
LINE
  8
1
  6
CONTINUOUS
 62
1
 10
9.8180755E-001
 20
1.9212726
 11
-9.8180595E-001
 21
1.9212726
  0
LINE
  8
1
  6
CONTINUOUS
 62
1
 10
-9.5379828
 20
1.9212726
 11
-1.1128364E+001
 21
1.9212726
  0
LINE
  8
1
  6
CONTINUOUS
 62
1
 10
-1.1154371E+001
 20
2.0125141
 11
-9.6852267
 21
2.0125141
  0
LINE
  8
1
  6
CONTINUOUS
 62
1
 10
-9.2914195E-001
 20
2.0125141
 11
9.2913985E-001
 21
2.0125141
  0
LINE
  8
1
  6
CONTINUOUS
 62
1
 10
9.6852039
 20
2.0125141
 11
1.1154373E+001
 21
2.0125141
  0
LINE
  8
1
  6
CONTINUOUS
 62
1
 10
1.1180401E+001
 20
2.1037555
 11
9.8294001
 21
2.1037555
  0
LINE
  8
1
  6
CONTINUOUS
 62
1
 10
8.7647585E-001
 20
2.1037555
 11
-8.7647425E-001
 21
2.1037555
  0
LINE
  8
1
  6
CONTINUOUS
 62
1
 10
-9.8294003
 20
2.1037555
 11
-1.1180401E+001
 21
2.1037555
  0
LINE
  8
1
  6
CONTINUOUS
 62
1
 10
-1.1206433E+001
 20
2.194997
 11
-9.9706735
 21
2.194997
  0
LINE
  8
1
  6
CONTINUOUS
 62
1
 10
-8.2378375E-001
 20
2.194997
 11
8.2378535E-001
 21
2.194997
  0
LINE
  8
1
  6
CONTINUOUS
 62
1
 10
9.9706733
 20
2.194997
 11
1.1206432E+001
 21
2.194997
  0
LINE
  8
1
  6
CONTINUOUS
 62
1
 10
1.1232441E+001
 20
2.2862233
 11
1.0109144E+001
 21
2.2862233
  0
LINE
  8
1
  6
CONTINUOUS
 62
1
 10
7.7111765E-001
 20
2.2862233
 11
-7.7111605E-001
 21
2.2862233
  0
LINE
  8
1
  6
CONTINUOUS
 62
1
 10
-1.0109143E+001
 20
2.2862233
 11
-1.123244E+001
 21
2.2862233
  0
LINE
  8
1
  6
CONTINUOUS
 62
1
 10
-1.125847E+001
 20
2.3774648
 11
-1.0244929E+001
 21
2.3774648
  0
LINE
  8
1
  6
CONTINUOUS
 62
1
 10
-7.1842555E-001
 20
2.3774648
 11
7.1842715E-001
 21
2.3774648
  0
LINE
  8
1
  6
CONTINUOUS
 62
1
 10
1.0244904E+001
 20
2.3774648
 11
1.1258469E+001
 21
2.3774648
  0
LINE
  8
1
  6
CONTINUOUS
 62
1
 10
1.1284501E+001
 20
2.4687063
 11
1.0378129E+001
 21
2.4687063
  0
LINE
  8
1
  6
CONTINUOUS
 62
1
 10
6.6576315E-001
 20
2.4687063
 11
-6.6575785E-001
 21
2.4687063
  0
LINE
  8
1
  6
CONTINUOUS
 62
1
 10
-1.0378129E+001
 20
2.4687063
 11
-1.1284501E+001
 21
2.4687063
  0
LINE
  8
1
  6
CONTINUOUS
 62
1
 10
-1.1310533E+001
 20
2.5599326
 11
-1.0508864E+001
 21
2.5599326
  0
LINE
  8
1
  6
CONTINUOUS
 62
1
 10
-6.1306735E-001
 20
2.5599326
 11
6.1307275E-001
 21
2.5599326
  0
LINE
  8
1
  6
CONTINUOUS
 62
1
 10
1.0508839E+001
 20
2.5599326
 11
1.131051E+001
 21
2.5599326
  0
LINE
  8
1
  6
CONTINUOUS
 62
1
 10
1.1336538E+001
 20
2.6511741
 11
1.0637182E+001
 21
2.6511741
  0
LINE
  8
1
  6
CONTINUOUS
 62
1
 10
5.6040495E-001
 20
2.6511741
 11
-5.6040335E-001
 21
2.6511741
  0
LINE
  8
1
  6
CONTINUOUS
 62
1
 10
-1.0637182E+001
 20
2.6511741
 11
-1.1336539E+001
 21
2.6511741
  0
LINE
  8
1
  6
CONTINUOUS
 62
1
 10
-1.136257E+001
 20
2.7424155
 11
-1.0763228E+001
 21
2.7424155
  0
LINE
  8
1
  6
CONTINUOUS
 62
1
 10
-5.0773935E-001
 20
2.7424155
 11
5.0773725E-001
 21
2.7424155
  0
LINE
  8
1
  6
CONTINUOUS
 62
1
 10
1.0763228E+001
 20
2.7424155
 11
1.136257E+001
 21
2.7424155
  0
LINE
  8
1
  6
CONTINUOUS
 62
1
 10
1.1388602E+001
 20
2.833657
 11
1.0887027E+001
 21
2.833657
  0
LINE
  8
1
  6
CONTINUOUS
 62
1
 10
4.5504675E-001
 20
2.833657
 11
-4.5504895E-001
 21
2.833657
  0
LINE
  8
1
  6
CONTINUOUS
 62
1
 10
-1.0887027E+001
 20
2.833657
 11
-1.1388602E+001
 21
2.833657
  0
LINE
  8
1
  6
CONTINUOUS
 62
1
 10
-1.1414607E+001
 20
2.9248984
 11
-1.1008698E+001
 21
2.9248984
  0
LINE
  8
1
  6
CONTINUOUS
 62
1
 10
-4.0238115E-001
 20
2.9248984
 11
4.0237905E-001
 21
2.9248984
  0
LINE
  8
1
  6
CONTINUOUS
 62
1
 10
1.10087E+001
 20
2.9248984
 11
1.1414607E+001
 21
2.9248984
  0
LINE
  8
1
  6
CONTINUOUS
 62
1
 10
1.1440639E+001
 20
3.0161248
 11
1.1128292E+001
 21
3.0161248
  0
LINE
  8
1
  6
CONTINUOUS
 62
1
 10
3.4968855E-001
 20
3.0161248
 11
-3.4969075E-001
 21
3.0161248
  0
LINE
  8
1
  6
CONTINUOUS
 62
1
 10
-1.1128292E+001
 20
3.0161248
 11
-1.1440639E+001
 21
3.0161248
  0
LINE
  8
1
  6
CONTINUOUS
 62
1
 10
-1.1466671E+001
 20
3.1073662
 11
-1.1245854E+001
 21
3.1073662
  0
LINE
  8
1
  6
CONTINUOUS
 62
1
 10
-2.9702295E-001
 20
3.1073662
 11
2.9702455E-001
 21
3.1073662
  0
LINE
  8
1
  6
CONTINUOUS
 62
1
 10
1.1245856E+001
 20
3.1073662
 11
1.1466671E+001
 21
3.1073662
  0
LINE
  8
1
  6
CONTINUOUS
 62
1
 10
1.1492676E+001
 20
3.1986077
 11
1.1361482E+001
 21
3.1986077
  0
LINE
  8
1
  6
CONTINUOUS
 62
1
 10
2.4433415E-001
 20
3.1986077
 11
-2.4433255E-001
 21
3.1986077
  0
LINE
  8
1
  6
CONTINUOUS
 62
1
 10
-1.1361483E+001
 20
3.1986077
 11
-1.1492676E+001
 21
3.1986077
  0
LINE
  8
1
  6
CONTINUOUS
 62
1
 10
-1.1518708E+001
 20
3.289834
 11
-1.1475227E+001
 21
3.289834
  0
LINE
  8
1
  6
CONTINUOUS
 62
1
 10
-1.9166475E-001
 20
3.289834
 11
1.9167015E-001
 21
3.289834
  0
LINE
  8
1
  6
CONTINUOUS
 62
1
 10
1.1475202E+001
 20
3.289834
 11
1.1518708E+001
 21
3.289834
  0
LINE
  8
1
  6
CONTINUOUS
 62
1
 10
1.3897975E-001
 20
3.3810755
 11
-1.3897435E-001
 21
3.3810755
  0
LINE
  8
1
  6
CONTINUOUS
 62
1
 10
-8.6310348E-002
 20
3.4723169
 11
8.6311952E-002
 21
3.4723169
  0
LINE
  8
1
  6
CONTINUOUS
 62
1
 10
3.3644152E-002
 20
3.5635584
 11
-3.3646348E-002
 21
3.5635584
  0
ENDBLK
  0
BLOCK
  2
*XH32
  3
*XH
 10
0.0
 20
0.0
 70
65
  0
LINE
  8
1
  6
CONTINUOUS
 62
1
 10
1.0861691E+002
 20
9.7303199E+001
 11
1.0941883E+002
 21
9.8105117E+001
  0
LINE
  8
1
  6
CONTINUOUS
 62
1
 10
1.0933304E+002
 20
9.6605117E+001
 11
1.1007079E+002
 21
9.7342871E+001
  0
ENDBLK
  0
BLOCK
  2
M_PFN_7
 10
0.0
 20
0.0
 70
0
  0
ENDBLK
  0
BLOCK
  2
_D3
 10
0.0
 20
0.0
 70
0
  0
TEXT
  8
103
  6
CONTINUOUS
 62
150
 10
1.7130428E-001
 20
1.6393399
 40
3.5
  1
R0.5
 41
6.1875002E-001
 50
3.9034477E+001
  0
LINE
  8
4
  6
CONTINUOUS
 62
2
 10
4.1773957E-001
 20
7.1044002E-001
 11
2.4495396
 21
2.357785
  0
INSERT
  2
M_PFN_7
  8
4
 10
4.1773957E-001
 20
7.1044002E-001
 50
2.1903449E+002
  0
LINE
  8
4
  6
CONTINUOUS
 62
2
 10
2.4495396
 20
2.357785
 11
7.1887616
 21
6.200256
  0
ENDBLK
  0
BLOCK
  2
*XH103
  3
*XH
 10
0.0
 20
0.0
 70
65
  0
LINE
  8
1
  6
CONTINUOUS
 62
3
 10
5.0639547E+001
 20
2.6172895E+002
 11
5.317531E+001
 21
2.6426472E+002
  0
LINE
  8
1
  6
CONTINUOUS
 62
3
 10
5.0102855E+001
 20
2.6235209E+002
 11
5.2015478E+001
 21
2.6426472E+002
  0
LINE
  8
1
  6
CONTINUOUS
 62
3
 10
4.9566163E+001
 20
2.6297523E+002
 11
5.0855646E+001
 21
2.6426472E+002
  0
LINE
  8
1
  6
CONTINUOUS
 62
3
 10
4.9029471E+001
 20
2.6359837E+002
 11
4.9695814E+001
 21
2.6426472E+002
  0
LINE
  8
1
  6
CONTINUOUS
 62
3
 10
4.8492779E+001
 20
2.6422151E+002
 11
4.8535982E+001
 21
2.6426472E+002
  0
LINE
  8
1
  6
CONTINUOUS
 62
3
 10
5.1176239E+001
 20
2.6110581E+002
 11
5.4335141E+001
 21
2.6426472E+002
  0
LINE
  8
1
  6
CONTINUOUS
 62
3
 10
5.1712931E+001
 20
2.6048267E+002
 11
5.5494973E+001
 21
2.6426472E+002
  0
LINE
  8
1
  6
CONTINUOUS
 62
3
 10
5.2249623E+001
 20
2.5985953E+002
 11
5.4304662E+001
 21
2.6191457E+002
  0
ENDBLK
  0
BLOCK
  2
*XH109
  3
*XH
 10
0.0
 20
0.0
 70
65
  0
LINE
  8
1
  6
CONTINUOUS
 62
1
 10
-5.0222938E-001
 20
-5.0222938E-001
 11
5.0222938E-001
 21
5.0222938E-001
  0
LINE
  8
1
  6
CONTINUOUS
 62
1
 10
-5.9858882E-001
 20
8.1562474E-001
 11
-4.1644295E-001
 21
9.9777062E-001
  0
ENDBLK
  0
BLOCK
  2
FGSJ
 10
0.0
 20
0.0
 70
0
  0
TEXT
  8
103
  6
CONTINUOUS
 62
1
 10
3.504671
 20
4.2370345
 40
2.9
  1
151F,191F
 41
8.0E-001
  0
POINT
  8
Drafting_Hidden_Entities
  6
CONTINUOUS
 62
1
 10
0.0
 20
0.0
  0
ENDBLK
  0
BLOCK
  2
_AH1
 70
0
 10
0.0
 20
0.0
  3
_AH1
  0
LINE
  8
0
  6
CONTINUOUS
 62
0
 10
-1.0
 20
1.66667E-001
 11
0.0
 21
0.0
  0
LINE
  8
0
  6
CONTINUOUS
 62
0
 10
0.0
 20
0.0
 11
-1.0
 21
-1.66667E-001
  0
LINE
  8
0
  6
CONTINUOUS
 62
0
 10
-1.0
 20
1.66667E-001
 11
-1.0
 21
-1.66667E-001
  0
LINE
  8
0
  6
CONTINUOUS
 62
0
 10
0.0
 20
0.0
 11
-1.0
 21
0.0
  0
ENDBLK
  0
BLOCK
  2
_AH2
 70
0
 10
0.0
 20
0.0
  3
_AH2
  0
LINE
  8
0
  6
CONTINUOUS
 62
0
 10
-1.0
 20
1.66667E-001
 11
0.0
 21
0.0
  0
LINE
  8
0
  6
CONTINUOUS
 62
0
 10
0.0
 20
0.0
 11
-1.0
 21
-1.66667E-001
  0
LINE
  8
0
  6
CONTINUOUS
 62
0
 10
0.0
 20
0.0
 11
-1.0
 21
0.0
  0
ENDBLK
  0
BLOCK
  2
*D1013
  3
*D
 10
0.0
 20
0.0
 70
65
  0
LINE
  8
1
  6
CONTINUOUS
 62
4
 10
9.2764989E+001
 20
1.1323103E+002
 11
8.4831E+001
 21
1.1323103E+002
  0
LINE
  8
1
  6
CONTINUOUS
 62
4
 10
9.2764989E+001
 20
1.1473103E+002
 11
8.4831E+001
 21
1.1473103E+002
  0
LINE
  8
1
  6
CONTINUOUS
 62
4
 10
8.5831E+001
 20
1.0723103E+002
 11
8.5831E+001
 21
1.1323103E+002
  0
LINE
  8
1
  6
CONTINUOUS
 62
4
 10
8.5831E+001
 20
1.1473103E+002
 11
8.5831E+001
 21
1.2690919E+002
  0
TEXT
  8
1
  6
CONTINUOUS
 62
4
 10
8.46645E+001
 20
1.1840919E+002
 40
3.5
  1
1,5
 41
6.6666667E-001
 50
9.0E+001
  0
INSERT
  2
_AH13
  8
1
 62
4
 10
8.5831E+001
 20
1.1323103E+002
 41
3.5
 42
3.5
 43
3.5
 50
2.7E+002
  0
INSERT
  2
_AH13
  8
1
 62
4
 10
8.5831E+001
 20
1.1473103E+002
 41
3.5
 42
3.5
 43
3.5
 50
4.5E+002
  0
ENDBLK
  0
BLOCK
  2
*D1015
  3
*D
 10
0.0
 20
0.0
 70
65
  0
LINE
  8
1
  6
CONTINUOUS
 62
4
 10
1.0856499E+002
 20
1.1398103E+002
 11
1.0856499E+002
 21
1.2169002E+002
  0
LINE
  8
1
  6
CONTINUOUS
 62
4
 10
1.0296499E+002
 20
1.1398103E+002
 11
1.0296499E+002
 21
1.2169002E+002
  0
LINE
  8
1
  6
CONTINUOUS
 62
4
 10
1.0856499E+002
 20
1.2019002E+002
 11
1.2656481E+002
 21
1.2019002E+002
  0
LINE
  8
1
  6
CONTINUOUS
 62
4
 10
9.4964989E+001
 20
1.2019002E+002
 11
1.0856499E+002
 21
1.2019002E+002
  0
TEXT
  8
1
  6
CONTINUOUS
 62
4
 10
1.1386481E+002
 20
1.2169102E+002
 40
3.5
  1
%%c5,6
 41
8.0E-001
 50
3.6E+002
  0
INSERT
  2
_AH13
  8
1
 62
4
 10
1.0856499E+002
 20
1.2019002E+002
 41
4.0
 42
4.0
 43
4.0
 50
3.6E+002
  0
INSERT
  2
_AH13
  8
1
 62
4
 10
1.0296499E+002
 20
1.2019002E+002
 41
4.0
 42
4.0
 43
4.0
 50
5.4E+002
  0
ENDBLK
  0
BLOCK
  2
*D1034
  3
*D
 10
0.0
 20
0.0
 70
65
  0
LINE
  8
1
  6
CONTINUOUS
 62
4
 10
1.1776499E+002
 20
2.2610637E+002
 11
1.1776499E+002
 21
2.3410537E+002
  0
LINE
  8
1
  6
CONTINUOUS
 62
4
 10
9.3764989E+001
 20
2.2610637E+002
 11
9.3764989E+001
 21
2.3410537E+002
  0
LINE
  8
1
  6
CONTINUOUS
 62
4
 10
1.1776499E+002
 20
2.3310537E+002
 11
1.0584277E+002
 21
2.3310537E+002
  0
LINE
  8
1
  6
CONTINUOUS
 62
4
 10
9.3764989E+001
 20
2.3310537E+002
 11
1.0584277E+002
 21
2.3310537E+002
  0
TEXT
  8
1
  6
CONTINUOUS
 62
4
 10
1.0350943E+002
 20
2.3427187E+002
 40
3.5
  1
24
 41
6.6666667E-001
 50
3.6E+002
  0
INSERT
  2
_AH13
  8
1
 62
4
 10
1.1776499E+002
 20
2.3310537E+002
 41
3.5
 42
3.5
 43
3.5
 50
1.8E+002
  0
INSERT
  2
_AH13
  8
1
 62
4
 10
9.3764989E+001
 20
2.3310537E+002
 41
3.5
 42
3.5
 43
3.5
 50
3.6E+002
  0
ENDBLK
  0
BLOCK
  2
*D1049
  3
*D
 10
0.0
 20
0.0
 70
65
  0
LINE
  8
1
  6
CONTINUOUS
 62
4
 10
1.0001238E+002
 20
1.4210637E+002
 11
8.3061E+001
 21
1.4210637E+002
  0
LINE
  8
1
  6
CONTINUOUS
 62
4
 10
1.0001238E+002
 20
2.1610637E+002
 11
8.3061E+001
 21
2.1610637E+002
  0
LINE
  8
1
  6
CONTINUOUS
 62
4
 10
8.4061E+001
 20
1.4210637E+002
 11
8.4061E+001
 21
1.787364E+002
  0
LINE
  8
1
  6
CONTINUOUS
 62
4
 10
8.4061E+001
 20
2.1610637E+002
 11
8.4061E+001
 21
1.787364E+002
  0
TEXT
  8
1
  6
CONTINUOUS
 62
4
 10
8.28945E+001
 20
1.7640307E+002
 40
3.5
  1
74
 41
6.6666667E-001
 50
9.0E+001
  0
INSERT
  2
_AH13
  8
1
 62
4
 10
8.4061E+001
 20
1.4210637E+002
 41
3.5
 42
3.5
 43
3.5
 50
9.0E+001
  0
INSERT
  2
_AH13
  8
1
 62
4
 10
8.4061E+001
 20
2.1610637E+002
 41
3.5
 42
3.5
 43
3.5
 50
2.7E+002
  0
ENDBLK
  0
BLOCK
  2
*D1058
  3
*D
 10
0.0
 20
0.0
 70
65
  0
LINE
  8
1
  6
CONTINUOUS
 62
4
 10
1.1176499E+002
 20
1.5210637E+002
 11
1.2709763E+002
 21
1.5210637E+002
  0
LINE
  8
1
  6
CONTINUOUS
 62
4
 10
1.1188168E+002
 20
2.0610637E+002
 11
1.2709763E+002
 21
2.0610637E+002
  0
LINE
  8
1
  6
CONTINUOUS
 62
4
 10
1.2609763E+002
 20
1.5210637E+002
 11
1.2609763E+002
 21
1.7929794E+002
  0
LINE
  8
1
  6
CONTINUOUS
 62
4
 10
1.2609763E+002
 20
2.0610637E+002
 11
1.2609763E+002
 21
1.7929794E+002
  0
TEXT
  8
1
  6
CONTINUOUS
 62
4
 10
1.2493112E+002
 20
1.7696461E+002
 40
3.5
  1
54
 41
6.6666667E-001
 50
9.0E+001
  0
INSERT
  2
_AH13
  8
1
 62
4
 10
1.2609763E+002
 20
1.5210637E+002
 41
3.5
 42
3.5
 43
3.5
 50
9.0E+001
  0
INSERT
  2
_AH13
  8
1
 62
4
 10
1.2609763E+002
 20
2.0610637E+002
 41
3.5
 42
3.5
 43
3.5
 50
2.7E+002
  0
ENDBLK
  0
BLOCK
  2
*D1067
  3
*D
 10
0.0
 20
0.0
 70
65
  0
LINE
  8
1
  6
CONTINUOUS
 62
4
 10
1.1890076E+002
 20
1.3310637E+002
 11
1.3344508E+002
 21
1.3310637E+002
  0
LINE
  8
1
  6
CONTINUOUS
 62
4
 10
1.1876499E+002
 20
2.2510637E+002
 11
1.3344508E+002
 21
2.2510637E+002
  0
LINE
  8
1
  6
CONTINUOUS
 62
4
 10
1.3244508E+002
 20
1.3310637E+002
 11
1.3244508E+002
 21
1.842874E+002
  0
LINE
  8
1
  6
CONTINUOUS
 62
4
 10
1.3244508E+002
 20
2.2510637E+002
 11
1.3244508E+002
 21
1.842874E+002
  0
TEXT
  8
1
  6
CONTINUOUS
 62
4
 10
1.3127858E+002
 20
1.8195406E+002
 40
3.5
  1
92
 41
6.6666667E-001
 50
9.0E+001
  0
INSERT
  2
_AH13
  8
1
 62
4
 10
1.3244508E+002
 20
1.3310637E+002
 41
3.5
 42
3.5
 43
3.5
 50
9.0E+001
  0
INSERT
  2
_AH13
  8
1
 62
4
 10
1.3244508E+002
 20
2.2510637E+002
 41
3.5
 42
3.5
 43
3.5
 50
2.7E+002
  0
ENDBLK
  0
BLOCK
  2
*D1077
  3
*D
 10
0.0
 20
0.0
 70
65
  0
LINE
  8
1
  6
CONTINUOUS
 62
4
 10
1.1076499E+002
 20
1.9660857E+002
 11
1.1076499E+002
 21
1.9548679E+002
  0
LINE
  8
1
  6
CONTINUOUS
 62
4
 10
1.0076499E+002
 20
1.9705605E+002
 11
1.0076499E+002
 21
1.9548679E+002
  0
LINE
  8
1
  6
CONTINUOUS
 62
4
 10
1.1676499E+002
 20
1.9448679E+002
 11
1.1076499E+002
 21
1.9448679E+002
  0
LINE
  8
1
  6
CONTINUOUS
 62
4
 10
1.0076499E+002
 20
1.9448679E+002
 11
8.5978695E+001
 21
1.9448679E+002
  0
TEXT
  8
1
  6
CONTINUOUS
 62
4
 10
8.7478695E+001
 20
1.9565329E+002
 40
3.5
  1
10
 41
6.6666667E-001
 50
3.6E+002
  0
INSERT
  2
_AH13
  8
1
 62
4
 10
1.1076499E+002
 20
1.9448679E+002
 41
3.5
 42
3.5
 43
3.5
 50
3.6E+002
  0
INSERT
  2
_AH13
  8
1
 62
4
 10
1.0076499E+002
 20
1.9448679E+002
 41
3.5
 42
3.5
 43
3.5
 50
5.4E+002
  0
ENDBLK
  0
BLOCK
  2
*D1089
  3
*D
 10
0.0
 20
0.0
 70
65
  0
LINE
  8
1
  6
CONTINUOUS
 62
4
 10
1.0931499E+002
 20
1.1223103E+002
 11
1.0931499E+002
 21
1.0423491E+002
  0
LINE
  8
1
  6
CONTINUOUS
 62
4
 10
1.0221499E+002
 20
1.1223103E+002
 11
1.0221499E+002
 21
1.0423491E+002
  0
LINE
  8
1
  6
CONTINUOUS
 62
4
 10
1.0931499E+002
 20
1.0523491E+002
 11
1.2439119E+002
 21
1.0523491E+002
  0
LINE
  8
1
  6
CONTINUOUS
 62
4
 10
9.6214989E+001
 20
1.0523491E+002
 11
1.0221499E+002
 21
1.0523491E+002
  0
TEXT
  8
1
  6
CONTINUOUS
 62
4
 10
1.1355786E+002
 20
1.0640141E+002
 40
3.5
  1
%%c7,1
 41
6.6666667E-001
 50
3.6E+002
  0
INSERT
  2
_AH13
  8
1
 62
4
 10
1.0931499E+002
 20
1.0523491E+002
 41
3.5
 42
3.5
 43
3.5
 50
3.6E+002
  0
INSERT
  2
_AH13
  8
1
 62
4
 10
1.0221499E+002
 20
1.0523491E+002
 41
3.5
 42
3.5
 43
3.5
 50
5.4E+002
  0
ENDBLK
  0
BLOCK
  2
*D1101
  3
*D
 10
0.0
 20
0.0
 70
65
  0
LINE
  8
1
  6
CONTINUOUS
 62
4
 10
1.0193934E+002
 20
1.1295537E+002
 11
9.231986E+001
 21
1.033359E+002
  0
LINE
  8
1
  6
CONTINUOUS
 62
4
 10
1.1903925E+002
 20
1.0350676E+002
 11
1.1921012E+002
 21
1.033359E+002
  0
ARC
  8
1
  6
CONTINUOUS
 62
4
 10
1.0576499E+002
 20
1.1678103E+002
 40
1.8014283E+001
 50
2.25E+002
 51
2.7E+002
  0
ARC
  8
1
  6
CONTINUOUS
 62
4
 10
1.0576499E+002
 20
1.1678103E+002
 40
1.8014283E+001
 50
2.7E+002
 51
3.15E+002
  0
TEXT
  8
1
  6
CONTINUOUS
 62
4
 10
1.0226499E+002
 20
1.0054688E+002
 40
3.5
  1
90%%d
 41
6.6666667E-001
 50
3.023E-007
  0
INSERT
  2
_AH13
  8
1
 62
4
 10
9.3026967E+001
 20
1.04043E+002
 41
3.5
 42
3.5
 43
3.5
 50
3.205748E+002
  0
INSERT
  2
_AH13
  8
1
 62
4
 10
1.1850301E+002
 20
1.04043E+002
 41
3.5
 42
3.5
 43
3.5
 50
2.194252E+002
  0
ENDBLK
  0
BLOCK
  2
*D1241
  3
*D
 10
0.0
 20
0.0
 70
65
  0
LINE
  8
1
  6
CONTINUOUS
 62
4
 10
1.0085755E+002
 20
1.5231655E+002
 11
1.0985822E+002
 21
1.5871898E+002
  0
LINE
  8
1
  6
CONTINUOUS
 62
4
 10
1.1073396E+002
 20
1.5934193E+002
 11
1.1070825E+002
 21
1.5932364E+002
  0
LINE
  8
1
  6
CONTINUOUS
 62
4
 10
1.1134597E+002
 20
1.5977726E+002
 11
1.1134458E+002
 21
1.5977628E+002
  0
SOLID
  8
1
  6
CONTINUOUS
 62
0
 10
1.0085755E+002
 20
1.5231655E+002
 11
1.0450347E+002
 21
1.5409187E+002
 12
1.0373061E+002
 22
1.5517837E+002
 13
1.0373061E+002
 23
1.5517837E+002
  0
TEXT
  8
1
  6
CONTINUOUS
 62
4
 10
1.024725E+002
 20
1.5530732E+002
 40
2.6
  1
R0,5
 41
8.0E-001
 50
3.542533E+001
  0
INSERT
  2
_AH13
  8
1
 62
4
 10
1.0085755E+002
 20
1.5231655E+002
 41
4.0
 42
4.0
 43
4.0
 50
3.542533E+001
  0
ENDBLK
  0
BLOCK
  2
*D1243
  3
*D
 10
0.0
 20
0.0
 70
65
  0
LINE
  8
1
  6
CONTINUOUS
 62
4
 10
1.1052942E+002
 20
2.0603073E+002
 11
1.0395931E+002
 21
1.9548736E+002
  0
SOLID
  8
1
  6
CONTINUOUS
 62
0
 10
1.1052942E+002
 20
2.0603073E+002
 11
1.0784814E+002
 21
2.029885E+002
 12
1.0897975E+002
 22
2.0228333E+002
 13
1.0897975E+002
 23
2.0228333E+002
  0
TEXT
  8
1
  6
CONTINUOUS
 62
4
 10
1.0347872E+002
 20
1.9755425E+002
 40
2.6
  1
R0,5
 41
8.0E-001
 50
5.8070863E+001
  0
INSERT
  2
_AH13
  8
1
 62
4
 10
1.1052942E+002
 20
2.0603073E+002
 41
4.0
 42
4.0
 43
4.0
 50
2.3807086E+002
  0
ENDBLK
  0
ENDSEC
  0
SECTION
  2
ENTITIES
  0
TEXT
  8
1
  6
CONTINUOUS
 62
1
 10
9.624386
 20
4.8782258
 40
2.4948001
  1
Techn. Änderungen vorbehalten !
 41
6.6774196E-001
 50
9.0E+001
 11
9.624386
 21
6.1256259
 73
2
  0
TEXT
  8
1
  6
CONTINUOUS
 62
1
 10
1.3019569E+001
 20
5.2313124
 40
1.7820001
  1
Es gelten unsere Überlassungs- und Nutzungsbedingungen
 41
6.7083333E-001
 50
9.0E+001
 11
1.3019569E+001
 21
6.1223125
 73
2
  0
TEXT
  8
1
  6
CONTINUOUS
 62
1
 10
1.6024679E+001
 20
4.9738551
 40
1.7820001
  1
für DORMA - Dokumente.
 41
6.6477273E-001
 50
9.0E+001
 11
1.6024679E+001
 21
5.8648551
 73
2
  0
LINE
  8
1
  6
CONTINUOUS
 62
40
 10
2.0929426E+001
 20
6.1374007
 11
2.0929426E+001
 21
2.902674E+002
  0
LINE
  8
1
  6
CONTINUOUS
 62
40
 10
2.0929426E+001
 20
2.902674E+002
 11
2.0407943E+002
 21
2.902674E+002
  0
LINE
  8
1
  6
CONTINUOUS
 62
40
 10
2.0407943E+002
 20
2.902674E+002
 11
2.0407943E+002
 21
6.1374007
  0
INSERT
  2
*XH25
  8
1
 10
3.9249555E+001
 20
3.1074782E+001
  0
LINE
  8
1
  6
CONTINUOUS
 62
1
 10
4.6936995E+001
 20
3.0581481E+001
 11
4.7683581E+001
 21
3.0581481E+001
  0
LINE
  8
1
  6
CONTINUOUS
 62
1
 10
4.7683581E+001
 20
3.0581481E+001
 11
4.7422063E+001
 21
3.2034456E+001
  0
LINE
  8
1
  6
CONTINUOUS
 62
1
 10
4.7422063E+001
 20
3.2034456E+001
 11
4.7198514E+001
 21
3.2034456E+001
  0
LINE
  8
1
  6
CONTINUOUS
 62
1
 10
4.7198514E+001
 20
3.2034456E+001
 11
4.6936995E+001
 21
3.0581481E+001
  0
LINE
  8
1
  6
CONTINUOUS
 62
1
 10
4.5354375E+001
 20
2.9240292E+001
 11
4.6248492E+001
 21
3.3040362E+001
  0
LINE
  8
1
  6
CONTINUOUS
 62
1
 10
4.6248492E+001
 20
3.3040362E+001
 11
4.8372062E+001
 21
3.3040362E+001
  0
LINE
  8
1
  6
CONTINUOUS
 62
1
 10
4.8372062E+001
 20
3.3040362E+001
 11
4.9266201E+001
 21
2.9240292E+001
  0
LINE
  8
1
  6
CONTINUOUS
 62
1
 10
4.9266201E+001
 20
2.9240292E+001
 11
4.7925013E+001
 21
2.9240292E+001
  0
LINE
  8
1
  6
CONTINUOUS
 62
1
 10
4.7925013E+001
 20
2.9240292E+001
 11
4.7804284E+001
 21
2.9910886E+001
  0
LINE
  8
1
  6
CONTINUOUS
 62
1
 10
4.7804284E+001
 20
2.9910886E+001
 11
4.6816266E+001
 21
2.9910886E+001
  0
LINE
  8
1
  6
CONTINUOUS
 62
1
 10
4.6816266E+001
 20
2.9910886E+001
 11
4.6695564E+001
 21
2.9240292E+001
  0
LINE
  8
1
  6
CONTINUOUS
 62
1
 10
4.6695564E+001
 20
2.9240292E+001
 11
4.5354375E+001
 21
2.9240292E+001
  0
LINE
  8
1
  6
CONTINUOUS
 62
1
 10
4.1554282E+001
 20
2.9240292E+001
 11
4.0436616E+001
 21
2.9240292E+001
  0
LINE
  8
1
  6
CONTINUOUS
 62
1
 10
4.0436616E+001
 20
2.9240292E+001
 11
4.0436616E+001
 21
3.3040362E+001
  0
LINE
  8
1
  6
CONTINUOUS
 62
1
 10
4.0436616E+001
 20
3.3040362E+001
 11
4.2224876E+001
 21
3.3040362E+001
  0
LINE
  8
1
  6
CONTINUOUS
 62
1
 10
4.2224876E+001
 20
3.3040362E+001
 11
4.2716662E+001
 21
3.0805022E+001
  0
LINE
  8
1
  6
CONTINUOUS
 62
1
 10
4.2716662E+001
 20
3.0805022E+001
 11
4.2783707E+001
 21
3.0805022E+001
  0
LINE
  8
1
  6
CONTINUOUS
 62
1
 10
4.2783707E+001
 20
3.0805022E+001
 11
4.2850779E+001
 21
3.0805022E+001
  0
LINE
  8
1
  6
CONTINUOUS
 62
1
 10
4.2850779E+001
 20
3.0805022E+001
 11
4.3342565E+001
 21
3.3040362E+001
  0
LINE
  8
1
  6
CONTINUOUS
 62
1
 10
4.3342565E+001
 20
3.3040362E+001
 11
4.5130826E+001
 21
3.3040362E+001
  0
LINE
  8
1
  6
CONTINUOUS
 62
1
 10
4.5130826E+001
 20
3.3040362E+001
 11
4.5130826E+001
 21
2.9240292E+001
  0
LINE
  8
1
  6
CONTINUOUS
 62
1
 10
4.5130826E+001
 20
2.9240292E+001
 11
4.401316E+001
 21
2.9240292E+001
  0
LINE
  8
1
  6
CONTINUOUS
 62
1
 10
4.401316E+001
 20
2.9240292E+001
 11
4.401316E+001
 21
3.2034456E+001
  0
LINE
  8
1
  6
CONTINUOUS
 62
1
 10
4.401316E+001
 20
3.2034456E+001
 11
4.39014E+001
 21
3.2034456E+001
  0
LINE
  8
1
  6
CONTINUOUS
 62
1
 10
4.39014E+001
 20
3.2034456E+001
 11
4.3286661E+001
 21
2.9240292E+001
  0
LINE
  8
1
  6
CONTINUOUS
 62
1
 10
4.3286661E+001
 20
2.9240292E+001
 11
4.2280758E+001
 21
2.9240292E+001
  0
LINE
  8
1
  6
CONTINUOUS
 62
1
 10
4.2280758E+001
 20
2.9240292E+001
 11
4.1666045E+001
 21
3.2034456E+001
  0
LINE
  8
1
  6
CONTINUOUS
 62
1
 10
4.1666045E+001
 20
3.2034456E+001
 11
4.1554282E+001
 21
3.2034456E+001
  0
LINE
  8
1
  6
CONTINUOUS
 62
1
 10
4.1554282E+001
 20
3.2034456E+001
 11
4.1554282E+001
 21
2.9240292E+001
  0
ARC
  8
1
  6
CONTINUOUS
 62
1
 10
3.8268325E+001
 20
3.1883578E+001
 40
3.8000733E-001
 50
2.7000106E+002
 51
3.599995E+002
  0
LINE
  8
1
  6
CONTINUOUS
 62
1
 10
3.8268332E+001
 20
3.1503571E+001
 11
3.7754215E+001
 21
3.1503571E+001
  0
LINE
  8
1
  6
CONTINUOUS
 62
1
 10
3.7754215E+001
 20
3.1503571E+001
 11
3.7754215E+001
 21
3.2341821E+001
  0
LINE
  8
1
  6
CONTINUOUS
 62
1
 10
3.7754215E+001
 20
3.2341821E+001
 11
3.8268332E+001
 21
3.2341821E+001
  0
ARC
  8
1
  6
CONTINUOUS
 62
1
 10
3.8268331E+001
 20
3.1961804E+001
 40
3.8001767E-001
 50
9.153818E-004
 51
8.9999944E+001
  0
LINE
  8
1
  6
CONTINUOUS
 62
1
 10
3.8648349E+001
 20
3.196181E+001
 11
3.8648332E+001
 21
3.1883575E+001
  0
LINE
  8
1
  6
CONTINUOUS
 62
1
 10
3.6636524E+001
 20
2.9240292E+001
 11
3.6636524E+001
 21
3.3040362E+001
  0
LINE
  8
1
  6
CONTINUOUS
 62
1
 10
3.6636524E+001
 20
3.3040362E+001
 11
3.8871877E+001
 21
3.3040362E+001
  0
ARC
  8
1
  6
CONTINUOUS
 62
1
 10
3.8871872E+001
 20
3.192269E+001
 40
1.117672
 50
3.5999971E+002
 51
4.4999971E+002
  0
ARC
  8
1
  6
CONTINUOUS
 62
1
 10
3.876226E+001
 20
3.1921617E+001
 40
1.2272843
 50
3.4224213E+002
 51
3.6004983E+002
  0
ARC
  8
1
  6
CONTINUOUS
 62
1
 10
3.8814649E+001
 20
3.1904059E+001
 40
1.1720366
 50
3.2391516E+002
 51
3.422785E+002
  0
ARC
  8
1
  6
CONTINUOUS
 62
1
 10
3.886816E+001
 20
3.1864952E+001
 40
1.1057582
 50
3.0482971E+002
 51
3.2391966E+002
  0
ARC
  8
1
  6
CONTINUOUS
 62
1
 10
3.8897322E+001
 20
3.1824217E+001
 40
1.0556655
 50
2.8510451E+002
 51
3.0479323E+002
  0
LINE
  8
1
  6
CONTINUOUS
 62
1
 10
3.9172408E+001
 20
3.0805022E+001
 11
3.9989544E+001
 21
2.9240292E+001
  0
LINE
  8
1
  6
CONTINUOUS
 62
1
 10
3.9989544E+001
 20
2.9240292E+001
 11
3.8760118E+001
 21
2.9240292E+001
  0
LINE
  8
1
  6
CONTINUOUS
 62
1
 10
3.8760118E+001
 20
2.9240292E+001
 11
3.8134211E+001
 21
3.0805022E+001
  0
LINE
  8
1
  6
CONTINUOUS
 62
1
 10
3.8134211E+001
 20
3.0805022E+001
 11
3.7754215E+001
 21
3.0805022E+001
  0
LINE
  8
1
  6
CONTINUOUS
 62
1
 10
3.7754215E+001
 20
3.0805022E+001
 11
3.7754215E+001
 21
2.9240292E+001
  0
LINE
  8
1
  6
CONTINUOUS
 62
1
 10
3.7754215E+001
 20
2.9240292E+001
 11
3.6636524E+001
 21
2.9240292E+001
  0
ARC
  8
1
  6
CONTINUOUS
 62
1
 10
3.4552086E+001
 20
3.0402659E+001
 40
3.8000005E-001
 50
2.6999996E+002
 51
3.6000145E+002
  0
LINE
  8
1
  6
CONTINUOUS
 62
1
 10
3.4552085E+001
 20
3.0022659E+001
 11
3.4473849E+001
 21
3.0022659E+001
  0
ARC
  8
1
  6
CONTINUOUS
 62
1
 10
3.4473852E+001
 20
3.0402665E+001
 40
3.8000624E-001
 50
1.7999948E+002
 51
2.6999953E+002
  0
LINE
  8
1
  6
CONTINUOUS
 62
1
 10
3.4093846E+001
 20
3.0402669E+001
 11
3.4093846E+001
 21
3.1877986E+001
  0
ARC
  8
1
  6
CONTINUOUS
 62
1
 10
3.4473852E+001
 20
3.1877989E+001
 40
3.8000686E-001
 50
9.0000566E+001
 51
1.8000058E+002
  0
LINE
  8
1
  6
CONTINUOUS
 62
1
 10
3.4473849E+001
 20
3.2257996E+001
 11
3.4552085E+001
 21
3.2257996E+001
  0
ARC
  8
1
  6
CONTINUOUS
 62
1
 10
3.4552075E+001
 20
3.1877996E+001
 40
3.8000066E-001
 50
3.5999849E+002
 51
4.4999838E+002
  0
LINE
  8
1
  6
CONTINUOUS
 62
1
 10
3.4932075E+001
 20
3.1877986E+001
 11
3.4932086E+001
 21
3.0402669E+001
  0
ARC
  8
1
  6
CONTINUOUS
 62
1
 10
3.484826E+001
 20
3.0581471E+001
 40
1.3411926
 50
2.7000015E+002
 51
3.6000041E+002
  0
LINE
  8
1
  6
CONTINUOUS
 62
1
 10
3.4848263E+001
 20
2.9240278E+001
 11
3.4177669E+001
 21
2.9240278E+001
  0
ARC
  8
1
  6
CONTINUOUS
 62
1
 10
3.4177654E+001
 20
3.0581485E+001
 40
1.3412069
 50
1.800002E+002
 51
2.7000064E+002
  0
LINE
  8
1
  6
CONTINUOUS
 62
1
 10
3.2836447E+001
 20
3.0581481E+001
 11
3.2836447E+001
 21
3.1699158E+001
  0
ARC
  8
1
  6
CONTINUOUS
 62
1
 10
3.4177662E+001
 20
3.1699152E+001
 40
1.3412151
 50
8.9999705E+001
 51
1.7999971E+002
  0
LINE
  8
1
  6
CONTINUOUS
 62
1
 10
3.4177669E+001
 20
3.3040367E+001
 11
3.4848263E+001
 21
3.3040367E+001
  0
ARC
  8
1
  6
CONTINUOUS
 62
1
 10
3.4848264E+001
 20
3.1699157E+001
 40
1.3412098
 50
6.32617E-005
 51
9.0000039E+001
  0
LINE
  8
1
  6
CONTINUOUS
 62
1
 10
3.6189474E+001
 20
3.1699158E+001
 11
3.6189452E+001
 21
3.0581481E+001
  0
ARC
  8
1
  6
CONTINUOUS
 62
1
 10
3.1159952E+001
 20
3.0469722E+001
 40
1.2294335
 50
2.7000028E+002
 51
3.6000014E+002
  0
LINE
  8
1
  6
CONTINUOUS
 62
1
 10
3.1159958E+001
 20
2.9240288E+001
 11
2.914815E+001
 21
2.9240288E+001
  0
LINE
  8
1
  6
CONTINUOUS
 62
1
 10
2.914815E+001
 20
2.9240288E+001
 11
2.914815E+001
 21
3.3040362E+001
  0
LINE
  8
1
  6
CONTINUOUS
 62
1
 10
2.914815E+001
 20
3.3040362E+001
 11
3.1159958E+001
 21
3.3040362E+001
  0
ARC
  8
1
  6
CONTINUOUS
 62
1
 10
3.1159954E+001
 20
3.1810928E+001
 40
1.2294342
 50
4.001E-005
 51
8.999983E+001
  0
LINE
  8
1
  6
CONTINUOUS
 62
1
 10
3.2389388E+001
 20
3.1810929E+001
 11
3.2389385E+001
 21
3.0469725E+001
  0
ARC
  8
1
  6
CONTINUOUS
 62
1
 10
3.0936426E+001
 20
3.024619E+001
 40
2.2353157E-001
 50
2.6999599E+002
 51
3.5999819E+002
  0
LINE
  8
1
  6
CONTINUOUS
 62
1
 10
3.0936411E+001
 20
3.0022659E+001
 11
3.0377577E+001
 21
3.0022659E+001
  0
LINE
  8
1
  6
CONTINUOUS
 62
1
 10
3.0377577E+001
 20
3.0022659E+001
 11
3.0377577E+001
 21
3.2257997E+001
  0
LINE
  8
1
  6
CONTINUOUS
 62
1
 10
3.0377577E+001
 20
3.2257997E+001
 11
3.0936411E+001
 21
3.2257997E+001
  0
ARC
  8
1
  6
CONTINUOUS
 62
1
 10
3.0936409E+001
 20
3.2034457E+001
 40
2.2353978E-001
 50
3.5999953E+002
 51
4.4999949E+002
  0
LINE
  8
1
  6
CONTINUOUS
 62
1
 10
3.1159948E+001
 20
3.2034456E+001
 11
3.1159958E+001
 21
3.0246183E+001
  0
INSERT
  2
*XH26
  8
1
 10
3.8664912E+001
 20
3.7231708E+001
  0
ARC
  8
1
  6
CONTINUOUS
 62
1
 10
3.8664907E+001
 20
5.4709486E+001
 40
1.8247687E+001
 50
2.3080505E+002
 51
2.6231282E+002
  0
LINE
  8
1
  6
CONTINUOUS
 62
1
 10
2.7133081E+001
 20
4.0567526E+001
 11
2.9084874E+001
 21
3.3724658E+001
  0
LINE
  8
1
  6
CONTINUOUS
 62
1
 10
2.9084874E+001
 20
3.3724658E+001
 11
3.0518971E+001
 21
3.3724658E+001
  0
LINE
  8
1
  6
CONTINUOUS
 62
1
 10
3.0518971E+001
 20
3.3724658E+001
 11
2.955725E+001
 21
3.7078582E+001
  0
ARC
  8
1
  6
CONTINUOUS
 62
1
 10
3.8664897E+001
 20
5.4709489E+001
 40
1.9844347E+001
 50
2.4268035E+002
 51
2.604333E+002
  0
ARC
  8
1
  6
CONTINUOUS
 62
1
 10
3.8665172E+001
 20
5.4709449E+001
 40
1.9844354E+001
 50
2.604325E+002
 51
2.6471274E+002
  0
LINE
  8
1
  6
CONTINUOUS
 62
1
 10
3.683653E+001
 20
3.4949529E+001
 11
3.8664915E+001
 21
3.8116378E+001
  0
LINE
  8
1
  6
CONTINUOUS
 62
1
 10
3.8664915E+001
 20
3.8116378E+001
 11
4.0493294E+001
 21
3.4949529E+001
  0
ARC
  8
1
  6
CONTINUOUS
 62
1
 10
3.8664915E+001
 20
5.4709483E+001
 40
1.9844363E+001
 50
2.752865E+002
 51
2.9731967E+002
  0
LINE
  8
1
  6
CONTINUOUS
 62
1
 10
4.7772576E+001
 20
3.7078567E+001
 11
4.6810855E+001
 21
3.3724658E+001
  0
LINE
  8
1
  6
CONTINUOUS
 62
1
 10
4.6810855E+001
 20
3.3724658E+001
 11
4.8244951E+001
 21
3.3724658E+001
  0
LINE
  8
1
  6
CONTINUOUS
 62
1
 10
4.8244951E+001
 20
3.3724658E+001
 11
5.0196743E+001
 21
4.0567526E+001
  0
ARC
  8
1
  6
CONTINUOUS
 62
1
 10
3.8664918E+001
 20
5.4709484E+001
 40
1.8247684E+001
 50
2.7768718E+002
 51
3.0919495E+002
  0
LINE
  8
1
  6
CONTINUOUS
 62
1
 10
4.1105809E+001
 20
3.6625789E+001
 11
3.8664915E+001
 21
4.0853531E+001
  0
LINE
  8
1
  6
CONTINUOUS
 62
1
 10
3.8664915E+001
 20
4.0853531E+001
 11
3.6224015E+001
 21
3.6625789E+001
  0
LINE
  8
1
  6
HIDDEN
 62
40
 10
2.9775505E+001
 20
3.6317487E+001
 11
3.0287907E+001
 21
3.4530499E+001
  0
TEXT
  8
1
  6
CONTINUOUS
 62
6
 10
1.86694E+002
 20
2.7493398E+001
 40
9.9
  1
21
 41
7.0E-001
 72
1
 11
1.93624E+002
 21
3.2443398E+001
 73
2
  0
TEXT
  8
1
  6
CONTINUOUS
 62
40
 10
1.4396835E+002
 20
1.058835E+001
 40
4.95
  1
DSM_0021_00_01
 41
6.5892857E-001
  0
TEXT
  8
1
  6
CONTINUOUS
 62
3
 10
5.8901612E+001
 20
3.6875795E+001
 40
5.0
  1
Schliessblech für Riegelschloss
 41
6.6774196E-001
 72
1
 11
1.1065161E+002
 21
3.9375795E+001
 73
2
  0
LINE
  8
1
  6
CONTINUOUS
 62
1
 10
2.7701947E-001
 20
1.3129781
 11
2.0817702E+002
 21
1.3129781
  0
LINE
  8
1
  6
CONTINUOUS
 62
1
 10
2.0817702E+002
 20
1.3129781
 11
2.0817702E+002
 21
2.9534298E+002
  0
LINE
  8
1
  6
CONTINUOUS
 62
1
 10
2.0817702E+002
 20
2.9534298E+002
 11
2.7701947E-001
 21
2.9534298E+002
  0
LINE
  8
1
  6
CONTINUOUS
 62
1
 10
2.7701947E-001
 20
2.9534298E+002
 11
2.7701947E-001
 21
1.3129781
  0
LINE
  8
1
  6
CONTINUOUS
 62
1
 10
2.7701947E-001
 20
1.3129781
 11
2.7701947E-001
 21
1.3129781
  0
TEXT
  8
1
  6
CONTINUOUS
 62
150
 10
5.8699975E+001
 20
2.9791144E+001
 40
3.96
  1
strike plate for deadlock
 41
6.66E-001
 72
1
 11
9.1666975E+001
 21
3.1771144E+001
 73
2
  0
LINE
  8
1
  6
CONTINUOUS
 62
40
 10
2.0929426E+001
 20
6.1374007
 11
2.0407943E+002
 21
6.1374007
  0
LINE
  8
1
  6
CONTINUOUS
 62
40
 10
1.9386756E+002
 20
1.9997401E+001
 11
1.9386756E+002
 21
6.1374007
  0
LINE
  8
1
  6
CONTINUOUS
 62
1
 10
1.1294257
 20
1.482024E+002
 11
1.3009426E+001
 21
1.482024E+002
  0
TEXT
  8
1
  6
CONTINUOUS
 62
1
 10
2.8681086E+001
 20
2.4777913E+001
 40
1.98
  1
 Schlosstechnik
 41
6.66E-001
 72
1
 11
3.8571186E+001
 21
2.5767913E+001
 73
2
  0
LINE
  8
1
  6
CONTINUOUS
 62
40
 10
2.0929426E+001
 20
4.5737401E+001
 11
2.0407943E+002
 21
4.5737401E+001
  0
LINE
  8
1
  6
CONTINUOUS
 62
40
 10
5.6569426E+001
 20
4.5737401E+001
 11
5.6569426E+001
 21
6.1374007
  0
LINE
  8
1
  6
CONTINUOUS
 62
40
 10
1.3972943E+002
 20
1.9997401E+001
 11
1.3972943E+002
 21
6.1374007
  0
LINE
  8
1
  6
CONTINUOUS
 62
1
 10
2.0929426E+001
 20
1.6037401E+001
 11
5.6569426E+001
 21
1.6037401E+001
  0
LINE
  8
1
  6
CONTINUOUS
 62
1
 10
2.0929426E+001
 20
1.1087401E+001
 11
5.6569426E+001
 21
1.1087401E+001
  0
LINE
  8
1
  6
CONTINUOUS
 62
40
 10
2.0929426E+001
 20
1.9997401E+001
 11
2.0407943E+002
 21
1.9997401E+001
  0
TEXT
  8
1
  6
CONTINUOUS
 62
1
 10
2.1693395E+001
 20
1.2918681E+001
 40
1.485
  1
Gezeichn.
 41
6.5E-001
 72
1
 11
2.603702E+001
 21
1.3661181E+001
 73
2
  0
TEXT
  8
1
  6
CONTINUOUS
 62
1
 10
2.1713892E+001
 20
8.1214736
 40
1.485
  1
Geprüft
 41
6.4285714E-001
 72
1
 11
2.5055142E+001
 21
8.8639736
 73
2
  0
TEXT
  8
1
  6
CONTINUOUS
 62
1
 10
3.4842507E+001
 20
1.7355464E+001
 40
1.485
  1
Datum
 41
6.3E-001
 72
1
 11
3.7181382E+001
 21
1.8097964E+001
 73
2
  0
TEXT
  8
1
  6
CONTINUOUS
 62
1
 10
4.8176545E+001
 20
1.7355464E+001
 40
1.485
  1
Name
 41
6.1875E-001
 72
1
 11
5.0014233E+001
 21
1.8097964E+001
 73
2
  0
LINE
  8
1
  6
CONTINUOUS
 62
1
 10
3.0829426E+001
 20
1.9997401E+001
 11
3.0829426E+001
 21
6.1374007
  0
LINE
  8
1
  6
CONTINUOUS
 62
1
 10
4.3699426E+001
 20
1.9997401E+001
 11
4.3699426E+001
 21
6.1374007
  0
TEXT
  8
1
  6
CONTINUOUS
 62
1
 10
3.1909404E+001
 20
1.2538116E+001
 40
1.98
  1
09.04.03
 41
6.46875E-001
 72
1
 11
3.7032654E+001
 21
1.3528116E+001
 73
2
  0
TEXT
  8
1
  6
CONTINUOUS
 62
1
 10
3.6392637E+001
 20
7.3583723
 40
1.98
  1
*
 72
1
 11
3.7382637E+001
 21
8.3483723
 73
2
  0
TEXT
  8
1
  6
CONTINUOUS
 62
1
 10
4.4998757E+001
 20
1.2608113E+001
 40
1.98
  1
Hartmann
 41
6.46875E-001
 72
1
 11
5.0122007E+001
 21
1.3598113E+001
 73
2
  0
TEXT
  8
1
  6
CONTINUOUS
 62
1
 10
4.9202004E+001
 20
7.4283688
 40
1.98
  1
*
 72
1
 11
5.0192004E+001
 21
8.4183688
 73
2
  0
TEXT
  8
1
  6
CONTINUOUS
 62
221
 10
5.924415E+001
 20
1.3733928E+001
 40
3.96
  1
Vollblattschlösser
 41
6.625E-001
 72
1
 11
8.285565E+001
 21
1.5713928E+001
 73
2
  0
TEXT
  8
1
  6
CONTINUOUS
 62
150
 10
5.943382E+001
 20
7.8385414
 40
3.5
  1
mortice locks
 41
6.5769231E-001
 72
1
 11
7.439632E+001
 21
9.5885414
 73
2
  0
LINE
  8
1
  6
CONTINUOUS
 62
40
 10
1.8130943E+002
 20
4.5737401E+001
 11
1.8130943E+002
 21
1.9997401E+001
  0
TEXT
  8
1
  6
CONTINUOUS
 62
1
 10
1.951429E+002
 20
1.8010903E+001
 40
1.485
  1
Version:
 41
6.46875E-001
 72
1
 11
1.9898533E+002
 21
1.8753403E+001
 73
2
  0
TEXT
  8
1
  6
CONTINUOUS
 62
40
 10
1.9660014E+002
 20
1.0497836E+001
 40
4.95
  1
A
 72
1
 11
1.9907514E+002
 21
1.2972836E+001
 73
2
  0
TEXT
  8
1
  6
CONTINUOUS
 62
1
 10
4.2078587
 20
1.9467466E+001
 40
1.78
  1
Copyright    DORMA 1999 
 41
6.65625E-001
 50
9.0E+001
 72
1
 11
1.8425609E+001
 21
2.0357466E+001
 73
2
  0
CIRCLE
  8
1
  6
CONTINUOUS
 62
40
 10
1.8348802E+001
 20
1.9094063E+001
 40
9.9259683E-001
  0
TEXT
  8
1
  6
CONTINUOUS
 62
1
 10
1.7853802E+001
 20
1.8599063E+001
 40
9.9E-001
  1
C
 50
9.0E+001
 72
1
 11
1.8348802E+001
 21
1.9094063E+001
 73
2
  0
TEXT
  8
1
  6
CONTINUOUS
 62
150
 10
1.8354745E+002
 20
5.605477E+001
 40
4.2
  1
M. 1:1
 41
6.38E-001
 72
1
 11
1.9158625E+002
 21
5.815477E+001
 73
2
  0
TEXT
  8
1
  6
CONTINUOUS
 62
1
 10
1.5548965E+002
 20
5.0164518E+001
 40
2.5
  1
Zeichn.-Nr. 501531-00-1-40
 41
6.6634615E-001
 72
1
 11
1.771459E+002
 21
5.1414518E+001
 73
2
  0
CIRCLE
  8
1
  6
CONTINUOUS
 62
40
 10
1.0576499E+002
 20
2.1610637E+002
 40
2.8
  0
CIRCLE
  8
1
  6
CONTINUOUS
 62
40
 10
1.0576499E+002
 20
1.4210637E+002
 40
2.8
  0
CIRCLE
  8
1
  6
CONTINUOUS
 62
40
 10
1.0576499E+002
 20
1.4210637E+002
 40
3.55
  0
CIRCLE
  8
1
  6
CONTINUOUS
 62
40
 10
1.0576499E+002
 20
2.1610637E+002
 40
3.55
  0
LINE
  8
1
  6
CENTERLINE
 62
1
 10
1.0576499E+002
 20
1.9544717E+002
 11
1.0576499E+002
 21
1.630262E+002
  0
LINE
  8
1
  6
CENTERLINE
 62
1
 10
1.0056941E+002
 20
2.1610637E+002
 11
1.1095671E+002
 21
2.1610637E+002
  0
LINE
  8
1
  6
CENTERLINE
 62
1
 10
1.0056941E+002
 20
1.4210637E+002
 11
1.1212402E+002
 21
1.4210637E+002
  0
ARC
  8
1
  6
CONTINUOUS
 62
40
 10
1.1026499E+002
 20
1.5260637E+002
 40
4.9999986E-001
 50
2.6999998E+002
 51
3.6000002E+002
  0
LINE
  8
1
  6
CONTINUOUS
 62
40
 10
1.1026499E+002
 20
1.5210637E+002
 11
1.0126499E+002
 21
1.5210637E+002
  0
ARC
  8
1
  6
CONTINUOUS
 62
40
 10
1.0126499E+002
 20
1.5260637E+002
 40
4.9999977E-001
 50
1.7999997E+002
 51
2.7000003E+002
  0
LINE
  8
1
  6
CONTINUOUS
 62
40
 10
1.0076499E+002
 20
1.5260637E+002
 11
1.0076499E+002
 21
2.0560637E+002
  0
ARC
  8
1
  6
CONTINUOUS
 62
40
 10
1.0126499E+002
 20
2.0560637E+002
 40
5.0000021E-001
 50
9.0000024E+001
 51
1.7999998E+002
  0
LINE
  8
1
  6
CONTINUOUS
 62
40
 10
1.0126499E+002
 20
2.0610637E+002
 11
1.1026499E+002
 21
2.0610637E+002
  0
ARC
  8
1
  6
CONTINUOUS
 62
40
 10
1.1026499E+002
 20
2.0560637E+002
 40
5.000003E-001
 50
3.46738E-005
 51
8.9999965E+001
  0
LINE
  8
1
  6
CONTINUOUS
 62
40
 10
1.1076499E+002
 20
2.0560637E+002
 11
1.1076499E+002
 21
1.5260637E+002
  0
LINE
  8
1
  6
CONTINUOUS
 62
40
 10
9.3764989E+001
 20
1.3310637E+002
 11
9.3764989E+001
 21
2.2510637E+002
  0
LINE
  8
1
  6
CONTINUOUS
 62
40
 10
9.3764989E+001
 20
2.2510637E+002
 11
1.1776499E+002
 21
2.2510637E+002
  0
LINE
  8
1
  6
CONTINUOUS
 62
40
 10
1.1776499E+002
 20
2.2510637E+002
 11
1.1776499E+002
 21
1.3310637E+002
  0
LINE
  8
1
  6
CONTINUOUS
 62
40
 10
1.1776499E+002
 20
1.3310637E+002
 11
9.3764989E+001
 21
1.3310637E+002
  0
LINE
  8
1
  6
CONTINUOUS
 62
40
 10
1.0931499E+002
 20
1.1323103E+002
 11
1.0856499E+002
 21
1.1398103E+002
  0
LINE
  8
1
  6
CONTINUOUS
 62
40
 10
1.0856499E+002
 20
1.1398103E+002
 11
1.0931499E+002
 21
1.1473103E+002
  0
LINE
  8
1
  6
CONTINUOUS
 62
40
 10
1.0296499E+002
 20
1.1398103E+002
 11
1.0856499E+002
 21
1.1398103E+002
  0
LINE
  8
1
  6
CENTERLINE
 62
1
 10
1.0576499E+002
 20
1.1646222E+002
 11
1.0576499E+002
 21
1.1146093E+002
  0
LINE
  8
1
  6
CONTINUOUS
 62
40
 10
1.0221499E+002
 20
1.1323103E+002
 11
1.0296499E+002
 21
1.1398103E+002
  0
LINE
  8
1
  6
CONTINUOUS
 62
40
 10
1.0296499E+002
 20
1.1398103E+002
 11
1.0221499E+002
 21
1.1473103E+002
  0
LINE
  8
1
  6
HIDDEN
 62
1
 10
1.0076499E+002
 20
1.1473103E+002
 11
1.0076499E+002
 21
1.1323103E+002
  0
LINE
  8
1
  6
HIDDEN
 62
1
 10
1.1076499E+002
 20
1.1473103E+002
 11
1.1076499E+002
 21
1.1323103E+002
  0
LINE
  8
1
  6
CONTINUOUS
 62
40
 10
1.1776499E+002
 20
1.1323103E+002
 11
9.3764989E+001
 21
1.1323103E+002
  0
LINE
  8
1
  6
CONTINUOUS
 62
40
 10
9.3764989E+001
 20
1.1323103E+002
 11
9.3764989E+001
 21
1.1473103E+002
  0
LINE
  8
1
  6
CONTINUOUS
 62
40
 10
9.3764989E+001
 20
1.1473103E+002
 11
1.0140302E+002
 21
1.1473103E+002
  0
LINE
  8
1
  6
CONTINUOUS
 62
40
 10
1.1776499E+002
 20
1.1473103E+002
 11
1.1776499E+002
 21
1.1323103E+002
  0
LINE
  8
1
  6
CONTINUOUS
 62
1
 10
1.1000236E+002
 20
1.1473103E+002
 11
1.0931499E+002
 21
1.1473103E+002
  0
LINE
  8
1
  6
CONTINUOUS
 62
1
 10
1.0931499E+002
 20
1.1473103E+002
 11
1.0856499E+002
 21
1.1398103E+002
  0
LINE
  8
1
  6
CONTINUOUS
 62
1
 10
1.0856499E+002
 20
1.1398103E+002
 11
1.0931499E+002
 21
1.1323103E+002
  0
LINE
  8
1
  6
CONTINUOUS
 62
1
 10
1.0931499E+002
 20
1.1323103E+002
 11
1.1023765E+002
 21
1.1323103E+002
  0
LINE
  8
1
  6
CONTINUOUS
 62
1
 10
1.1023765E+002
 20
1.1323103E+002
 11
1.1025032E+002
 21
1.1326903E+002
  0
LINE
  8
1
  6
CONTINUOUS
 62
1
 10
1.1025032E+002
 20
1.1326903E+002
 11
1.1026565E+002
 21
1.1332999E+002
  0
LINE
  8
1
  6
CONTINUOUS
 62
1
 10
1.1026565E+002
 20
1.1332999E+002
 11
1.1027545E+002
 21
1.1339332E+002
  0
LINE
  8
1
  6
CONTINUOUS
 62
1
 10
1.1027545E+002
 20
1.1339332E+002
 11
1.1027934E+002
 21
1.134655E+002
  0
LINE
  8
1
  6
CONTINUOUS
 62
1
 10
1.1027934E+002
 20
1.134655E+002
 11
1.102765E+002
 21
1.1352838E+002
  0
LINE
  8
1
  6
CONTINUOUS
 62
1
 10
1.102765E+002
 20
1.1352838E+002
 11
1.1026942E+002
 21
1.1358222E+002
  0
LINE
  8
1
  6
CONTINUOUS
 62
1
 10
1.1026942E+002
 20
1.1358222E+002
 11
1.1025711E+002
 21
1.1363908E+002
  0
LINE
  8
1
  6
CONTINUOUS
 62
1
 10
1.1025711E+002
 20
1.1363908E+002
 11
1.1023765E+002
 21
1.1370127E+002
  0
LINE
  8
1
  6
CONTINUOUS
 62
1
 10
1.1023765E+002
 20
1.1370127E+002
 11
1.1022098E+002
 21
1.137426E+002
  0
LINE
  8
1
  6
CONTINUOUS
 62
1
 10
1.1022098E+002
 20
1.137426E+002
 11
1.1019772E+002
 21
1.1381037E+002
  0
LINE
  8
1
  6
CONTINUOUS
 62
1
 10
1.1019772E+002
 20
1.1381037E+002
 11
1.1018921E+002
 21
1.1380551E+002
  0
LINE
  8
1
  6
CONTINUOUS
 62
1
 10
1.1018921E+002
 20
1.1380551E+002
 11
1.101585E+002
 21
1.1385435E+002
  0
LINE
  8
1
  6
CONTINUOUS
 62
1
 10
1.101585E+002
 20
1.1385435E+002
 11
1.1012401E+002
 21
1.1390016E+002
  0
LINE
  8
1
  6
CONTINUOUS
 62
1
 10
1.1012401E+002
 20
1.1390016E+002
 11
1.1008783E+002
 21
1.1394563E+002
  0
LINE
  8
1
  6
CONTINUOUS
 62
1
 10
1.1008783E+002
 20
1.1394563E+002
 11
1.1006241E+002
 21
1.1398017E+002
  0
LINE
  8
1
  6
CONTINUOUS
 62
1
 10
1.1006241E+002
 20
1.1398017E+002
 11
1.100399E+002
 21
1.1401449E+002
  0
LINE
  8
1
  6
CONTINUOUS
 62
1
 10
1.100399E+002
 20
1.1401449E+002
 11
1.1003989E+002
 21
1.140145E+002
  0
LINE
  8
1
  6
CONTINUOUS
 62
1
 10
1.1003989E+002
 20
1.140145E+002
 11
1.1001036E+002
 21
1.1409904E+002
  0
LINE
  8
1
  6
CONTINUOUS
 62
1
 10
1.1001036E+002
 20
1.1409904E+002
 11
1.1001573E+002
 21
1.1417745E+002
  0
LINE
  8
1
  6
CONTINUOUS
 62
1
 10
1.1001573E+002
 20
1.1417745E+002
 11
1.100634E+002
 21
1.1421817E+002
  0
LINE
  8
1
  6
CONTINUOUS
 62
1
 10
1.100634E+002
 20
1.1421817E+002
 11
1.1010661E+002
 21
1.1426339E+002
  0
LINE
  8
1
  6
CONTINUOUS
 62
1
 10
1.1010661E+002
 20
1.1426339E+002
 11
1.1016275E+002
 21
1.1431554E+002
  0
LINE
  8
1
  6
CONTINUOUS
 62
1
 10
1.1016275E+002
 20
1.1431554E+002
 11
1.1018083E+002
 21
1.1440589E+002
  0
LINE
  8
1
  6
CONTINUOUS
 62
1
 10
1.1018083E+002
 20
1.1440589E+002
 11
1.1016327E+002
 21
1.1447165E+002
  0
LINE
  8
1
  6
CONTINUOUS
 62
1
 10
1.1016327E+002
 20
1.1447165E+002
 11
1.1013933E+002
 21
1.1453675E+002
  0
LINE
  8
1
  6
CONTINUOUS
 62
1
 10
1.1013933E+002
 20
1.1453675E+002
 11
1.1011343E+002
 21
1.1459375E+002
  0
LINE
  8
1
  6
CONTINUOUS
 62
1
 10
1.1011343E+002
 20
1.1459375E+002
 11
1.1008344E+002
 21
1.1464822E+002
  0
LINE
  8
1
  6
CONTINUOUS
 62
1
 10
1.1008344E+002
 20
1.1464822E+002
 11
1.100556E+002
 21
1.1468892E+002
  0
LINE
  8
1
  6
CONTINUOUS
 62
1
 10
1.100556E+002
 20
1.1468892E+002
 11
1.1000236E+002
 21
1.1473103E+002
  0
ARC
  8
1
  6
CONTINUOUS
 62
1
 10
1.1000233E+002
 20
1.1471178E+002
 40
1.9243284E-002
 50
8.3652935E+001
 51
8.9924322E+001
  0
ARC
  8
1
  6
CONTINUOUS
 62
1
 10
1.1000197E+002
 20
1.147085E+002
 40
2.2547978E-002
 50
7.8007996E+001
 51
8.3650922E+001
  0
ARC
  8
1
  6
CONTINUOUS
 62
1
 10
1.1000044E+002
 20
1.1470181E+002
 40
2.940674E-002
 50
6.833337E+001
 51
7.7797358E+001
  0
ARC
  8
1
  6
CONTINUOUS
 62
1
 10
1.0999558E+002
 20
1.1468946E+002
 40
4.2678864E-002
 50
6.1010984E+001
 51
6.8394172E+001
  0
ARC
  8
1
  6
CONTINUOUS
 62
1
 10
1.0998653E+002
 20
1.14673E+002
 40
6.146214E-002
 50
5.5280465E+001
 51
6.1069325E+001
  0
ARC
  8
1
  6
CONTINUOUS
 62
1
 10
1.0997235E+002
 20
1.1465242E+002
 40
8.6449501E-002
 50
5.0715358E+001
 51
5.5325847E+001
  0
ARC
  8
1
  6
CONTINUOUS
 62
1
 10
1.0995236E+002
 20
1.1462788E+002
 40
1.1810606E-001
 50
4.700432E+001
 51
5.0748285E+001
  0
ARC
  8
1
  6
CONTINUOUS
 62
1
 10
1.0991164E+002
 20
1.1458487E+002
 40
1.7733118E-001
 50
4.1135684E+001
 51
4.6855349E+001
  0
ARC
  8
1
  6
CONTINUOUS
 62
1
 10
1.098346E+002
 20
1.1451694E+002
 40
2.8003965E-001
 50
3.7020515E+001
 51
4.1234645E+001
  0
ARC
  8
1
  6
CONTINUOUS
 62
1
 10
1.0973676E+002
 20
1.1444268E+002
 40
4.0287283E-001
 50
3.3769743E+001
 51
3.7074652E+001
  0
ARC
  8
1
  6
CONTINUOUS
 62
1
 10
1.0957575E+002
 20
1.1433622E+002
 40
5.9589907E-001
 50
2.8578307E+001
 51
3.3673967E+001
  0
ARC
  8
1
  6
CONTINUOUS
 62
1
 10
1.0934416E+002
 20
1.1420919E+002
 40
8.6002985E-001
 50
2.06594E+001
 51
2.8629293E+001
  0
ARC
  8
1
  6
CONTINUOUS
 62
1
 10
1.093881E+002
 20
1.1422265E+002
 40
8.1417908E-001
 50
1.6731686E+001
 51
2.0864542E+001
  0
ARC
  8
1
  6
CONTINUOUS
 62
1
 10
1.0960386E+002
 20
1.1428625E+002
 40
5.8923969E-001
 50
1.1714088E+001
 51
1.6848341E+001
  0
ARC
  8
1
  6
CONTINUOUS
 62
1
 10
1.0989839E+002
 20
1.1446241E+002
 40
2.8803393E-001
 50
3.1320725E+002
 51
3.4868383E+002
  0
ARC
  8
1
  6
CONTINUOUS
 62
1
 10
1.1034015E+002
 20
1.1399066E+002
 40
3.5825714E-001
 50
1.3304897E+002
 51
1.411771E+002
  0
ARC
  8
1
  6
CONTINUOUS
 62
1
 10
1.1027803E+002
 20
1.1404031E+002
 40
2.7873659E-001
 50
1.4112272E+002
 51
1.507327E+002
  0
ARC
  8
1
  6
CONTINUOUS
 62
1
 10
1.1022033E+002
 20
1.1407244E+002
 40
2.1269081E-001
 50
1.5068575E+002
 51
1.6219456E+002
  0
ARC
  8
1
  6
CONTINUOUS
 62
1
 10
1.1018454E+002
 20
1.1408455E+002
 40
1.7491449E-001
 50
1.6238668E+002
 51
1.6893878E+002
  0
ARC
  8
1
  6
CONTINUOUS
 62
1
 10
1.1016591E+002
 20
1.1408821E+002
 40
1.5592767E-001
 50
1.6894374E+002
 51
1.7601721E+002
  0
ARC
  8
1
  6
CONTINUOUS
 62
1
 10
1.1007763E+002
 20
1.1409454E+002
 40
6.7419417E-002
 50
1.7617104E+002
 51
1.8276007E+002
  0
ARC
  8
1
  6
CONTINUOUS
 62
1
 10
1.10091E+002
 20
1.1409519E+002
 40
8.0809599E-002
 50
1.827674E+002
 51
1.8860752E+002
  0
ARC
  8
1
  6
CONTINUOUS
 62
1
 10
1.1010977E+002
 20
1.1409803E+002
 40
9.9791546E-002
 50
1.8860495E+002
 51
1.9367924E+002
  0
ARC
  8
1
  6
CONTINUOUS
 62
1
 10
1.1013484E+002
 20
1.1410411E+002
 40
1.2558557E-001
 50
1.9367103E+002
 51
1.9802452E+002
  0
ARC
  8
1
  6
CONTINUOUS
 62
1
 10
1.1018647E+002
 20
1.1412155E+002
 40
1.8007829E-001
 50
1.9821813E+002
 51
2.0507714E+002
  0
ARC
  8
1
  6
CONTINUOUS
 62
1
 10
1.1028978E+002
 20
1.1416945E+002
 40
2.9395181E-001
 50
2.0499826E+002
 51
2.0994564E+002
  0
ARC
  8
1
  6
CONTINUOUS
 62
1
 10
1.1054875E+002
 20
1.1432196E+002
 40
5.9448911E-001
 50
2.102234E+002
 51
2.1644656E+002
  0
ARC
  8
1
  6
CONTINUOUS
 62
1
 10
1.1124834E+002
 20
1.1483123E+002
 40
1.4598047
 50
2.1621297E+002
 51
2.1962844E+002
  0
ARC
  8
1
  6
CONTINUOUS
 62
1
 10
1.0959534E+002
 20
1.1346615E+002
 40
6.8399744E-001
 50
2.0105538E+001
 51
3.9384088E+001
  0
ARC
  8
1
  6
CONTINUOUS
 62
1
 10
1.0959534E+002
 20
1.1346615E+002
 40
6.839933E-001
 50
3.3989436E+002
 51
3.8010564E+002
  0
INSERT
  2
*XH32
  8
1
 10
-2.3882825E-002
 20
1.6623446E+001
  0
ARC
  8
1
  6
CONTINUOUS
 62
1
 10
1.0138109E+002
 20
1.1449779E+002
 40
2.3426478E-001
 50
3.5718875E+002
 51
4.4462835E+002
  0
ARC
  8
1
  6
CONTINUOUS
 62
1
 10
1.0138109E+002
 20
1.1449779E+002
 40
2.342658E-001
 50
3.1188473E+002
 51
3.5718861E+002
  0
ARC
  8
1
  6
CONTINUOUS
 62
1
 10
1.0173763E+002
 20
1.1409855E+002
 40
3.0100852E-001
 50
1.3167447E+002
 51
1.4194897E+002
  0
ARC
  8
1
  6
CONTINUOUS
 62
1
 10
1.0169484E+002
 20
1.1413279E+002
 40
2.4620723E-001
 50
1.4208663E+002
 51
1.4795827E+002
  0
ARC
  8
1
  6
CONTINUOUS
 62
1
 10
1.0166505E+002
 20
1.1415137E+002
 40
2.1109869E-001
 50
1.4794448E+002
 51
1.5445051E+002
  0
ARC
  8
1
  6
CONTINUOUS
 62
1
 10
1.0163666E+002
 20
1.141649E+002
 40
1.7965284E-001
 50
1.5443857E+002
 51
1.616833E+002
  0
ARC
  8
1
  6
CONTINUOUS
 62
1
 10
1.0161147E+002
 20
1.1417322E+002
 40
1.5312301E-001
 50
1.6167693E+002
 51
1.6973582E+002
  0
ARC
  8
1
  6
CONTINUOUS
 62
1
 10
1.0159098E+002
 20
1.1417695E+002
 40
1.3229815E-001
 50
1.6974031E+002
 51
1.7862364E+002
  0
ARC
  8
1
  6
CONTINUOUS
 62
1
 10
1.0157626E+002
 20
1.1417734E+002
 40
1.1756529E-001
 50
1.7864405E+002
 51
1.8825409E+002
  0
ARC
  8
1
  6
CONTINUOUS
 62
1
 10
1.015981E+002
 20
1.1418115E+002
 40
1.3973466E-001
 50
1.8851191E+002
 51
2.0304356E+002
  0
ARC
  8
1
  6
CONTINUOUS
 62
1
 10
1.0162123E+002
 20
1.1419105E+002
 40
1.6489201E-001
 50
2.0306336E+002
 51
2.16078E+002
  0
ARC
  8
1
  6
CONTINUOUS
 62
1
 10
1.0164775E+002
 20
1.1421026E+002
 40
1.9764481E-001
 50
2.1605276E+002
 51
2.2758652E+002
  0
ARC
  8
1
  6
CONTINUOUS
 62
1
 10
1.0167165E+002
 20
1.1423616E+002
 40
2.3288197E-001
 50
2.2754313E+002
 51
2.3788101E+002
  0
ARC
  8
1
  6
CONTINUOUS
 62
1
 10
1.014404E+002
 20
1.1386863E+002
 40
2.0134492E-001
 50
1.4010945E+001
 51
5.7753285E+001
  0
ARC
  8
1
  6
CONTINUOUS
 62
1
 10
1.0151194E+002
 20
1.1388676E+002
 40
1.2754714E-001
 50
3.6714014
 51
1.3888857E+001
  0
ARC
  8
1
  6
CONTINUOUS
 62
1
 10
1.0148824E+002
 20
1.1388531E+002
 40
1.5129286E-001
 50
3.5452701E+002
 51
3.6364668E+002
  0
ARC
  8
1
  6
CONTINUOUS
 62
1
 10
1.0145331E+002
 20
1.1388865E+002
 40
1.8637498E-001
 50
3.4659227E+002
 51
3.5452903E+002
  0
ARC
  8
1
  6
CONTINUOUS
 62
1
 10
1.0140764E+002
 20
1.1389947E+002
 40
2.3331575E-001
 50
3.3977552E+002
 51
3.4660862E+002
  0
ARC
  8
1
  6
CONTINUOUS
 62
1
 10
1.0135244E+002
 20
1.1391969E+002
 40
2.9210276E-001
 50
3.3391421E+002
 51
3.3979649E+002
  0
ARC
  8
1
  6
CONTINUOUS
 62
1
 10
1.0128963E+002
 20
1.1395029E+002
 40
3.6196745E-001
 50
3.2883619E+002
 51
3.3393457E+002
  0
ARC
  8
1
  6
CONTINUOUS
 62
1
 10
1.0118776E+002
 20
1.140135E+002
 40
4.8184914E-001
 50
3.2024042E+002
 51
3.2867334E+002
  0
ARC
  8
1
  6
CONTINUOUS
 62
1
 10
1.0182024E+002
 20
1.1348923E+002
 40
3.3966617E-001
 50
1.4049134E+002
 51
1.7931823E+002
  0
ARC
  8
1
  6
CONTINUOUS
 62
1
 10
1.0182024E+002
 20
1.1348923E+002
 40
3.3966669E-001
 50
1.7931806E+002
 51
2.2947986E+002
  0
LINE
  8
1
  6
CONTINUOUS
 62
1
 10
1.0159955E+002
 20
1.1323103E+002
 11
1.0221499E+002
 21
1.1323103E+002
  0
LINE
  8
1
  6
CONTINUOUS
 62
1
 10
1.0221499E+002
 20
1.1323103E+002
 11
1.0296499E+002
 21
1.1398103E+002
  0
LINE
  8
1
  6
CONTINUOUS
 62
1
 10
1.0296499E+002
 20
1.1398103E+002
 11
1.0221499E+002
 21
1.1473103E+002
  0
LINE
  8
1
  6
CONTINUOUS
 62
1
 10
1.0221499E+002
 20
1.1473103E+002
 11
1.0140302E+002
 21
1.1473103E+002
  0
LINE
  8
1
  6
CONTINUOUS
 62
40
 10
1.1776499E+002
 20
1.1473103E+002
 11
1.1776499E+002
 21
1.1323103E+002
  0
DIMENSION
  8
1
  6
CONTINUOUS
 62
4
  2
*D1013
  3
DSTYLE1
 10
8.5831E+001
 20
1.1473103E+002
 11
8.29145E+001
 21
1.2190919E+002
 70
128
 13
9.3764989E+001
 23
1.1323103E+002
 14
9.3764989E+001
 24
1.1473103E+002
 40
3.0
 50
9.0E+001
1001
ACAD
1000
DSTYLE
1002
{
1070
173
1070
0
1070
5
1000
_AH13
1002
}
  0
DIMENSION
  8
1
  6
CONTINUOUS
 62
4
  2
*D1015
  3
DSTYLE2
 10
1.0296499E+002
 20
1.2019002E+002
 11
1.1946481E+002
 21
1.2344102E+002
 70
129
 13
1.0856499E+002
 23
1.1398103E+002
 14
1.0296499E+002
 24
1.1398103E+002
 40
5.0
1001
ACAD
1000
DSTYLE
1002
{
1070
173
1070
0
1070
5
1000
_AH13
1002
}
  0
LINE
  8
1
  6
CONTINUOUS
 62
4
 10
1.1793509E+002
 20
1.0458014E+002
 11
1.1934354E+002
 21
1.0316667E+002
  0
LINE
  8
1
  6
CONTINUOUS
 62
4
 10
1.1358306E+002
 20
1.0890558E+002
 11
1.0923103E+002
 21
1.1323103E+002
  0
TEXT
  8
1
  6
CONTINUOUS
 62
1
 10
5.8915576E+001
 20
2.220636E+001
 40
3.2
  1
24x1,5x92 mm
 41
8.0E-001
  0
TEXT
  8
1
  6
CONTINUOUS
 62
1
 10
3.4154265E+001
 20
2.5818541E+002
 40
2.9
  1
132,150,778
 41
8.0E-001
  0
DIMENSION
  8
1
  6
CONTINUOUS
 62
4
  2
*D1034
  3
DSTYLE3
 10
9.3764989E+001
 20
2.3310537E+002
 11
1.0584277E+002
 21
2.3602187E+002
 70
128
 13
1.1776499E+002
 23
2.2510637E+002
 14
9.3764989E+001
 24
2.2510637E+002
 40
3.0
 50
0.0
1001
ACAD
1000
DSTYLE
1002
{
1070
173
1070
0
1070
5
1000
_AH13
1002
}
  0
DIMENSION
  8
1
  6
CONTINUOUS
 62
4
  2
*D1049
  3
DSTYLE3
 10
8.4061E+001
 20
2.1610637E+002
 11
8.11445E+001
 21
1.787364E+002
 70
128
 13
1.0101238E+002
 23
1.4210637E+002
 14
1.0101238E+002
 24
2.1610637E+002
 40
3.0
 50
9.0E+001
1001
ACAD
1000
DSTYLE
1002
{
1070
173
1070
0
1070
5
1000
_AH13
1002
}
  0
DIMENSION
  8
1
  6
CONTINUOUS
 62
4
  2
*D1058
  3
DSTYLE3
 10
1.2609763E+002
 20
2.0610637E+002
 11
1.2318112E+002
 21
1.7929794E+002
 70
128
 13
1.1076499E+002
 23
1.5210637E+002
 14
1.1088168E+002
 24
2.0610637E+002
 40
3.0
 50
9.0E+001
1001
ACAD
1000
DSTYLE
1002
{
1070
173
1070
0
1070
5
1000
_AH13
1002
}
  0
DIMENSION
  8
1
  6
CONTINUOUS
 62
4
  2
*D1067
  3
DSTYLE3
 10
1.3244508E+002
 20
2.2510637E+002
 11
1.2952858E+002
 21
1.842874E+002
 70
128
 13
1.1790076E+002
 23
1.3310637E+002
 14
1.1776499E+002
 24
2.2510637E+002
 40
3.0
 50
9.0E+001
1001
ACAD
1000
DSTYLE
1002
{
1070
173
1070
0
1070
5
1000
_AH13
1002
}
  0
LINE
  8
1
  6
CENTERLINE
 62
1
 10
8.9391191E+001
 20
1.7910637E+002
 11
1.1989494E+002
 21
1.7910637E+002
  0
DIMENSION
  8
1
  6
CONTINUOUS
 62
4
  2
*D1077
  3
DSTYLE3
 10
1.0076499E+002
 20
1.9448679E+002
 11
8.9812028E+001
 21
1.9740329E+002
 70
128
 13
1.1076499E+002
 23
1.9560857E+002
 14
1.0076499E+002
 24
1.9605605E+002
 40
3.0
 50
0.0
1001
ACAD
1000
DSTYLE
1002
{
1070
173
1070
0
1070
5
1000
_AH13
1002
}
  0
DIMENSION
  8
1
  6
CONTINUOUS
 62
4
  2
*D1089
  3
DSTYLE1
 10
1.0221499E+002
 20
1.0523491E+002
 11
1.1822453E+002
 21
1.0815141E+002
 70
128
 13
1.0931499E+002
 23
1.1323103E+002
 14
1.0221499E+002
 24
1.1323103E+002
 40
3.0
 50
0.0
1001
ACAD
1000
DSTYLE
1002
{
1070
173
1070
0
1070
5
1000
_AH13
1002
}
  0
DIMENSION
  8
1
  6
CONTINUOUS
 62
4
  2
*D1101
  3
DSTYLE4
 10
9.231986E+001
 20
1.033359E+002
 11
1.0576499E+002
 21
1.0229688E+002
 70
130
 13
1.1921012E+002
 23
1.033359E+002
 14
1.1903925E+002
 24
1.0350676E+002
 15
1.0193934E+002
 25
1.1295537E+002
 16
1.0576499E+002
 26
9.8766742E+001
1001
ACAD
1000
DSTYLE
1002
{
1070
173
1070
0
1070
5
1000
_AH13
1002
}
  0
LINE
  8
1
  6
CONTINUOUS
 62
3
 10
5.0129637E+001
 20
2.6925782E+002
 11
4.6193037E+001
 21
2.6468713E+002
  0
LINE
  8
1
  6
CONTINUOUS
 62
3
 10
4.2256437E+001
 20
2.6925782E+002
 11
5.0129637E+001
 21
2.6925782E+002
  0
LINE
  8
1
  6
CONTINUOUS
 62
3
 10
4.6193037E+001
 20
2.6468713E+002
 11
4.2256437E+001
 21
2.6925782E+002
  0
TEXT
  8
1
  6
CONTINUOUS
 62
150
 10
2.621573E+001
 20
2.7258149E+002
 40
4.100625
  1
for lock type:
 41
6.5892857E-001
 72
1
 11
4.5129863E+001
 21
2.746318E+002
 73
2
  0
TEXT
  8
1
  6
CONTINUOUS
 62
150
 10
2.6859528E+001
 20
2.7904934E+002
 40
4.100625
  1
Für Schlosstyp: 
 41
6.6093752E-001
 72
1
 11
4.8541583E+001
 21
2.8109966E+002
 73
2
  0
INSERT
  2
*XH103
  8
1
 10
-6.1991334
 20
4.993104
  0
LINE
  8
1
  6
CONTINUOUS
 62
40
 10
1.0140302E+002
 20
1.1473103E+002
 11
1.02216E+002
 21
1.1473103E+002
  0
LINE
  8
1
  6
CONTINUOUS
 62
40
 10
1.02216E+002
 20
1.1473103E+002
 11
1.1776499E+002
 21
1.1473103E+002
  0
INSERT
  2
*XH109
  8
1
 10
1.022083E+002
 20
1.1373325E+002
  0
LINE
  8
1
  6
CONTINUOUS
 62
4
 10
8.5831672E+001
 20
1.1473237E+002
 11
8.5831672E+001
 21
1.1323438E+002
  0
LINE
  8
1
  6
CONTINUOUS
 62
4
 10
1.0221296E+002
 20
1.0522762E+002
 11
1.0929483E+002
 21
1.0522762E+002
  0
DIMENSION
  8
1
  6
CONTINUOUS
 62
4
  2
*D1241
  3
DSTYLE5
 10
1.0126499E+002
 20
1.5260637E+002
 11
1.0673241E+002
 21
1.5649551E+002
 70
4
 15
1.0085755E+002
 25
1.5231655E+002
 40
-1.2869549E+001
1001
ACAD
1000
DSTYLE
1002
{
1070
173
1070
0
1070
5
1000
_AH13
1002
}
  0
LINE
  8
1
  6
CENTERLINE
 62
1
 10
1.0576499E+002
 20
1.5370648E+002
 11
1.0576499E+002
 21
1.3026E+002
  0
DIMENSION
  8
1
  6
CONTINUOUS
 62
4
  2
*D1243
  3
DSTYLE5
 10
1.1026499E+002
 20
2.0560637E+002
 11
1.0695272E+002
 21
2.0029102E+002
 70
4
 15
1.1052942E+002
 25
2.0603073E+002
 40
-1.2422919E+001
1001
ACAD
1000
DSTYLE
1002
{
1070
173
1070
0
1070
5
1000
_AH13
1002
}
  0
LINE
  8
1
  6
CENTERLINE
 62
1
 10
1.0576499E+002
 20
2.0697642E+002
 11
1.0576499E+002
 21
2.2787586E+002
  0
TEXT
  8
1
  6
CONTINUOUS
 62
1
 10
3.4218269E+001
 20
2.5095627E+002
 40
2.9
  1
132F,532F
 41
8.0E-001
  0
VIEWPORT
 67
1
  8
0
  6
CONTINUOUS
 62
3
100
AcDbViewport
 10
1.05E+002
 20
1.485E+002
 30
0.0
 40
2.97E+002
 41
2.97E+002
 68
1
 69
1
1001
ACAD
1000
MVIEW
1002
{
1070
16
1010
0.0
1020
0.0
1030
0.0
1010
0.0
1020
0.0
1030
1.0
1040
0.0
1040
2.97E+002
1040
5.775E+001
1040
1.485E+002
1040
5.0E+001
1040
0.0
1040
0.0
1070
0
1070
1000
1070
1
1070
0
1070
0
1070
0
1070
0
1070
0
1040
0.0
1040
0.0
1040
0.0
1040
5.0E-001
1040
5.0E-001
1040
5.0E-001
1040
5.0E-001
1070
0
1002
{
1002
}
1002
}
  0
VIEWPORT
 67
1
  8
0
  6
CONTINUOUS
 62
3
100
AcDbViewport
 10
1.05E+002
 20
1.485E+002
 30
0.0
 40
2.1E+002
 41
2.97E+002
 68
2
 69
2
1001
ACAD
1000
MVIEW
1002
{
1070
16
1010
0.0
1020
0.0
1030
0.0
1010
0.0
1020
0.0
1030
1.0
1040
0.0
1040
2.97E+002
1040
1.05E+002
1040
1.485E+002
1040
5.0E+001
1040
0.0
1040
0.0
1070
0
1070
1000
1070
1
1070
0
1070
0
1070
0
1070
0
1070
0
1040
0.0
1040
0.0
1040
0.0
1040
5.0E-001
1040
5.0E-001
1040
5.0E-001
1040
5.0E-001
1070
0
1002
{
1002
}
1002
}
  0
ENDSEC
  0
EOF
